#TITLE:blow your speakers out;
#SUBTITLE:;
#ARTIST:Big Time Rush;
#TITLETRANSLIT:;
#SUBTITLETRANSLIT:;
#ARTISTTRANSLIT:;
#GENRE:;
#CREDIT:;
#BANNER:;
#BACKGROUND:;
#LYRICSPATH:;
#CDTITLE:;
#MUSIC:Blow Your Speakers Out.ogg;
#OFFSET:0.000000;
#SAMPLESTART:100.059883;
#SAMPLELENGTH:12.000000;
#SELECTABLE:YES;
#BPMS:0.000000=119.000000
;
#STOPS:0.000000=0.250000
;
#BGCHANGES:;
#KEYSOUNDS:;
#ATTACKS:;

//---------------dance-single - ----------------
#NOTES:
     dance-single:
     :
     Hard:
     10:
     0.353162,0.437207,0.146652,0.130939,0.154509,472.000000,444.000000,28.000000,25.000000,0.000000,0.000000,0.353162,0.437207,0.146652,0.130939,0.154509,472.000000,444.000000,28.000000,25.000000,0.000000,0.000000:
// measure 0
0000
0000
0000
0000
,  // measure 1
0000
0000
0000
0000
,  // measure 2
0000
0000
0000
0000
,  // measure 3
0000
0000
0000
0000
0010
1000
0100
0001
,  // measure 4
0010
0001
2000
0000
3000
0000
0010
0001
,  // measure 5
0100
0010
0001
1000
0100
0001
0100
0010
,  // measure 6
0001
0100
2000
0000
3000
0001
1000
0001
,  // measure 7
0100
0010
0001
1000
0001
0010
0100
0010
,  // measure 8
0001
1000
0200
0000
0300
0000
0001
1000
,  // measure 9
0100
0001
0020
0000
0030
0100
0001
1000
,  // measure 10
0001
0010
0001
0100
0010
0001
1000
0001
,  // measure 11
0100
0010
0001
1000
0001
0100
0001
0100
,  // measure 12
1000
0000
0000
0000
0100
0000
0001
1000
0000
0000
0100
0000
0010
0000
0100
0000
,  // measure 13
0000
0000
0001
0000
1000
0000
0100
0001
0000
0000
0010
0000
0100
0000
0001
0000
,  // measure 14
0000
0000
1000
0000
0100
0000
0001
0010
0000
0000
0100
0000
0010
0000
0001
0000
,  // measure 15
1000
0100
0000
0100
0000
0001
1000
0010
,  // measure 16
0100
0000
0100
0000
0010
0000
0100
0001
,  // measure 17
0010
0000
0000
0001
0000
0000
0000
0000
0000
0000
0000
0000
0010
0000
0100
0000
,  // measure 18
0001
0000
0100
0000
1000
0000
0001
0100
,  // measure 19
0010
0000
0000
0001
0000
0000
1000
0000
0000
0000
0000
0000
0001
0000
0100
0000
,  // measure 20
0001
0000
1000
0100
0000
0001
0020
0000
,  // measure 21
0200
0000
0000
0000
0330
0000
0001
0100
,  // measure 22
1000
0000
0000
0000
0000
0000
0001
0000
1000
0000
0000
0001
0000
0000
0010
0000
,  // measure 23
0010
0000
1000
0000
0001
0000
0100
0000
0010
0001
0100
0010
0001
1000
0001
0100
,  // measure 24
1000
0000
0001
0000
0100
0000
0010
0001
,  // measure 25
0100
0000
0000
0010
0000
0000
0001
0000
0000
0000
0000
0000
0100
0000
0010
0000
,  // measure 26
0001
0000
0100
0000
0010
0000
0001
0100
,  // measure 27
1000
0000
0000
0100
0000
0000
0010
0000
0000
0000
0000
0000
1000
0000
0100
0000
,  // measure 28
0001
0000
0010
0001
0000
0100
0002
0000
,  // measure 29
2000
0000
0000
0000
3003
0000
0100
1000
,  // measure 30
0100
0000
0000
0000
0000
0000
0001
0000
1000
0000
0000
0001
0000
0000
0010
0000
,  // measure 31
0000
0000
0000
0000
0000
1000
0100
0001
,  // measure 32
0010
0100
1000
0000
0000
0010
0001
1000
,  // measure 33
0001
0100
1000
0001
0100
0010
0001
1000
,  // measure 34
0001
0100
1000
0000
0000
0010
0001
1000
,  // measure 35
0001
0000
0100
0000
0010
0000
0001
0000
1000
0100
0010
0001
0000
0010
0000
0001
,  // measure 36
0000
0000
1000
0000
0100
0000
0000
0000
1000
0100
0010
0001
0000
0100
0000
1000
,  // measure 37
0000
0001
0010
0000
0000
0010
0001
0100
,  // measure 38
1000
0000
0010
0000
0001
0000
0100
1000
,  // measure 39
0001
0000
0100
0000
0010
0000
0001
0100
,  // measure 40
0000
0000
0000
0000
1000
0000
0010
0001
0000
0000
1000
0000
0100
0000
0001
0000
,  // measure 41
0000
0000
0100
0000
0001
0000
1000
0100
0000
0000
0100
0000
0010
0000
0010
0000
,  // measure 42
0000
0000
0100
0000
1000
0000
0100
0001
0000
0000
0001
0000
1000
0000
0100
0000
,  // measure 43
0010
0000
0000
0001
0000
0000
0100
0000
0000
0000
0001
0000
0100
0000
0010
0000
,  // measure 44
0001
0000
0100
0000
0010
0000
0001
0100
,  // measure 45
1000
0000
0000
0010
0000
0000
0001
0000
0000
0000
0000
0000
0001
0000
0100
0000
,  // measure 46
1000
0000
0100
0000
0010
0000
0001
0100
,  // measure 47
1000
0000
0000
0100
0000
0000
0010
0000
0000
0000
0000
0000
0001
0000
0100
0000
,  // measure 48
1001
0000
0001
1001
0000
0100
0202
0000
,  // measure 49
0000
0000
0000
0000
0303
0000
1000
0100
,  // measure 50
0101
0000
0000
0000
0000
0000
1001
0000
1001
0000
0000
0101
0000
0000
1100
0000
,  // measure 51
0000
0000
0000
0000
0000
0000
0100
1000
,  // measure 52
0010
0000
0001
0000
0100
0000
0010
0100
,  // measure 53
0001
0000
0000
0100
0000
0000
1000
0000
0000
0000
0000
0000
0001
0000
0100
0000
,  // measure 54
1000
0000
0100
0000
0010
0000
0001
0100
,  // measure 55
1000
0000
0000
0010
0000
0000
0001
0000
0000
0000
0000
0000
0001
0000
0100
0000
,  // measure 56
0010
0000
0001
0100
0000
0100
2000
0000
,  // measure 57
0200
0000
0000
0000
3300
0000
0001
1000
,  // measure 58
0100
0000
0000
0000
0000
0000
0100
0000
0010
0000
0000
0001
0000
0000
1000
0000
,  // measure 59
0000
0000
0000
0000
0000
0000
0100
0000
0001
0000
0000
1000
0000
0000
0100
0000
,  // measure 60
0020
0000
0000
0000
,  // measure 61
0000
0000
0000
0000
0000
0000
0030
0000
0000
0000
1000
0100
0001
0010
0000
0100
,  // measure 62
0002
0000
0000
0000
0000
0000
0000
0000
0000
0000
0000
0000
0003
0000
0000
0010
,  // measure 63
0100
0001
0000
1000
0000
0001
0000
0100
0000
0010
0000
0001
0000
0100
0000
1000
,  // measure 64
0020
0000
0000
0000
,  // measure 65
0000
0000
0000
0000
0030
0000
0000
0000
0000
1000
0100
0001
0010
0100
0000
0001
,  // measure 66
0020
0000
0000
0030
,  // measure 67
0200
0000
0000
0000
0300
0000
0001
1000
,  // measure 68
0100
0000
0010
0000
0100
0000
0010
0001
,  // measure 69
0110
0000
0000
0011
0000
0000
1001
0000
0000
0000
0000
0000
0000
0000
0000
0000
,  // measure 70
0000
0000
0000
0000
0000
0000
0001
0100
,  // measure 71
1000
0000
0000
0001
0000
0000
0010
0000
0000
0000
0000
0000
0100
0000
0010
0000
,  // measure 72
1001
0000
0001
0101
0000
1000
2002
0000
,  // measure 73
0000
0000
0000
0000
3003
0000
0100
0001
,  // measure 74
1001
0000
0000
0000
0101
0000
1100
0000
0101
0000
0000
0101
0000
0000
1001
0000
,  // measure 75
0000
0000
0000
0000
0000
0000
0100
0010
,  // measure 76
0001
0000
1000
0000
0100
0000
0001
0010
,  // measure 77
0100
0000
0000
0001
0000
0000
0010
0000
0000
0000
0000
0000
0001
0000
0100
0000
,  // measure 78
1000
0000
0100
0000
0010
0000
0001
0100
,  // measure 79
1000
0000
0000
0001
0000
0000
0010
0000
0000
0000
0000
0000
0001
0000
0100
0000
,  // measure 80
1000
0000
0001
0010
0000
0100
0002
0000
,  // measure 81
2000
0000
0000
0000
3003
0000
0001
0010
,  // measure 82
0100
0000
0000
0000
0000
0000
0100
0000
0010
0000
0000
0001
0000
0000
1000
0000
,  // measure 83
0000
0000
0000
0000
0000
0000
0100
0000
0010
0000
0000
0001
0100
0000
1000
0000
,  // measure 84
0001
0000
0100
0001
0000
1000
0200
0000
,  // measure 85
0000
0000
0000
0000
0300
0000
0100
1000
,  // measure 86
0001
0000
0000
0000
0000
0000
0100
0000
0010
0000
0000
0001
0000
0000
1000
0000
,  // measure 87
0000
0000
0000
0000
0000
0000
0001
0000
0100
0000
0000
0010
1000
0000
0001
0000
,  // measure 88
0110
0000
1000
0101
0000
1000
2002
0000
,  // measure 89
0000
0000
0000
0000
3003
0000
0100
0001
,  // measure 90
0000
0000
0000
0000
0101
0000
0101
0000
0110
0000
0000
0101
0000
0000
0101
0000
,  // measure 91
0000
0000
0000
0000
0000
0000
0010
0000
0100
0000
0000
0001
0000
0000
2000
0000
,  // measure 92
0000
0000
0000
3000
;
