#TITLE:blow my high;
#SUBTITLE:;
#ARTIST:Dee Mula;
#TITLETRANSLIT:;
#SUBTITLETRANSLIT:;
#ARTISTTRANSLIT:;
#GENRE:;
#CREDIT:;
#BANNER:;
#BACKGROUND:;
#LYRICSPATH:;
#CDTITLE:;
#MUSIC:blow my high.ogg;
#OFFSET:0.000000;
#SAMPLESTART:100.059883;
#SAMPLELENGTH:12.000000;
#SELECTABLE:YES;
#BPMS:0.000000=150.000000
;
#STOPS:
;
#BGCHANGES:0.000=blow my high.mp4=1.000=0=0=1=====,
99999=-nosongbg-=1.000=0=0=0 // don't automatically add -songbackground-
;
#KEYSOUNDS:;
#ATTACKS:;

//---------------dance-single - ----------------
#NOTES:
     dance-single:
     :
     Hard:
     13:
     0.602074,0.544989,0.000000,0.000000,0.093805,629.000000,629.000000,0.000000,0.000000,0.000000,0.000000,0.602074,0.544989,0.000000,0.000000,0.093805,629.000000,629.000000,0.000000,0.000000,0.000000,0.000000:
0000
0000
0000
0000
,
0000
0000
0000
0000
,
0001
0000
0000
0100
0000
0000
1000
0000
0010
0000
0001
0000
0100
0000
1000
0000
,
0001
0000
0100
0010
0001
1000
0001
0100
,
0010
0000
0000
0001
0000
0000
0100
0000
0100
0000
0010
0000
0001
0000
0100
0000
,
1000
0000
0010
0000
0100
0010
0001
0100
,
1000
0000
0000
0010
0000
0000
0100
0000
0001
0000
1000
0000
0001
0000
0100
0000
,
0001
0000
0000
0100
0000
0000
0001
0000
1000
0000
0001
0000
0100
0000
0010
0000
,
1000
0000
0000
0001
0000
0000
0010
0000
0100
0000
0010
0000
0001
0000
0100
0000
,
1000
0000
0010
0000
0001
0100
1000
0001
,
1000
0000
0000
0010
0000
0000
0001
0000
0100
0000
0010
0000
0001
0000
0100
0000
,
1000
0000
0010
0100
0001
1000
0001
0010
,
0100
0000
0000
0001
0000
0000
0010
0000
0100
0000
0001
0000
1000
0000
0001
0000
,
0010
0000
0001
0000
0100
0010
0001
0100
,
1000
0000
0000
0010
0000
0000
0100
0000
0100
0000
0001
0000
0010
0000
0100
0000
,
0001
0000
0000
0100
0000
0000
0010
0000
0100
0000
0001
0000
1000
0000
0100
0000
,
0001
0000
0000
1000
0000
0000
0100
0000
0001
0000
0010
0000
0100
0000
0001
0000
,
1000
0000
0100
0000
0001
1000
0001
0100
,
0010
0000
0000
0001
0000
0000
0100
0000
0100
0000
0010
0000
0001
0000
0100
0000
,
0010
0000
0001
0000
1000
0001
0100
0010
,
1000
0000
0000
0001
0000
0000
0010
0000
1000
0000
0001
0000
0100
0000
0010
0000
,
0001
0000
0000
0100
0000
0000
1000
0000
0010
0000
0001
0000
1000
0000
0001
0000
,
0100
0010
0001
0000
1000
0100
0100
0010
,
0001
0000
0000
0100
0000
0000
0001
0000
0100
0000
0010
0000
0001
0000
0100
0000
,
1000
0100
0001
1000
0001
0010
0001
0100
,
1000
0000
0001
0100
0100
0010
0001
0100
,
1000
0000
0100
0001
0100
0010
0001
0100
,
1000
0000
0100
0010
0001
1000
0001
0100
,
0010
0000
0000
0001
0000
0000
1000
0000
0100
0000
0001
0000
0010
0000
0100
0000
,
0001
0000
0010
0001
0000
0010
1000
0000
0010
0000
0100
0000
0001
0000
0100
0000
,
0010
0001
0100
1000
1000
0001
0100
0010
,
0001
0100
0000
0001
1000
0100
0001
0010
,
0100
0001
1000
0001
0001
1000
0100
0001
,
0100
0010
0001
0100
1000
0100
0010
0001
,
1000
0001
0100
0010
0001
1000
0100
0010
,
0001
0100
0010
0001
0100
0001
1000
0010
,
0100
0010
0001
0010
0001
0100
0010
0001
,
1000
0001
0100
0010
1000
0001
0100
0010
,
0001
0100
0001
0100
0010
0001
1000
0100
,
0010
0001
1000
0001
0100
0010
0001
1000
,
0100
0100
0010
0000
0001
1000
0001
0010
,
0100
0001
0100
0000
0100
0010
0001
1000
,
0100
0010
0100
0001
1000
0001
0010
0100
,
0010
0001
0100
0010
0001
1000
0100
0010
,
0001
0001
0100
0010
0001
0100
1000
0010
,
0100
0000
0001
0000
0010
0100
0001
1000
,
0001
0010
0100
0010
0001
0100
1000
0010
,
0001
0000
1000
0100
0001
0010
0100
0001
,
1000
0000
0100
0000
0001
0010
0100
0001
,
1000
0010
0001
1000
0100
0001
0100
0010
,
0001
0000
0100
0000
0001
0010
0100
0001
,
1000
0000
0010
0001
0100
0010
1000
0100
,
0001
0000
0100
0000
0001
0010
0100
0001
,
1000
0000
0001
0000
0100
0010
0001
0100
,
1000
0000
0001
0000
0100
0010
0001
0100
,
1000
0010
0100
0001
0010
0100
0001
0100
,
0010
0001
1000
0001
0100
0010
0001
1000
,
0100
0001
0100
0010
0001
0100
1000
0010
,
0001
0100
0001
0100
0010
0001
1000
0100
,
0001
0100
0010
0001
1000
0010
0100
0010
,
0001
1000
0001
0100
0010
0001
1000
0100
,
0100
0000
0010
0100
0100
0010
0100
1000
,
0010
0001
0100
0010
0001
1000
0001
0100
,
0010
0000
0001
0000
0100
0010
0001
0100
,
1000
0001
0100
0010
0001
0100
1000
0010
,
0100
0000
0010
0001
0100
0010
0001
0100
,
1000
0000
0001
0000
0100
0010
0001
0100
,
1000
0000
0001
0000
0100
0010
0001
0100
,
1000
0000
0010
0100
0001
1000
0001
0010
,
0100
0100
0001
0100
0010
0001
0100
1000
,
0010
0001
0100
0010
0001
0100
0001
0100
,
0010
0001
1000
0001
0100
0010
0001
0100
,
1000
0000
0001
0000
0100
0010
0001
0100
,
1000
0000
0001
0000
0100
0010
0001
0100
,
1000
0000
0000
0010
0000
0000
0001
0000
0100
0000
0001
0000
0010
0000
0100
0000
,
0001
0000
0010
0001
0100
0010
0001
0100
,
1000
0000
0000
0010
0000
0000
0001
0000
0100
0000
0010
0000
0001
0000
0100
0000
,
1000
0000
0001
0000
0100
0010
0001
0100
,
1000
0000
0000
0010
0000
0000
0001
0000
0100
0000
0001
0000
1000
0000
0001
0000
,
0010
0000
0000
1000
0000
0000
0100
0000
0001
0000
0010
0000
0100
0000
0001
0000
,
1000
0000
0000
0100
0000
0000
0001
0000
0100
0000
0010
0000
0001
0000
0100
0000
,
1000
0000
0010
0001
0100
0010
0001
0100
,
1000
0000
0000
0010
0000
0000
0100
0000
0001
0000
1000
0000
0100
0000
0001
0000
,
0010
0000
0010
0001
0100
0010
0001
0100
,
1000
0000
0000
0100
0000
0000
0001
0000
0010
0000
0100
0000
0001
0000
1000
0000
,
0001
0000
0010
0001
1000
0001
0100
0010
,
0001
0000
0000
0100
0000
0000
0010
0000
0100
0000
0010
0000
0001
0000
0100
0000
,
1000
0000
0000
0001
0000
0000
0010
0000
1000
0000
0100
0000
0001
0000
0010
0000
,
0100
0000
0000
0010
0000
0000
0100
0000
0100
0000
0010
0000
0001
0000
0100
0000
,
1000
0000
0001
0000
0100
0010
0001
0100
,
1000
0000
0000
0010
0000
0000
0001
0000
0000
0000
0000
0000
0000
0000
0000
0000
;

//---------------dance-single - ----------------
#NOTES:
     dance-single:
     :
     Medium:
     10:
     0.424993,0.484435,0.000000,0.006700,0.083754,444.000000,444.000000,0.000000,1.000000,0.000000,0.000000,0.424993,0.484435,0.000000,0.006700,0.083754,444.000000,444.000000,0.000000,1.000000,0.000000,0.000000:
0000
0000
0000
0000
,
0000
0000
0000
0000
,
1000
0000
0000
0010
0000
0000
0100
0000
0000
0000
0000
0000
0000
0000
0000
0000
,
0000
0000
0000
1000
0100
0001
0010
0100
,
0001
0000
0000
0100
0000
0000
0001
0000
0000
0000
0000
0000
0000
0000
0000
0000
,
0000
0000
0000
0000
0000
0000
0100
0001
,
1000
0000
0000
0000
0000
0100
0010
0100
,
0001
0000
0000
1000
0000
0000
0100
0000
0000
0000
0000
0000
0001
0000
0100
0000
,
1000
0000
0000
0010
0000
0000
0001
0000
0000
0000
0000
0000
0000
0000
0000
0000
,
0000
0000
0000
0001
0100
0010
0001
0100
,
1000
0000
0000
0010
0000
0000
0001
0000
0000
0000
0000
0000
0000
0000
0000
0000
,
0000
0000
0000
0010
0001
0100
0001
0100
,
1000
0000
0000
0010
0000
0000
0001
0000
0000
0000
0000
0000
0000
0000
0000
0000
,
0000
0000
0000
0000
0000
0000
0100
0010
,
0001
0000
0000
1000
0000
0000
0100
0000
0000
0000
0001
0000
0100
0000
0010
0000
,
0100
0000
0000
1000
0000
0000
0001
0000
0000
0000
0000
0000
0010
0000
0001
0000
,
0100
0000
0000
0010
0000
0000
0001
0000
0000
0000
0000
0000
0000
0000
0000
0000
,
0000
0000
0000
0000
0000
0000
0001
0100
,
1000
0000
0000
0010
0000
0000
0001
0000
0000
0000
0000
0000
0000
0000
0000
0000
,
0000
0000
0000
0000
0000
1000
0100
0001
,
0010
0000
0000
0100
0000
0000
0001
0000
0000
0000
0001
0000
0100
0000
0010
0000
,
0001
0000
0000
1000
0000
0000
0100
0000
0000
0000
0010
0000
0001
0000
0100
0000
,
1000
0010
0001
0000
0010
0001
1000
0001
,
0100
0000
0000
0010
0000
0000
0001
0000
0000
0000
0010
0000
0001
0000
0100
0000
,
1000
0100
0001
0010
0000
0010
0001
0100
,
1000
0000
0100
0010
0000
0001
0100
1000
,
0100
0000
0001
0010
0000
0010
0001
0100
,
1000
0000
0100
0001
1000
0001
0010
0100
,
0001
0000
0000
0100
0000
0000
0010
0000
0000
0000
1000
0000
0001
0000
0100
0000
,
0010
0001
0100
1000
0000
0100
0001
0100
,
0010
0001
0100
1000
0001
0100
0001
0010
,
0100
1000
0000
0100
0000
0001
0100
0010
,
0001
0100
1000
0010
0001
0000
0100
0000
,
0000
1000
0100
0001
0100
0000
0001
0000
,
0000
0010
0100
0001
0100
0100
0001
1000
,
0001
0100
0010
0001
1000
0000
0100
0000
,
0000
0100
0010
0001
0100
0010
0001
1000
,
0001
0100
0010
0001
1000
0000
0100
0000
,
0000
0100
0010
0001
1000
0000
0100
0000
,
0001
0100
0010
0001
1000
0000
0100
0000
,
0000
0001
1000
0000
0100
0000
0100
0000
,
0000
0010
0001
0000
1000
0000
0100
0000
,
0000
0001
0100
0010
0001
0100
1000
0010
,
0001
0100
0010
0001
1000
0000
0100
0000
,
0000
0010
0001
0100
1000
0000
0100
0000
,
0010
0000
0000
0000
0010
0001
0100
0010
,
1000
0100
0001
0000
0100
0000
0100
0000
,
0100
0000
0000
0001
0100
0010
1000
0001
,
0100
0000
0001
0000
0000
0100
1000
0001
,
0100
0010
0001
0100
1000
0000
0000
0100
,
1000
0000
0100
0000
0100
0010
0001
0100
,
1000
0000
0000
0010
0001
0100
1000
0000
,
0001
0000
1000
0000
0001
0000
0100
0001
,
0010
0000
0100
0001
1000
0000
0010
0000
,
0100
0000
0001
0000
0100
0000
0010
0100
,
0001
1000
0001
0100
0010
0000
1000
0001
,
0100
0010
0001
0100
1000
0000
0100
0000
,
0100
0100
0001
0010
,
1000
0100
0001
0010
0100
0000
0001
0000
,
0010
0001
0010
0001
0100
0000
1000
0000
,
0100
0010
0001
0100
1000
0000
0001
0100
,
1000
0000
0100
0000
0000
0001
0010
0100
,
0001
0010
0001
1000
0001
0100
0010
0001
,
0100
0000
1000
0000
0100
0010
0001
0100
,
1000
0001
0100
0010
0001
1000
0100
0000
,
0001
0000
0100
0000
0001
0100
0010
0001
,
1000
0000
0100
0000
1000
0001
0100
0010
,
0001
0000
0100
0000
0010
0001
1000
0001
,
0100
0000
0100
0001
0010
0000
0100
0000
,
0000
0100
0010
0001
1000
0000
0100
0001
,
0010
0001
0100
0010
0001
1000
0001
0100
,
0010
0001
1000
0001
0100
0000
0010
0001
,
0020
0000
0000
0000
,
0000
0000
0030
0000
0100
0010
0001
0100
,
1000
0000
0000
0001
0000
0000
0010
0000
0000
0000
0000
0000
0000
0000
0000
0000
,
0000
0000
0000
0100
0001
1000
0001
0010
,
0100
0000
0000
0001
0000
0000
0010
0000
0000
0000
0000
0000
0000
0000
0000
0000
,
0000
0000
0000
0000
0000
0000
0001
0100
,
1000
0000
0000
0010
0000
0000
0001
0000
0000
0000
0010
0000
0001
0000
0100
0000
,
1000
0000
0000
0010
0000
0000
0001
0000
0000
0000
0000
0000
0001
0000
0100
0000
,
1000
0000
0000
0001
0000
0000
0010
0000
0000
0000
0000
0000
0000
0000
0000
0000
,
0000
0000
0000
0000
1000
0100
0001
0010
,
0100
0000
0000
0001
0000
0000
0010
0000
0000
0000
0000
0000
0000
0000
0000
0000
,
0000
0000
0000
0010
0001
0010
0001
0100
,
1000
0000
0000
0010
0000
0000
0001
0000
0000
0000
0000
0000
0000
0000
0000
0000
,
0000
0000
0000
0000
0000
0000
0001
0100
,
1000
0000
0000
0010
0000
0000
0001
0000
0000
0000
0010
0000
0001
0000
0100
0000
,
1000
0000
0000
0010
0000
0000
0001
0000
0000
0000
0000
0000
0001
0000
0100
0000
,
1000
0000
0000
0010
0000
0000
0001
0000
0000
0000
0000
0000
0000
0000
0000
0000
,
0000
0000
0000
0000
0000
0000
0001
0100
,
1000
0000
0000
0010
0000
0000
0001
0000
0000
0000
0000
0000
0000
0000
0000
0000
;

//---------------dance-single - ----------------
#NOTES:
     dance-single:
     :
     Easy:
     5:
     0.177081,0.271364,0.000000,0.000000,0.000000,185.000000,185.000000,0.000000,0.000000,0.000000,0.000000,0.177081,0.271364,0.000000,0.000000,0.000000,185.000000,185.000000,0.000000,0.000000,0.000000,0.000000:
0000
0000
0000
0000
,
0000
0000
0000
0000
,
0100
0000
0000
0000
,
0000
0000
0000
0000
,
0001
0000
0000
0000
,
0000
0000
0000
0000
,
1000
0000
0000
0000
,
0100
0000
0000
0000
,
0010
0000
0000
0000
,
0000
0000
0000
0000
,
1000
0000
0000
0000
,
0000
0000
0000
0000
,
0001
0000
0000
0000
,
0000
0000
0000
0000
,
0010
0000
0000
0000
,
0100
0000
0000
0000
,
0010
0000
0000
0000
,
0000
0000
0000
0000
,
1000
0000
0000
0000
,
0000
0000
0000
0000
,
0100
0000
0000
0000
,
0010
0000
0000
0000
,
0001
1000
0001
0100
,
0010
0000
0000
0000
,
0100
0000
0000
0100
,
0010
0100
0000
0100
,
0001
0010
0000
0001
,
1000
0100
0100
0001
,
1000
0000
0000
0000
,
0100
0000
0000
0000
,
0010
0001
1000
0001
,
0100
0000
0000
0000
,
0001
0000
1000
0100
,
0000
0010
0100
0001
,
0000
0001
0100
1000
,
0010
0001
0100
1000
,
0000
0010
0001
0100
,
0010
0001
0100
1000
,
0000
0010
0001
0100
,
0010
0001
1000
0100
,
0000
0001
0100
1000
,
0000
0010
0001
0100
,
0000
1000
0001
0100
,
0010
0001
0100
1000
,
0000
0100
0001
0100
,
0100
0000
0001
1000
,
0001
0100
0010
0010
,
0010
0000
1000
0001
,
0100
0010
0000
0010
,
0001
0100
1000
0000
,
0100
0100
0100
0001
,
0100
0000
0001
1000
,
0001
0100
0010
0000
,
0001
1000
0100
1000
,
0001
0100
0010
0000
,
0001
1000
0001
0100
,
0010
0001
1000
0100
,
0000
0001
0100
0010
,
0000
0001
0100
1000
,
0000
0010
0001
0100
,
0001
1000
0100
0001
,
0100
1000
0000
0000
,
0001
1000
0001
0100
,
0010
0001
0001
0100
,
0010
0001
1000
0100
,
0010
0001
0100
0001
,
0100
0010
0001
0100
,
0001
0100
0010
0001
,
1000
0001
0100
0010
,
0000
0001
0100
1000
,
0000
0010
0100
0001
,
0010
0001
1000
0100
,
0000
0000
0000
0000
,
0000
0000
0000
0000
,
0010
0000
0000
0000
,
0000
0000
0000
0000
,
1000
0000
0000
0000
,
0000
0000
0000
0000
,
0001
0000
0000
0000
,
0010
0000
0000
0000
,
0100
0000
0000
0000
,
0000
0000
0000
0000
,
0001
0000
0000
0000
,
0000
0000
0000
0000
,
1000
0000
0000
0000
,
0000
0000
0000
0000
,
0100
0000
0000
0000
,
0010
0000
0000
0000
,
0100
0000
0000
0000
,
0000
0000
0000
0000
,
0010
0000
0000
0000
;

//---------------dance-single - ----------------
#NOTES:
     dance-single:
     :
     Beginner:
     1:
     0.070832,0.090455,0.000000,0.000000,0.000000,74.000000,74.000000,0.000000,0.000000,0.000000,0.000000,0.070832,0.090455,0.000000,0.000000,0.000000,74.000000,74.000000,0.000000,0.000000,0.000000,0.000000:
// measure 0
0000
0000
0000
0000
,  // measure 1
0000
0000
0000
0000
,  // measure 2
0100
0000
0000
0000
,  // measure 3
0000
0000
0000
0000
,  // measure 4
0010
0000
0000
0000
,  // measure 5
0000
0000
0000
0000
,  // measure 6
0100
0000
0000
0000
,  // measure 7
0001
0000
0000
0000
,  // measure 8
1000
0000
0000
0000
,  // measure 9
0000
0000
0000
0000
,  // measure 10
0010
0000
0000
0000
,  // measure 11
0000
0000
0000
0000
,  // measure 12
0100
0000
0000
0000
,  // measure 13
0000
0000
0000
0000
,  // measure 14
0010
0000
0000
0000
,  // measure 15
0100
0000
0000
0000
,  // measure 16
0010
0000
0000
0000
,  // measure 17
0000
0000
0000
0000
,  // measure 18
0100
0000
0000
0000
,  // measure 19
0000
0000
0000
0000
,  // measure 20
1000
0000
0000
0000
,  // measure 21
0001
0000
0000
0000
,  // measure 22
0010
0000
0000
0000
,  // measure 23
0100
0000
0000
0000
,  // measure 24
0010
0000
0000
0000
,  // measure 25
0100
0000
0000
0000
,  // measure 26
1000
0000
0000
0000
,  // measure 27
0100
0000
0000
0000
,  // measure 28
0001
0000
0000
0000
,  // measure 29
0010
0000
0000
0000
,  // measure 30
0100
0000
0000
0000
,  // measure 31
0001
0000
0000
0000
,  // measure 32
1000
0000
0000
0000
,  // measure 33
0100
0000
0000
0000
,  // measure 34
0010
0000
0000
0000
,  // measure 35
0100
0000
0000
0000
,  // measure 36
0001
0000
0000
0000
,  // measure 37
0010
0000
0000
0000
,  // measure 38
0100
0000
0000
0000
,  // measure 39
0001
0000
0000
0000
,  // measure 40
1000
0000
0000
0000
,  // measure 41
0100
0000
0000
0000
,  // measure 42
0010
0000
0000
0000
,  // measure 43
0100
0000
0000
0000
,  // measure 44
0010
0000
0000
0000
,  // measure 45
0100
0000
0000
0000
,  // measure 46
0001
0000
0000
0000
,  // measure 47
1000
0000
0000
0000
,  // measure 48
0100
0000
0000
0000
,  // measure 49
0010
0000
0000
0000
,  // measure 50
0100
0000
0000
0000
,  // measure 51
0010
0000
0000
0000
,  // measure 52
0100
0000
0000
0000
,  // measure 53
0010
0000
0000
0000
,  // measure 54
0100
0000
0000
0000
,  // measure 55
0010
0000
0000
0000
,  // measure 56
0100
0000
0000
0000
,  // measure 57
1000
0000
0000
0000
,  // measure 58
0100
0000
0000
0000
,  // measure 59
0010
0000
0000
0000
,  // measure 60
0100
0000
0000
0000
,  // measure 61
1000
0000
0000
0000
,  // measure 62
0100
0000
0000
0000
,  // measure 63
0010
0000
0000
0000
,  // measure 64
0100
0000
0000
0000
,  // measure 65
1000
0000
0000
0000
,  // measure 66
0100
0000
0000
0000
,  // measure 67
0010
0000
0000
0000
,  // measure 68
0100
0000
0000
0000
,  // measure 69
0010
0000
0000
0000
,  // measure 70
0100
0000
0000
0000
,  // measure 71
1000
0000
0000
0000
,  // measure 72
0000
0000
0000
0000
,  // measure 73
0000
0000
0000
0000
,  // measure 74
0010
0000
0000
0000
,  // measure 75
0000
0000
0000
0000
,  // measure 76
0100
0000
0000
0000
,  // measure 77
0000
0000
0000
0000
,  // measure 78
1000
0000
0000
0000
,  // measure 79
0001
0000
0000
0000
,  // measure 80
0010
0000
0000
0000
,  // measure 81
0000
0000
0000
0000
,  // measure 82
0100
0000
0000
0000
,  // measure 83
0000
0000
0000
0000
,  // measure 84
0010
0000
0000
0000
,  // measure 85
0000
0000
0000
0000
,  // measure 86
1000
0000
0000
0000
,  // measure 87
0001
0000
0000
0000
,  // measure 88
0010
0000
0000
0000
,  // measure 89
0000
0000
0000
0000
,  // measure 90
0100
0000
0000
0000
;
