#TITLE:bitch you could never;
#SUBTITLE:;
#ARTIST:Yseult;
#TITLETRANSLIT:;
#SUBTITLETRANSLIT:;
#ARTISTTRANSLIT:;
#GENRE:;
#CREDIT:;
#BANNER:;
#BACKGROUND:;
#LYRICSPATH:;
#CDTITLE:;
#MUSIC:BTCH YOU COULD NEVER.ogg;
#OFFSET:0.000000;
#SAMPLESTART:100.059883;
#SAMPLELENGTH:12.000000;
#SELECTABLE:YES;
#BPMS:0.000000=130.000000
;
#STOPS:0.000000=0.500000
;
#BGCHANGES:;
#KEYSOUNDS:;
#ATTACKS:;

//---------------dance-single - ----------------
#NOTES:
     dance-single:
     :
     Hard:
     15:
     0.683956,0.885933,0.000000,0.000000,0.657464,710.000000,710.000000,0.000000,0.000000,0.000000,0.000000,0.683956,0.885933,0.000000,0.000000,0.657464,710.000000,710.000000,0.000000,0.000000,0.000000,0.000000:
// measure 0
0000
0000
0000
0000
,  // measure 1
0000
0000
0000
0000
,  // measure 2
0010
0001
1000
0001
0100
0010
0001
0000
,  // measure 3
0100
0010
0001
1000
0001
0100
0010
0000
,  // measure 4
0001
1000
0001
0100
0010
0001
1000
0001
,  // measure 5
0100
0010
0001
1000
0001
0100
0010
0000
,  // measure 6
0001
1000
0001
0100
0001
0100
1000
0000
,  // measure 7
0010
0100
0001
1000
0001
0010
0100
0000
,  // measure 8
0001
1000
0100
0000
1000
0001
0000
0000
,  // measure 9
0100
0010
0001
1000
0001
0100
1000
0000
,  // measure 10
0100
0010
0001
1000
0001
0100
0001
0000
,  // measure 11
0100
0010
0001
1000
0001
0100
0001
0000
,  // measure 12
0100
0010
0001
1000
0001
0100
1000
0000
,  // measure 13
0001
0100
0010
0001
1000
0001
0100
0001
,  // measure 14
0100
0010
0001
1000
0001
0100
0001
0010
,  // measure 15
0100
0010
0001
1000
0001
0100
0010
0001
,  // measure 16
0000
0000
0000
0100
0001
1000
0100
0001
0100
0001
1000
0000
0100
0001
0100
0001
,  // measure 17
0010
0010
0001
0100
0001
0100
0010
0001
,  // measure 18
1000
0001
0100
1000
0010
0000
0100
0000
,  // measure 19
0001
0100
0010
0001
1000
0001
0100
1000
,  // measure 20
1000
0001
0100
0001
0100
0001
1000
0010
,  // measure 21
0001
1000
0001
0100
0010
0001
1000
0001
,  // measure 22
0100
0010
0001
1000
0100
0000
0001
0000
,  // measure 23
0010
0100
0001
1000
0001
0010
0100
0010
,  // measure 24
0001
1000
0001
0100
0010
0001
1000
0001
,  // measure 25
0100
0000
0010
0000
0001
0000
1000
0010
0001
0000
0100
0000
1000
0000
0000
0000
,  // measure 26
1000
0000
0001
0000
0100
0000
0010
0001
0100
0000
0001
0000
1000
0000
0000
0000
,  // measure 27
0001
0000
0100
0000
0010
0000
0001
0100
1000
0000
0010
0000
0001
0000
0000
0000
,  // measure 28
0100
0000
1000
0000
0001
0000
0100
0010
1000
0100
0001
0000
1000
0000
0000
0000
,  // measure 29
0001
0000
0010
0000
0100
0000
0001
0100
1000
0000
0001
0000
0010
0000
0100
0000
,  // measure 30
0001
0000
0100
0000
0010
0000
1000
0100
0001
0000
0010
0000
0100
0000
0000
0000
,  // measure 31
0100
0000
0010
0000
1000
0001
0100
0010
0001
0000
0100
0000
1000
0000
0000
0000
,  // measure 32
0100
0000
1000
0000
0001
0000
0100
0010
0100
0001
1000
0000
0001
0000
0000
0000
,  // measure 33
0000
0000
0100
0001
1000
0001
0010
0000
0100
0000
0001
1000
0000
0100
0001
0000
,  // measure 34
1000
0001
0100
0000
0000
0000
0000
0000
,  // measure 35
0000
0000
0001
1000
0001
0100
0010
0100
0001
1000
0100
0000
0010
0100
0000
0000
,  // measure 36
0001
1000
0001
0000
1000
0001
0000
0000
,  // measure 37
0001
0000
0100
0010
0001
1000
0001
0100
1000
0000
0001
0010
0100
0001
1000
0000
,  // measure 38
0001
0100
0001
0000
0100
1000
0100
0000
,  // measure 39
0001
0000
0010
0100
0001
1000
0100
0001
0010
0000
1000
0100
0001
0100
0001
0000
,  // measure 40
0100
0010
0001
0000
0100
1000
0000
0000
,  // measure 41
0010
0100
1000
0000
0100
0010
0100
0000
0010
0100
1000
0000
0010
0100
0010
0000
,  // measure 42
0001
0100
0010
0000
0001
0100
1000
0000
0001
0100
0010
0000
0001
0100
0010
0000
,  // measure 43
0001
0100
1000
0000
0001
0100
0010
0000
0001
0100
1000
0000
0001
0100
0010
0000
,  // measure 44
0001
0100
0010
0001
1000
0001
0100
0010
0001
1000
0001
0100
0010
0001
1000
0001
,  // measure 45
0100
0010
0001
1000
0001
0100
0010
0001
1000
0001
0100
0010
0001
1000
0001
0100
,  // measure 46
0010
0001
1000
0001
0100
0010
0001
1000
0001
0100
0010
0001
1000
0001
0100
0010
,  // measure 47
0001
1000
0001
0100
0010
0001
1000
0001
0100
0010
0001
1000
0001
0100
0001
0100
,  // measure 48
1000
0001
0100
0001
1000
0100
0001
0000
,  // measure 49
0000
0000
0100
1000
0000
0000
0010
0100
0000
0000
0001
0010
0000
0000
0010
0100
,  // measure 50
0000
0000
0100
0010
0000
0000
0001
0100
0000
0000
1000
0010
0000
0000
0100
0010
,  // measure 51
0000
0000
0010
0100
0000
0000
0100
0010
0000
0000
0001
0010
0000
0000
0100
0010
,  // measure 52
0000
0000
0100
1000
0000
0000
0001
0100
0000
0000
0010
0001
0000
0000
0100
1000
,  // measure 53
0000
0000
0001
0100
0000
0000
0010
0001
0000
0000
0100
1000
0000
0000
0001
0100
,  // measure 54
0000
0000
0010
0001
0000
0000
0100
1000
0000
0000
0001
0100
0000
0000
0010
0001
,  // measure 55
0000
0000
0100
1000
0000
0000
0001
0100
0000
0000
0010
0001
0000
0000
0100
0010
,  // measure 56
1000
0000
0001
0000
0100
0000
0010
0000
0001
0000
0000
0100
0000
0000
1000
0000
,  // measure 57
0000
0000
0010
0001
0000
0000
0100
0010
0000
0000
0001
0100
0000
0000
1000
0001
,  // measure 58
0000
0000
0100
0010
0000
0000
0001
0100
0000
0000
0010
0001
0000
0000
0100
1000
,  // measure 59
0000
0000
0001
0100
0000
0000
0010
0001
0000
0000
0100
0010
0000
0000
0100
1000
,  // measure 60
0000
0000
0001
0100
0000
0000
0010
0001
0000
0000
0100
1000
0000
0000
0100
0010
,  // measure 61
0000
0000
0100
0010
0000
0000
0001
0100
0000
0000
1000
0100
0000
0000
0010
0001
,  // measure 62
0000
0000
0100
0010
0000
0000
0001
0100
0000
0000
1000
0001
0000
0000
0100
0010
,  // measure 63
0000
0000
0001
0100
0000
0000
1000
0001
0000
0000
0100
0010
0000
0000
0100
0010
,  // measure 64
0001
0100
1000
0000
0001
1000
0100
0000
0010
0000
0100
0001
0000
1000
0100
0000
,  // measure 65
0100
0000
0001
1000
0100
0001
0100
0000
0001
0000
0010
0100
0001
1000
0001
0000
,  // measure 66
0010
0000
0100
0001
1000
0001
0010
0000
0010
0000
0001
1000
0001
0100
0010
0000
,  // measure 67
0100
0000
0010
0001
1000
0001
0100
0000
0010
0000
0001
1000
0001
0100
0010
0000
,  // measure 68
0001
0000
0100
0010
0001
1000
0010
0000
0100
0000
0010
0001
0100
1000
0001
0000
,  // measure 69
0100
0000
0010
0001
0100
1000
0001
0000
0100
0000
0010
0001
0100
1000
0001
0000
,  // measure 70
0100
0000
0010
0001
0100
1000
0001
0000
0100
0000
0010
0001
0100
1000
0001
0000
,  // measure 71
0100
0000
0010
0001
1000
0001
0100
0000
0010
0000
0001
1000
0001
0100
0010
0000
,  // measure 72
0001
0100
0010
0000
0001
0100
1000
0000
0100
0000
0000
0001
1000
0100
0001
0100
,  // measure 73
0001
0000
0000
0000
0100
0000
0001
0000
0100
0000
0000
0001
0000
0000
1000
0000
,  // measure 74
0100
1000
0001
0000
0100
0010
0100
0000
0001
0100
1000
0000
0100
0001
0010
0000
,  // measure 75
0001
0100
0010
0000
0001
0100
1000
0000
0001
0100
0010
0000
0001
0100
1000
0000
,  // measure 76
0001
0100
0010
0000
0001
0100
1000
0000
0001
0100
0010
0000
0001
0100
1000
0000
,  // measure 77
0001
0100
0010
0000
0001
0100
1000
0000
0001
0100
0010
0000
0001
0100
1000
0000
,  // measure 78
0001
0100
0010
0000
0001
0100
0010
0000
0001
0100
1000
0000
0010
0100
0001
0000
,  // measure 79
1000
0001
0100
0000
0010
0100
0000
0000
;
