#VERSION:0.83;
#TITLE:birds of a feather;
#SUBTITLE:;
#ARTIST:Billie Elish;
#TITLETRANSLIT:;
#SUBTITLETRANSLIT:;
#ARTISTTRANSLIT:;
#GENRE:;
#ORIGIN:;
#CREDIT:;
#BANNER:;
#BACKGROUND:;
#PREVIEWVID:;
#JACKET:;
#CDIMAGE:;
#DISCIMAGE:;
#LYRICSPATH:;
#CDTITLE:;
#MUSIC:Billie Eilish - BIRDS OF A FEATHER (Official Lyric Video).mp3;
#OFFSET:0.000000;
#SAMPLESTART:100.059883;
#SAMPLELENGTH:12.000000;
#SELECTABLE:YES;
#BPMS:0.000=105.000;
#STOPS:0.000=0.800;
#DELAYS:;
#WARPS:;
#TIMESIGNATURES:0.000=4=4;
#TICKCOUNTS:0.000=4;
#COMBOS:0.000=1;
#SPEEDS:0.000=1.000=0.000=0;
#SCROLLS:0.000=1.000;
#FAKES:;
#LABELS:0.000=Song Start;
#BGCHANGES:;
#KEYSOUNDS:;
#ATTACKS:
;

//---------------dance-single - ----------------
#NOTEDATA:;
#CHARTNAME:;
#STEPSTYPE:dance-single;
#DESCRIPTION:;
#CHARTSTYLE:;
#DIFFICULTY:Hard;
#METER:11;
#RADARVALUES:0.351820,0.489499,0.170497,0.075777,0.272322,520.000000,484.000000,36.000000,16.000000,0.000000,0.000000,0.000000,0.000000,0.000000,0.351820,0.489499,0.170497,0.075777,0.272322,520.000000,484.000000,36.000000,16.000000,0.000000,0.000000,0.000000,0.000000,0.000000;
#CREDIT:;
#NOTES:
0000
0000
0000
0000
,
0000
0000
0000
0000
0000
0000
0000
0000
0010
0100
0000
0000
0001
0000
0100
0000
,
1000
0000
0000
0001
0000
0000
1000
0000
0100
0000
0000
0001
0000
0000
0010
0000
,
0100
0000
0000
0001
0000
0000
1000
0000
0100
0001
0000
0000
0010
0000
0100
0000
,
0001
0000
0000
0010
0000
0000
0100
0000
0010
0000
0000
0001
0000
0000
0100
0000
,
1000
0000
0000
0010
0000
0000
0001
0000
0100
0010
0000
0000
0001
0000
0100
0000
,
1000
0000
0000
0010
0000
0001
0000
0100
,
0000
0000
1000
0000
0000
0000
0000
0000
0010
0100
0000
0000
0001
0000
0100
0000
,
1000
0000
0000
0010
0000
0001
0000
0100
,
0000
0000
1000
0000
0000
0000
0001
0000
0100
0010
0000
0000
0001
0000
0100
0000
,
1000
0000
0000
0010
0000
0000
0100
0000
1000
0000
0000
0001
0000
0000
0100
0000
,
0010
0000
0000
0001
0000
0000
0010
1000
0100
0001
0000
0000
0001
0000
0100
0000
,
1000
0000
0000
0010
0000
0000
0100
0000
0010
0000
0000
0001
0000
0000
0100
0000
,
1000
0000
0000
0010
0000
0000
0001
0100
1000
0010
0000
0000
0001
0000
0100
0000
,
1000
0000
0000
0010
0000
0001
0000
0100
,
0000
0000
1000
0000
0000
0000
0000
0000
1000
0100
0000
0000
0001
0000
0010
0000
,
0100
0000
0000
0000
0000
1000
0100
0000
0000
0000
0001
0000
0000
0000
0010
0000
,
0000
0200
0000
0000
0000
0000
0000
0300
,
0010
0100
0001
1000
0001
0010
0000
0010
,
0000
0100
0010
0001
0100
1000
0100
0010
,
0001
0100
0010
0001
0100
1000
0000
0100
,
0010
0001
0100
0001
0100
0010
0001
1000
,
0001
0100
0010
0001
0100
1000
0000
0010
,
0000
0100
0010
0001
0100
1000
0010
0001
,
0100
1000
0000
0001
1000
0000
0100
0001
,
0000
0001
0000
0100
1000
0000
0100
0000
,
0000
0000
0100
0000
0001
0010
0000
0000
0100
1000
0000
0000
0100
1000
0000
0000
,
0100
0010
0000
0000
0100
0010
0000
0000
0001
0100
0000
0000
0010
0001
0000
0000
,
1000
0100
0000
0000
0010
0001
0000
0000
0100
0010
0000
0000
0001
0100
0000
0000
,
0010
0001
0000
0000
0100
1000
0000
0000
0010
0100
0000
0000
0100
0000
0001
0000
,
0000
0000
0010
0000
0100
0001
0000
0000
1000
0100
0000
0000
0001
0010
0000
0000
,
0001
0100
0000
0000
0010
0001
0000
0000
0010
0100
0000
0000
1000
0000
0200
0000
,
0000
0000
0000
0000
0000
0000
0300
0100
,
0010
0000
0001
0000
1000
0000
0001
0000
0100
0000
0010
0000
0001
0000
0000
0200
,
0000
0000
0000
0000
,
0000
0000
0300
0000
0001
0000
1000
0000
0001
0000
0100
0000
0010
0000
0000
2000
,
0000
0000
0000
0000
,
0000
3000
0010
0001
1000
0001
0100
0020
,
0000
0000
0000
0000
,
0000
0030
0001
1000
0001
0100
0010
2002
,
0000
0000
0000
0000
,
0000
0000
0000
0000
3003
0000
0000
0000
0100
0001
0000
0000
1000
0000
0100
0000
,
0002
0000
0000
0000
,
0000
0000
0000
0000
0003
0000
0000
0000
0100
0010
0000
0000
0001
0000
0100
0000
,
2000
0000
0000
0000
,
0000
0000
0000
0000
3000
0000
0000
0000
0100
0010
0000
0000
0001
0000
0100
0000
,
1000
0000
0000
0010
0000
0001
0000
1000
,
0000
0000
0100
0000
0000
0000
0000
0000
1000
0100
0000
0000
0001
0000
0010
0000
,
0100
0000
0001
0010
0000
0001
0000
1000
,
0000
0000
0100
0000
0000
0000
0000
0000
0010
0100
0000
0000
0001
0100
0000
0000
,
2002
0000
0000
0000
,
0000
0000
0000
0000
3003
0000
0000
0000
0010
0100
0000
0000
0001
0100
0000
0000
,
2000
0000
0000
0000
,
0000
0000
0000
0000
3000
0000
0000
0000
0100
0010
0000
0000
1000
0000
0100
0000
,
0001
0000
0010
0001
0000
0100
0000
0010
,
0000
0000
0100
0000
0000
0000
1000
0100
0001
0010
0000
0000
0100
0000
0001
0000
,
0010
0000
0000
0100
0000
0001
0000
1000
,
0000
0200
0000
0000
0000
0000
0000
0300
,
0000
0000
0100
0000
0001
0010
0000
0000
0100
0010
0000
0000
1000
0100
0000
0000
,
0100
0010
0000
0000
0001
0010
0000
0000
0010
0100
0000
0000
1000
0100
0000
0000
,
0010
0001
0000
0000
0100
0010
0000
0000
0100
1000
0000
0000
0100
0001
0000
0000
,
1000
0100
0000
0000
0100
0010
0000
0000
0010
0100
0000
0000
0100
0000
0001
0000
,
0000
0000
0000
0000
1000
0100
0000
0000
0010
0100
0000
0000
0001
1000
0000
0000
,
1000
0100
0000
0000
0010
0100
0000
0000
0010
0100
0000
0000
1000
0000
0100
0000
,
0002
0000
0000
0003
,
1000
0001
1000
0000
0100
0000
0001
0100
0001
0000
1000
0000
0100
0001
0100
0000
,
0010
0100
0010
0001
0100
1000
0000
0001
,
0000
0010
0100
0001
1000
0001
0100
0010
,
0100
0100
0100
0010
0100
0001
0000
0010
,
0000
0001
1000
0001
0100
0010
0001
0100
,
1000
1000
0001
0100
0010
0100
0000
0010
,
0000
0100
0010
0001
0100
1000
0100
0001
,
0000
0010
0000
0100
0010
0000
0100
1000
,
0000
0010
0000
0001
1000
0000
0100
0000
,
0000
0000
0000
0000
0010
0100
0000
0000
0100
0010
0000
0000
0010
0100
0000
0000
,
1000
0100
0000
0000
0001
0010
0000
0000
0010
0100
0000
0000
0100
0001
0010
0000
,
0001
0000
0000
0000
1000
0100
0000
0000
0010
0100
0000
0000
0100
1000
0000
0000
,
0010
0100
0000
0000
0001
1000
0000
0000
0100
0001
0000
0000
0010
0000
0100
0000
,
0001
0000
0000
0000
1000
0100
0000
0000
0001
0010
0000
0000
0100
0001
0000
0000
,
1000
0100
0000
0000
0001
0010
0000
0000
0010
0100
0000
0000
1000
0000
2002
0000
,
0000
0000
0000
0000
,
0000
0000
0000
3003
,
0110
0000
0000
0101
0000
0000
1100
0000
0110
0000
0000
0101
0000
0000
1100
0000
,
0110
0000
0000
0101
0000
0000
1100
0000
0100
0001
0000
0000
0010
0000
0100
0000
,
0001
0000
0000
0110
0000
0000
1100
0000
0110
0000
0000
0101
0000
0000
1100
0000
,
0110
0000
0000
0101
0000
0000
1100
0000
0100
0010
0000
0000
0100
0000
0001
0000
,
1000
0000
0000
0110
0000
0000
0101
0000
1100
0000
0000
0101
0000
0000
0110
0000
,
0110
0000
0000
0101
0000
0000
1100
0000
0100
0001
0000
0000
0010
0000
0100
0000
,
0001
0000
0000
0110
0000
0000
0110
0000
1100
0000
0000
0110
0000
0000
0100
0001
,
0100
0000
0000
0110
0000
0000
0110
0000
0011
0000
0000
0001
0100
0000
1001
0000
;

//---------------dance-single - ----------------
#NOTEDATA:;
#CHARTNAME:;
#STEPSTYPE:dance-single;
#DESCRIPTION:;
#CHARTSTYLE:;
#DIFFICULTY:Medium;
#METER:6;
#RADARVALUES:0.234772,0.318794,0.014208,0.056832,0.035520,347.000000,344.000000,3.000000,12.000000,0.000000,0.000000,0.000000,0.000000,0.000000,0.234772,0.318794,0.014208,0.056832,0.035520,347.000000,344.000000,3.000000,12.000000,0.000000,0.000000,0.000000,0.000000,0.000000;
#CREDIT:;
#NOTES:
0000
0000
0000
0000
,
0000
0000
0000
0000
0100
0001
0010
0100
,
0001
0000
0000
0000
,
0000
0000
0000
0000
0100
0010
0001
0100
,
1000
0000
0000
0000
,
0000
0000
0000
0000
0100
0010
0001
0100
,
1000
0000
0000
0010
0000
0001
0000
1000
,
0000
0100
0000
0000
0010
0100
0001
0100
,
1000
0000
0000
0010
0000
0001
0000
1000
,
0000
0100
0000
0001
0100
0010
0001
0100
,
1000
0000
0000
0000
,
0000
0000
0000
0001
0100
0010
0001
0100
,
1000
0000
0000
0000
,
0000
0000
0000
0001
0100
0010
0001
0100
,
1000
0000
0000
0010
0000
0001
0000
0100
,
0000
1000
0000
0000
0100
0010
0001
0100
,
1000
0000
0001
0100
0000
0010
0000
0100
,
0000
0001
0000
0000
0000
0000
0000
0000
,
0000
0100
0010
0001
0100
1000
0000
0010
,
0000
0100
0001
0100
0010
0001
1000
0100
,
0000
0100
0010
0001
1000
0100
0000
0010
,
0000
0100
0001
1000
0001
0010
0100
0001
,
0000
0100
0010
0001
0100
1000
0000
0100
,
0000
0010
0001
0100
0010
0001
0100
1000
,
0000
0010
0000
0100
1000
0000
0010
0001
,
0000
0100
0000
1000
0100
0000
0001
0000
,
0000
0010
0100
0000
0001
0000
1000
0000
,
0100
0001
0010
0100
,
0001
0100
0010
0001
,
1000
0000
0001
0000
0100
0000
0001
0010
,
0000
0010
0100
0001
,
1000
0000
0001
0000
0010
0000
0100
0002
,
0000
0000
0000
0003
,
0010
0100
0001
1000
0001
0010
0100
0002
,
0000
0000
0000
0000
,
0000
0003
0001
1000
0001
0100
0010
0200
,
0000
0000
0000
0000
,
0000
0300
0001
0100
0010
0001
0100
2000
,
0000
0000
0000
0000
,
0000
3000
0100
0001
0100
0001
1000
0001
,
2002
0000
0000
0000
,
0000
0000
3003
0000
0010
0100
0001
1000
,
0001
0000
0000
0000
,
0000
0000
0000
0000
0100
0010
0001
0100
,
1000
0000
0000
0000
,
0000
0000
0000
0000
0100
0010
0001
0100
,
1000
0000
0000
0001
0000
0100
0000
1000
,
0000
0000
0000
0000
0100
0010
0001
0100
,
1000
0000
0100
0001
0000
1000
0000
0100
,
0000
0010
0000
0001
1000
0001
0100
0010
,
1001
0000
0000
0000
,
0000
0000
0000
0001
0100
0010
0001
0100
,
1000
0000
0000
0000
,
0000
0000
0000
0000
0000
0010
0001
0100
,
1000
0000
0100
0001
0000
1000
0000
0100
,
0000
0000
0000
0000
0100
0010
0001
0100
,
1000
0000
0000
0010
0000
0001
0000
1000
,
0000
0100
0000
0000
0000
0000
0000
0000
,
0000
0001
1000
0001
,
0100
0010
0001
0100
,
1000
0100
0001
0010
,
0100
0000
0001
0000
1000
0000
0001
0010
,
0000
0010
0100
0001
,
1000
0000
0001
0000
0010
0000
0100
0002
,
0000
0000
0000
0000
0000
0000
0000
0003
,
0000
0010
0100
0001
1000
0001
0010
0100
,
0002
0000
0000
0000
,
0003
0010
0100
0001
1000
0001
0010
0200
,
0000
0000
0000
0000
0000
0000
0300
0010
,
0100
0001
1000
0001
0010
0100
0001
0020
,
0000
0000
0000
0000
,
0000
0030
0100
0001
1000
0001
0010
0100
,
2002
0000
0000
0000
,
0000
0000
0000
0000
,
3003
1000
0001
0100
,
0010
0001
1000
0100
,
0010
0100
0001
1000
,
0001
0000
0010
0000
0100
0000
0001
0010
,
0000
0100
0001
1000
,
0001
0000
0010
0000
0100
0000
0001
1000
,
0000
0000
0000
0000
,
0000
0000
0000
0000
,
1000
0000
0000
0100
0000
0000
0010
0000
0001
0000
0000
0100
0000
0000
0010
0000
,
0100
0000
0000
1000
0000
0000
0001
0000
0100
0010
0000
0000
0001
0000
0100
0000
,
1000
0000
0000
0010
0000
0000
0100
0000
0001
0000
0000
1000
0000
0000
0100
0000
,
0001
0000
0000
0010
0000
0000
0100
0000
0001
1000
0000
0000
0010
0000
0100
0000
,
0001
0000
0000
0100
0000
0000
0010
0000
0001
0000
0000
0100
0000
0000
1000
0000
,
0001
0000
0000
0100
0000
0000
0010
0000
0100
1000
0000
0000
0001
0000
0010
0000
,
0100
0000
0000
0001
0000
0000
0010
0000
0100
0000
0000
0010
0000
0000
0001
0100
,
1000
0000
0000
0100
;

//---------------dance-single - ----------------
#NOTEDATA:;
#CHARTNAME:;
#STEPSTYPE:dance-single;
#DESCRIPTION:;
#CHARTSTYLE:;
#DIFFICULTY:Easy;
#METER:3;
#RADARVALUES:0.145464,0.191277,0.018944,0.080513,0.002368,215.000000,211.000000,4.000000,17.000000,0.000000,0.000000,0.000000,0.000000,0.000000,0.145464,0.191277,0.018944,0.080513,0.002368,215.000000,211.000000,4.000000,17.000000,0.000000,0.000000,0.000000,0.000000,0.000000;
#CREDIT:;
#NOTES:
0000
0000
0000
0000
,
0000
0000
0100
1000
,
0010
0000
0000
0000
,
0000
0000
0010
0100
,
0001
0000
0000
0000
,
0000
0000
0001
0100
,
0010
0000
0001
1000
,
0100
0000
0001
0100
,
1000
0000
0010
0100
,
0001
0000
0100
1000
,
0001
0000
0000
0000
,
0000
0000
0010
0100
,
0001
0000
0000
0000
,
0000
0000
1000
0100
,
0001
0000
0100
0001
,
0010
0000
0100
0001
,
1000
0000
0010
0100
,
0001
0000
0000
0000
,
0001
0100
0010
0001
,
1000
0001
0100
0010
,
0001
0010
0100
0001
,
1000
0001
0010
0100
,
0001
1000
0001
0010
,
0100
0001
1000
0001
,
0010
0100
0001
1000
,
0100
0000
0000
0000
,
0000
0100
0001
0010
,
0100
0001
1000
0001
,
0010
0100
0001
1000
,
0001
0001
0100
0010
,
0000
0010
0100
0001
,
1000
0001
0010
0100
,
0002
0000
0000
0003
,
0001
0010
0100
0001
,
2000
0000
0000
0000
,
3000
0100
0001
0010
,
0200
0000
0000
0000
,
0300
0010
0100
0001
,
2000
0000
0000
0000
,
3000
0100
0001
0010
,
0220
0000
0000
0000
,
0000
0330
0010
0100
,
0001
0000
0000
0000
,
0000
0000
1000
0100
,
0001
0000
0000
0000
,
0000
0000
0000
0000
,
0000
0000
0010
0100
,
0001
0000
1000
0100
,
0001
0000
0010
0100
,
0001
0000
0001
0100
,
1001
0000
0000
0000
,
0000
0000
0100
0001
,
0100
0000
0000
0000
,
0000
0000
0010
0100
,
0001
0000
1000
0100
,
0001
0000
0010
0100
,
0001
0000
0000
0000
,
0000
0000
0000
0000
,
0000
1000
0100
0001
,
0010
0100
0001
1000
,
0001
0010
0100
0001
,
1000
0001
0010
0100
,
0000
0001
0100
0001
,
1000
0100
0001
0100
,
0202
0000
0000
0000
,
0303
0010
0100
0001
,
2000
0000
0000
0000
,
3000
0100
0001
0010
,
0200
0000
0000
0000
,
0300
0001
0010
0100
,
0002
0000
0000
0000
,
0003
0010
0100
0001
,
2002
0000
0000
0000
,
0000
0000
0000
0000
,
3003
0010
0100
0001
,
1000
0001
0010
0100
,
0001
1000
0100
0001
,
0010
0010
0001
1000
,
0100
0100
0001
0100
,
0001
1000
0001
0010
,
0200
0000
0000
0000
,
0000
0000
0000
0000
,
0000
0000
0000
0000
,
0000
0300
0010
0100
,
0002
0000
0000
0000
,
0000
0003
0010
0100
,
0002
0000
0000
0000
,
0000
0003
0010
0100
,
2000
0000
0000
0000
0000
0000
0000
0000
3000
0000
0000
0000
0000
0000
0001
0100
,
0001
0000
0000
1000
;

//---------------dance-single - ----------------
#NOTEDATA:;
#CHARTNAME:;
#STEPSTYPE:dance-single;
#DESCRIPTION:;
#CHARTSTYLE:;
#DIFFICULTY:Beginner;
#METER:1;
#RADARVALUES:0.044654,0.085012,0.009472,0.000000,0.000000,66.000000,64.000000,2.000000,0.000000,0.000000,0.000000,0.000000,0.000000,0.000000,0.044654,0.085012,0.009472,0.000000,0.000000,66.000000,64.000000,2.000000,0.000000,0.000000,0.000000,0.000000,0.000000,0.000000;
#CREDIT:;
#NOTES:
// measure 0
0000
0000
0000
0000
,  // measure 1
0000
0000
0000
0000
,  // measure 2
0100
0000
0000
0000
,  // measure 3
0000
0000
0000
0000
,  // measure 4
1000
0000
0000
0000
,  // measure 5
0000
0000
0000
0000
,  // measure 6
0001
0000
0000
0000
,  // measure 7
0010
0000
0000
0000
,  // measure 8
0100
0000
0000
0000
,  // measure 9
0010
0000
0000
0000
,  // measure 10
1000
0000
0000
0000
,  // measure 11
0000
0000
0000
0000
,  // measure 12
0010
0000
0000
0000
,  // measure 13
0000
0000
0000
0000
,  // measure 14
0100
0000
0000
0000
,  // measure 15
0001
0000
0000
0000
,  // measure 16
1000
0000
0000
0000
,  // measure 17
0100
0000
0000
0000
,  // measure 18
0010
0000
0000
0000
,  // measure 19
0000
0000
0000
0000
,  // measure 20
0100
0000
0000
0000
,  // measure 21
0000
0000
0000
0000
,  // measure 22
0001
0000
0000
0000
,  // measure 23
0000
0000
0000
0000
,  // measure 24
1000
0000
0000
0000
,  // measure 25
0000
0000
0000
0000
,  // measure 26
0010
0000
0000
0000
,  // measure 27
0010
0000
0000
0000
,  // measure 28
0100
0000
0000
0000
,  // measure 29
0001
0000
0000
0000
,  // measure 30
1000
0000
0000
0000
,  // measure 31
0100
0000
0000
0000
,  // measure 32
0000
0000
0000
0000
,  // measure 33
0010
0000
0000
0000
,  // measure 34
0100
0000
0000
0000
,  // measure 35
0000
0000
0000
0000
,  // measure 36
0001
0000
0000
0000
,  // measure 37
0000
0000
0000
0000
,  // measure 38
1000
0000
0000
0000
,  // measure 39
0000
0000
0000
0000
,  // measure 40
0100
0000
0000
0000
,  // measure 41
0000
0000
0000
0000
,  // measure 42
0010
0000
0000
0000
,  // measure 43
0000
0000
0000
0000
,  // measure 44
0001
0000
0000
0000
,  // measure 45
0000
0000
0000
0000
,  // measure 46
1000
0000
0000
0000
,  // measure 47
0100
0000
0000
0000
,  // measure 48
0010
0000
0000
0000
,  // measure 49
0001
0000
0000
0000
,  // measure 50
1001
0000
0000
0000
,  // measure 51
0000
0000
0000
0000
,  // measure 52
0010
0000
0000
0000
,  // measure 53
0000
0000
0000
0000
,  // measure 54
0100
0000
0000
0000
,  // measure 55
0000
0000
0000
0000
,  // measure 56
0010
0000
0000
0000
,  // measure 57
0000
0000
0000
0000
,  // measure 58
1000
0000
0000
0000
,  // measure 59
0000
0000
0000
0000
,  // measure 60
0001
0000
0000
0000
,  // measure 61
0000
0000
0000
0000
,  // measure 62
0010
0000
0000
0000
,  // measure 63
0000
0000
0000
0000
,  // measure 64
0000
0000
0000
0000
,  // measure 65
0000
0000
0000
0000
,  // measure 66
0100
0000
0000
0000
,  // measure 67
0000
0000
0000
0000
,  // measure 68
0001
0000
0000
0000
,  // measure 69
0000
0000
0000
0000
,  // measure 70
1000
0000
0000
0000
,  // measure 71
0000
0000
0000
0000
,  // measure 72
0110
0000
0000
0000
,  // measure 73
0000
0000
0000
0000
,  // measure 74
0000
0000
0000
0000
,  // measure 75
0000
0000
1000
1000
,  // measure 76
1000
0000
0000
0000
,  // measure 77
0000
0000
0001
0001
,  // measure 78
0001
0000
0000
0000
,  // measure 79
0000
0000
0010
0010
,  // measure 80
0010
0000
0000
0000
,  // measure 81
0000
0000
0000
0000
,  // measure 82
0000
0000
0000
0000
,  // measure 83
0000
0000
1000
1000
,  // measure 84
1000
0000
0000
0000
,  // measure 85
0000
0000
0001
0001
,  // measure 86
0001
0000
0000
0000
,  // measure 87
0000
0000
0010
0010
,  // measure 88
0010
0000
0000
0000
,  // measure 89
0100
0000
0000
0001
;
