#TITLE:backseat;
#SUBTITLE:;
#ARTIST:Balu Brigada;
#TITLETRANSLIT:;
#SUBTITLETRANSLIT:;
#ARTISTTRANSLIT:;
#GENRE:;
#CREDIT:;
#BANNER:;
#BACKGROUND:;
#LYRICSPATH:;
#CDTITLE:;
#MUSIC:Balu Brigada - Backseat.mp3;
#OFFSET:0.000000;
#SAMPLESTART:100.059883;
#SAMPLELENGTH:12.000000;
#SELECTABLE:YES;
#BPMS:0.000000=125.999992
,576.000000=116.000000
,584.000000=106.000000
,592.000000=102.500000
,656.000000=102.000000
;
#STOPS:0.000000=2.100000
;
#BGCHANGES:;
#KEYSOUNDS:;
#ATTACKS:;

//---------------dance-single - ----------------
#NOTES:
     dance-single:
     :
     Hard:
     11:
     0.434212,0.516868,0.138040,0.031254,0.039068,1167.000000,1114.000000,53.000000,12.000000,0.000000,0.000000,0.434212,0.516868,0.138040,0.031254,0.039068,1167.000000,1114.000000,53.000000,12.000000,0.000000,0.000000:
// measure 0
0000
0000
0000
0000
,  // measure 1
0000
0000
0000
0000
,  // measure 2
0000
0000
0000
0000
,  // measure 3
0000
0000
0000
0000
,  // measure 4
0100
0010
0001
0100
,  // measure 5
0010
0100
0001
1000
,  // measure 6
0001
0010
0100
0001
,  // measure 7
1000
0001
0010
0100
,  // measure 8
0001
1000
0100
0001
0010
0100
0001
1000
,  // measure 9
0001
0010
0100
0001
1000
0001
0010
0100
,  // measure 10
0001
1000
0001
0010
0100
0001
1000
0001
,  // measure 11
0010
0100
0001
1000
0001
0010
0100
0010
,  // measure 12
0001
1000
0001
0100
0001
0010
0100
0001
,  // measure 13
0100
0001
0100
0010
0001
1000
0001
0100
,  // measure 14
0010
0001
1000
0001
0100
0010
0001
1000
,  // measure 15
0001
0100
0010
0001
0100
0010
0001
0100
,  // measure 16
1000
0000
0100
0010
0001
0000
0200
0000
,  // measure 17
0000
0000
0000
0000
,  // measure 18
0000
0000
0000
0000
,  // measure 19
0300
0000
0100
0001
0010
0000
0001
0000
,  // measure 20
0020
0000
0000
0000
,  // measure 21
0030
0000
0100
0010
0001
0000
0100
0000
,  // measure 22
0020
0000
0000
0000
,  // measure 23
0000
0000
0000
0000
,  // measure 24
0030
0000
0001
0100
0001
0000
0200
0000
,  // measure 25
0000
0000
0000
0000
,  // measure 26
0000
0000
0000
0000
,  // measure 27
0300
0010
0100
0001
,  // measure 28
0200
0000
0000
0000
,  // measure 29
0300
0001
0010
0100
0001
0000
0010
0000
,  // measure 30
0002
0000
0000
0000
,  // measure 31
0000
0000
0003
0100
,  // measure 32
0001
0000
0000
0100
0010
0000
0000
0000
,  // measure 33
0100
0010
0100
0001
0010
0000
0100
0000
,  // measure 34
0010
0000
0000
0001
0100
0000
0000
0000
,  // measure 35
0010
0001
0100
0010
0001
0000
0100
0000
,  // measure 36
0010
0000
0000
0100
1000
0000
0000
0000
,  // measure 37
0001
0000
1000
0000
0001
0000
0100
0000
1000
0000
0000
0001
0000
0000
0010
0000
,  // measure 38
1000
0000
0000
0000
,  // measure 39
1000
0001
1000
0001
1000
0001
0100
0001
,  // measure 40
0010
0010
0000
0100
0010
0001
0100
1000
,  // measure 41
0000
0010
0001
1000
0001
0100
0010
0001
,  // measure 42
1000
0100
0000
0100
0010
0001
1000
0100
,  // measure 43
0000
0001
0100
0010
0001
0100
0010
0001
,  // measure 44
1000
0100
0000
0100
0010
0001
0100
1000
,  // measure 45
0000
0100
0010
0001
1000
0001
0100
0000
,  // measure 46
0020
0000
0000
0000
,  // measure 47
0000
0000
0000
0000
0030
0000
0010
0001
,  // measure 48
0100
1000
0000
0100
0010
0001
0100
1000
,  // measure 49
0000
0010
0100
0010
0001
0100
0010
0001
,  // measure 50
1000
0100
0000
0100
0010
0001
0100
1000
,  // measure 51
0000
0100
0010
0001
1000
0001
0100
0010
,  // measure 52
0001
0100
0000
0100
0010
0001
0100
1000
,  // measure 53
0000
0001
0100
0010
0001
1000
0200
0000
,  // measure 54
0000
0000
0000
0000
,  // measure 55
0300
0100
0001
1000
0101
0000
0110
0000
,  // measure 56
0100
0000
0010
0001
1100
0000
0110
0000
,  // measure 57
0001
0000
0100
0010
0101
0000
1001
0000
,  // measure 58
0100
0000
0010
0010
1010
0000
0110
0000
,  // measure 59
0000
0010
0000
0000
0100
0001
1000
0001
,  // measure 60
0010
0000
0100
0010
1001
0000
0101
0000
,  // measure 61
0001
0000
0100
0010
1001
0000
0110
0000
,  // measure 62
1000
0000
0001
0010
0110
0000
1100
0000
,  // measure 63
0010
0000
0100
0010
0001
0100
0010
0001
,  // measure 64
0010
0000
0000
0000
,  // measure 65
0000
0000
0000
0000
,  // measure 66
0000
0000
0000
0000
,  // measure 67
0000
0000
0100
0010
0001
0000
0100
0000
,  // measure 68
0020
0000
0000
0000
,  // measure 69
0000
0030
0001
0000
0100
0000
0010
0000
,  // measure 70
0200
0000
0000
0000
,  // measure 71
0000
0000
0300
0001
,  // measure 72
1000
0000
0000
0100
0001
0000
0000
0000
,  // measure 73
0010
0100
0001
1000
0001
0000
0010
0000
,  // measure 74
0100
0000
0000
0100
0010
0000
0000
0000
,  // measure 75
0001
0100
0010
0001
1000
0000
0100
0000
,  // measure 76
0100
0000
0000
0001
0010
0000
0000
0000
,  // measure 77
0100
0000
0010
0000
0001
0000
0100
0000
1000
0000
0000
0001
0000
0000
0010
0000
,  // measure 78
0000
0220
0000
0000
0000
0000
0000
0330
,  // measure 79
0001
1000
0100
0001
0010
0100
0001
1000
,  // measure 80
0001
0010
0000
0100
0010
0001
0100
1000
,  // measure 81
0000
0010
0001
1000
0001
0100
0010
0001
,  // measure 82
0100
1000
0000
0100
0010
0001
0100
1000
,  // measure 83
0000
0010
0001
1000
0001
0100
0010
0001
,  // measure 84
0100
1000
0000
0100
0010
0001
0100
1000
,  // measure 85
0000
0001
0100
0010
0001
0100
1000
0000
,  // measure 86
0100
0001
1000
0001
0010
0000
0000
0000
,  // measure 87
0100
0010
0001
1000
0100
0100
0010
0001
,  // measure 88
0100
1000
0000
0100
0010
0001
0100
1000
,  // measure 89
0000
0010
0001
1000
0001
0100
0010
0001
,  // measure 90
1000
0100
0000
0100
0010
0001
0100
1000
,  // measure 91
0000
0010
0001
1000
0001
0100
0010
0001
,  // measure 92
1000
0100
0000
0100
0010
0001
0100
1000
,  // measure 93
0000
0001
0100
0010
0001
0100
1000
0000
,  // measure 94
0001
0100
0010
0100
0001
0000
0000
0000
,  // measure 95
0010
0001
0100
0010
1001
0000
0110
0000
,  // measure 96
0100
0000
0010
0100
1010
0000
1001
0000
,  // measure 97
0010
0000
0001
0100
0011
0000
0110
0000
,  // measure 98
0010
0000
0010
0100
1001
0000
0110
0000
,  // measure 99
0100
0001
1000
0001
0010
0100
0001
0100
,  // measure 100
0010
0000
0001
0010
0110
0000
1001
0000
,  // measure 101
0010
0000
0100
0001
0110
0000
0110
0000
,  // measure 102
0010
0000
0100
0010
1001
0000
0101
0000
,  // measure 103
0010
0001
0100
0010
1000
0001
0100
0001
,  // measure 104
0110
0000
0001
1000
0110
0000
1001
0000
,  // measure 105
1000
0000
0100
0001
0110
0000
0101
0000
,  // measure 106
0100
0000
0100
0010
1001
0000
0110
0000
,  // measure 107
0100
0001
1000
0001
0010
0100
0001
1000
,  // measure 108
0100
0000
0001
1000
0101
0000
0110
0000
,  // measure 109
0010
0000
0100
0001
0110
0000
1001
0000
,  // measure 110
0010
0000
0100
0010
1001
0000
0101
0000
,  // measure 111
0001
0100
0010
0001
0100
1000
0100
0010
,  // measure 112
0001
0010
0100
0010
0001
0100
0001
0100
,  // measure 113
0010
0001
0100
0001
0100
0010
0001
0100
,  // measure 114
0001
0100
0010
0001
0001
0001
0100
0010
,  // measure 115
0001
1000
0001
0100
0010
0001
1000
0001
,  // measure 116
0100
0010
0001
1000
0000
0100
0010
0001
,  // measure 117
1000
0001
0100
0010
0001
0100
1000
0100
,  // measure 118
0010
0001
0100
0010
0001
1000
0001
0100
,  // measure 119
0010
0001
1000
0001
0100
1000
0001
0010
,  // measure 120
0010
0001
1000
0001
0100
0010
0001
1000
,  // measure 121
0001
0100
0001
0010
0100
0001
1000
0001
,  // measure 122
0100
0010
0001
1000
0001
0100
0010
0001
,  // measure 123
0100
0001
0100
0010
0001
1000
0001
0100
,  // measure 124
0010
0001
1000
0001
0100
0010
0001
0100
,  // measure 125
0001
0100
0010
0001
1000
0001
0100
0010
,  // measure 126
0001
1000
0010
0100
0100
0001
1000
0001
,  // measure 127
0100
0010
0001
0100
0010
0001
1000
0001
,  // measure 128
0100
0010
0001
0100
0001
0100
0010
0001
,  // measure 129
1000
0000
0001
0000
0100
0000
0010
0001
1000
0000
0010
0000
0001
0000
0100
0000
,  // measure 130
0010
0001
1000
0001
0100
0010
0001
1000
,  // measure 131
0001
0100
0010
0001
0100
0001
0100
0010
,  // measure 132
0001
1000
0001
0100
0010
0001
1000
0001
,  // measure 133
0100
0010
0001
0100
0010
0001
1000
0001
,  // measure 134
0100
0010
0001
0100
1000
0100
0010
0001
,  // measure 135
0100
0001
0100
0010
0001
1000
0010
0100
,  // measure 136
0010
0001
1000
0001
0100
0010
0001
1000
,  // measure 137
0001
0000
0100
0000
0010
0000
0100
0001
0100
0000
0010
0000
0100
0000
0010
0000
,  // measure 138
0001
1000
0001
0100
0010
0001
0100
0001
,  // measure 139
0100
0010
0001
1000
0001
0100
0010
0001
,  // measure 140
0100
0001
0100
0010
0001
1000
0001
0100
,  // measure 141
0010
0001
1000
0001
0100
0010
0001
0100
,  // measure 142
1000
0100
0001
0010
,  // measure 143
0100
0001
1000
0001
,  // measure 144
1000
0001
0100
0010
,  // measure 145
0100
0010
0001
0100
,  // measure 146
1000
0100
0010
0001
,  // measure 147
0100
0001
0100
0010
,  // measure 148
0001
1000
0001
0100
,  // measure 149
0010
0001
0100
1000
,  // measure 150
0100
0010
0100
0010
,  // measure 151
0001
1000
0001
0100
,  // measure 152
0010
0001
0100
0010
0001
0100
1000
0010
,  // measure 153
0100
0001
1000
0001
0010
0100
0001
1000
,  // measure 154
0001
0010
0100
0001
1000
0001
0010
0100
,  // measure 155
0001
0100
0001
0010
0100
0001
1000
0001
,  // measure 156
0010
0100
0001
0010
0001
0100
0010
0001
,  // measure 157
0100
0001
0100
0010
0001
1000
0001
0100
,  // measure 158
0010
0001
0100
0001
0100
0010
0001
1000
,  // measure 159
0001
0100
0010
0001
0100
0001
0100
0010
,  // measure 160
0001
1000
0001
0100
0010
0001
0100
0001
,  // measure 161
0100
0010
0001
1000
0001
0100
0010
0001
,  // measure 162
1000
0001
0100
0010
0001
0100
0001
0100
,  // measure 163
0010
0000
0001
0000
1000
0000
0001
0000
0100
0000
0010
0000
1000
0001
1000
0001
,  // measure 164
1000
0000
0100
0000
0001
0000
0010
1000
0100
0000
0001
0000
0010
0000
1000
0000
,  // measure 165
0001
0000
0100
0000
0010
0000
0001
0100
1000
0000
0001
0000
0100
0000
0010
0000
,  // measure 166
0001
0000
0100
0000
0010
0000
0001
0100
1000
0000
0001
0000
0100
0000
0010
0000
,  // measure 167
0001
0000
0100
0000
0001
0000
0100
0010
0001
0000
1000
0000
0001
0000
0100
0000
,  // measure 168
0001
0000
0010
0000
0100
0000
0001
0100
1000
0000
0100
0000
0010
0000
0001
0000
,  // measure 169
1000
0000
0001
0000
0100
0000
0010
0001
0100
0000
0010
0000
0001
0000
0100
0000
,  // measure 170
1000
0000
0100
0000
0010
0000
0001
0100
0010
0000
0001
0000
0100
0000
1000
0000
,  // measure 171
0001
0000
0100
0000
0010
0000
0001
0100
0010
0000
1000
0000
0001
0100
0001
0100
,  // measure 172
0001
0000
0010
0000
0100
0000
0001
1000
0100
0000
0010
0000
0001
0000
1000
0000
,  // measure 173
0001
0000
0100
0000
0010
0000
0100
0001
1000
0000
0010
0000
0100
0000
0010
0000
,  // measure 174
0001
0000
1000
0000
0001
0000
0100
0010
0001
0000
0100
0000
1000
0000
0010
0000
,  // measure 175
0001
0000
0100
0000
0010
0000
0001
0010
1000
0000
0010
0000
0001
0000
1000
0000
,  // measure 176
0001
0000
0100
0000
0010
0000
0001
0100
1000
0000
0010
0000
0001
0000
1000
0000
,  // measure 177
0001
0000
0100
0000
0010
0000
0001
0100
1000
0000
0010
0000
0100
0000
0010
0000
,  // measure 178
0001
0000
0010
0000
0100
0000
0001
0100
1000
0000
0001
0000
0100
0000
0010
0000
,  // measure 179
0100
0000
0010
0000
0001
0000
0001
0100
1000
0000
0010
0000
0001
0000
0100
0000
,  // measure 180
0001
0000
0100
0000
0010
0000
0001
1000
0100
0000
0001
0000
0100
0000
0010
0000
,  // measure 181
0100
0000
0010
0000
0010
0000
0001
0100
1000
0000
0100
0000
0010
0000
0010
0000
,  // measure 182
0001
0000
1000
0000
0100
0000
0010
0001
0100
0000
0010
0000
0001
0000
0100
0000
,  // measure 183
1000
0000
0001
0000
0100
0000
0010
0100
0001
0000
1000
0000
0100
0000
0001
0000
,  // measure 184
0010
0000
0001
0000
0100
0000
0001
0010
0100
0000
0001
0000
0100
0000
0001
0000
,  // measure 185
1000
0000
0010
0000
0001
0000
0010
0001
0100
0000
0001
0000
1000
0000
0101
0000
,  // measure 186
0101
0000
0000
0000
0000
0000
1001
1001
,  // measure 187
1001
0000
0000
0000
0000
0000
0101
0101
,  // measure 188
0101
0000
0000
0000
0000
0000
1001
1001
,  // measure 189
1001
0000
0000
0000
;
