#VERSION:0.83;
#TITLE:ba ba bad;
#SUBTITLE:;
#ARTIST:Kybba, Ryan Castro, Sean Paul, & Busy Signal;
#TITLETRANSLIT:;
#SUBTITLETRANSLIT:;
#ARTISTTRANSLIT:;
#GENRE:;
#ORIGIN:;
#CREDIT:;
#BANNER:;
#BACKGROUND:;
#PREVIEWVID:;
#JACKET:;
#CDIMAGE:;
#DISCIMAGE:;
#LYRICSPATH:;
#CDTITLE:;
#MUSIC:Ba Ba Bad Remix (Official Audio) - Kybba, Sean Paul, Ryan Castro, Busy Signal.mp3;
#OFFSET:0.000000;
#SAMPLESTART:100.059883;
#SAMPLELENGTH:12.000000;
#SELECTABLE:YES;
#BPMS:0.000=98.000;
#STOPS:0.000=0.200;
#DELAYS:;
#WARPS:;
#TIMESIGNATURES:0.000=4=4;
#TICKCOUNTS:0.000=4;
#COMBOS:0.000=1;
#SPEEDS:0.000=1.000=0.000=0;
#SCROLLS:0.000=1.000;
#FAKES:;
#LABELS:0.000=Song Start;
#BGCHANGES:;
#KEYSOUNDS:;
#ATTACKS:
;

//---------------dance-single - ----------------
#NOTEDATA:;
#CHARTNAME:;
#STEPSTYPE:dance-single;
#DESCRIPTION:;
#CHARTSTYLE:;
#DIFFICULTY:Hard;
#METER:13;
#RADARVALUES:0.617677,0.628165,0.020395,0.006798,0.955165,636.000000,633.000000,3.000000,1.000000,0.000000,0.000000,0.000000,0.000000,0.000000,0.617677,0.628165,0.020395,0.006798,0.955165,636.000000,633.000000,3.000000,1.000000,0.000000,0.000000,0.000000,0.000000,0.000000;
#CREDIT:;
#NOTES:
// measure 0
0000
0000
0000
0000
,  // measure 1
0000
0000
0000
0000
,  // measure 2
0000
0000
0000
0000
,  // measure 3
0000
0000
0000
0000
0000
0000
0000
0000
0000
0000
0000
0000
0000
0000
1000
0100
,  // measure 4
0001
0000
0000
0000
0010
0100
0001
1000
0000
0000
0000
0000
0000
0000
0001
0100
,  // measure 5
1000
0000
0000
0000
0000
0000
0100
0010
0001
0000
0000
0000
0000
0000
0000
0001
,  // measure 6
0100
0001
0010
0001
0100
0010
0001
0100
1000
0000
0000
0000
0000
1000
0100
0001
,  // measure 7
0010
0100
0001
0010
1000
0001
0100
0010
1000
0000
0100
0001
0000
0000
0000
0000
,  // measure 8
1000
0000
0100
0000
0001
0000
0100
0010
1001
0000
0100
0000
0010
0000
0001
1000
0100
0000
0010
0000
0001
0000
0100
0000
1000
0000
0000
0000
0000
0000
0010
0000
,  // measure 9
0100
0001
1000
0001
0010
0100
0001
0000
1000
0100
0001
0010
0100
0000
0000
0000
,  // measure 10
0001
0000
0100
0000
0010
0000
0001
0100
1000
0000
0001
0000
0010
0000
0001
0100
0010
0000
0010
0000
1000
0000
0100
0000
0001
0000
0000
0000
0010
0000
0000
0000
,  // measure 11
0100
0010
0100
0010
0001
1000
0001
0100
0010
0001
0100
0000
1000
0000
0000
0000
,  // measure 12
0100
0000
0000
0000
0001
0000
0000
0000
0100
0000
0000
0000
0010
0000
0000
0000
0001
0000
0000
0000
0100
0000
0000
0000
1000
0000
0000
0000
0000
0000
0010
0000
0000
0100
0000
0000
0001
0000
0000
0000
0000
0000
1000
0000
0000
0000
0000
0000
,  // measure 13
0000
0000
0000
0100
0000
0000
0001
0000
0000
0010
0000
0000
0000
0000
0000
1000
0000
0000
0100
0000
0000
0010
0000
0000
0001
0000
0000
0000
1000
0000
0000
0000
0100
0000
0000
0000
0001
0000
0000
0000
0000
0000
0010
0000
0000
0000
0000
0000
,  // measure 14
0100
0000
0010
0000
0100
0000
0001
0010
0100
0000
1000
0000
0100
0000
0001
0010
0100
0000
0010
0000
0001
0000
0100
0000
1000
0000
0000
0000
0010
0000
0000
0000
,  // measure 15
0100
0001
1000
0000
0010
0000
0001
1000
0100
0010
0000
0100
0001
0000
0010
0100
,  // measure 16
0001
1000
0100
0010
0001
1000
0001
0000
0010
0001
0100
0000
1000
0010
0001
0100
,  // measure 17
0010
0001
0100
0010
0001
1000
0100
0010
0100
0010
0001
0100
1000
0100
0010
0001
,  // measure 18
0100
0010
0001
0100
0010
0001
1000
0001
0100
0010
0001
0100
1000
0000
0000
0010
,  // measure 19
0100
0001
1000
0100
0001
0010
0100
0010
0001
0100
1000
0000
0001
0010
0100
0001
,  // measure 20
1000
0000
0100
0001
0010
0010
0001
0100
0010
0001
0100
0000
1000
0010
0001
1000
,  // measure 21
0100
0010
0100
0000
0001
0000
0010
0001
0000
0100
0001
0000
1000
0100
0001
0010
,  // measure 22
0100
0000
0000
0000
0000
0000
0001
0000
0000
1000
0000
0000
0100
0000
0000
0000
0001
0000
0000
0000
0010
0000
0000
0000
0100
0000
0000
0000
0000
0000
0001
0000
0000
0000
0000
0000
0010
0000
0000
0100
0000
0000
0001
0000
0000
1000
0000
0000
,  // measure 23
0100
0000
0010
0100
0001
0000
1000
0000
0001
0000
0100
0000
0010
0100
0000
0000
,  // measure 24
0001
0000
0010
0000
0100
0000
0001
1000
0100
0000
0010
0000
0100
0000
0001
0010
0100
0000
0010
0000
0001
0000
0100
0000
1000
0000
0000
0000
0000
0000
0010
0000
,  // measure 25
0100
0001
0100
0010
0001
0100
1000
0000
0100
0010
0001
0000
1000
0000
0000
0000
,  // measure 26
0010
0000
0001
0000
0100
0000
0001
0010
1000
0000
0100
0000
1000
0000
0001
0100
0010
0000
0010
0000
0001
0000
0100
0000
1000
0000
0000
0000
0001
0000
0000
0000
,  // measure 27
1000
0100
0001
0010
0100
0010
0100
0010
0001
1000
0100
0000
0001
0000
0000
0000
,  // measure 28
0010
0000
0000
0000
1000
0000
0000
0000
0001
0000
0000
0000
0100
0000
0000
0000
0010
0000
0000
0000
0001
0000
0000
0000
0100
0000
0000
0000
0000
0000
0001
0000
0000
0100
0000
0000
0010
0000
0000
0000
0000
0000
1000
0000
0000
0000
0000
0000
,  // measure 29
0000
0001
0100
0001
0010
0100
0001
1000
0001
1000
0100
0000
0010
0000
0001
0000
,  // measure 30
1000
0000
0100
0000
0001
0000
0010
0100
0001
0000
1000
0000
0100
0000
0001
0010
0100
0000
0001
0000
0010
0000
0100
0000
0001
0000
0000
0000
1000
0000
0000
0000
,  // measure 31
0100
0001
0010
0100
0001
0000
1000
0100
0001
0010
0000
0100
0001
0010
0100
0000
,  // measure 32
0100
0010
0001
0100
1000
0000
0010
0100
0000
0001
1000
0000
0100
0001
0010
0000
,  // measure 33
1000
0000
0100
0001
0010
0000
0000
0000
1000
0100
0001
0000
0010
0000
0001
1000
,  // measure 34
0000
0000
0010
0001
0100
0000
0000
0000
1000
0100
0001
0010
0100
0001
1000
0001
,  // measure 35
0010
0010
0100
0010
0001
0000
0001
0100
1000
0000
0100
0001
0000
0010
0100
0000
,  // measure 36
0001
0010
0100
0001
0010
0000
0000
0000
1000
0000
0100
0000
0001
0000
0010
0100
,  // measure 37
0000
0001
1000
0000
0001
0000
0100
0000
0010
0000
0100
0001
0000
1000
0100
0000
,  // measure 38
0010
0100
0000
0001
1000
0000
0100
0001
0000
0010
0100
0000
0010
0000
0100
0001
,  // measure 39
0000
1000
0100
0000
0010
0100
0000
0001
1000
0000
0100
0001
0000
0000
1000
0100
,  // measure 40
0001
0000
0010
0000
0000
0000
0000
0000
0000
0100
0001
0000
0010
0000
0000
0000
0100
0000
0001
0000
1000
0000
0100
0000
0001
0000
1000
0000
0100
0000
0001
0000
,  // measure 41
0010
0000
0200
0000
0300
0000
1000
0100
0001
0010
0100
0000
0010
0000
0100
0001
,  // measure 42
1000
0000
0000
0100
0000
0000
0001
0000
0000
0000
0000
0000
1000
0000
0000
0000
0100
0000
0000
0000
0001
0000
0000
0000
0010
0000
0000
0100
0000
0000
0001
0000
0000
0000
0000
0000
1000
0000
0000
0000
0000
0000
0010
0000
0000
0100
0000
0000
,  // measure 43
0001
1000
0000
0100
0001
0000
0010
0100
0000
0001
1000
0000
0100
0000
0010
0100
,  // measure 44
0001
0000
1000
0000
0100
0000
0001
0010
0100
0000
0001
0000
0010
0000
1000
0100
0001
0000
0010
0000
0100
0000
0001
0000
1000
0000
0000
0000
0000
0000
0000
0000
,  // measure 45
0010
0001
0100
0001
0100
0010
0001
0100
1000
0000
0010
0001
0100
0000
0001
0000
,  // measure 46
1000
0000
0100
0000
0001
0000
0010
0100
0001
0000
1000
0000
0100
0000
0001
0010
0100
0000
0010
0000
0100
0000
0001
0000
1000
0000
0000
0000
0100
0000
0000
0000
,  // measure 47
0001
0010
0010
0100
1000
0000
0100
0001
0010
0100
0000
0001
1000
0000
0000
0000
,  // measure 48
0100
0000
0000
0000
0001
0000
0000
0000
1000
0000
0000
0000
0001
0000
0000
0000
0010
0000
0000
0000
0100
0000
0000
0000
0001
0000
0000
0000
0000
0000
0010
0000
0000
0100
0000
0000
0001
0000
0000
0000
0000
0000
0010
0000
0000
0000
0000
0000
,  // measure 49
0000
0010
1000
0100
0001
0000
0100
0010
0001
0100
1000
0000
0001
0000
0010
0000
,  // measure 50
0100
0000
0001
0000
0010
0000
0100
0001
0010
0000
1000
0000
0100
0000
0001
0010
0100
0000
0001
0000
0010
0000
0100
0000
0000
0000
0000
0000
1000
0000
0000
0000
,  // measure 51
0100
0010
0001
0100
0010
0000
0001
1000
0100
0000
0001
0100
0010
0000
0100
0001
,  // measure 52
1000
0000
0000
0000
0100
0000
0001
0010
0100
0000
0000
0000
0001
0000
0010
0100
,  // measure 53
0001
0000
0000
0000
0000
0000
0000
0000
1000
0000
0000
0000
0100
0001
0010
0000
0001
0000
0000
0000
0000
0000
0000
0000
0000
0000
0000
0000
1000
0000
0100
0000
,  // measure 54
0001
0010
0100
0001
0100
0010
0001
0100
1000
0000
0100
0001
0010
0000
0001
0100
,  // measure 55
0010
0001
0100
0001
0100
0010
0001
0100
1000
0000
0000
0000
0110
0000
0000
0000
,  // measure 56
1001
0000
0000
0000
;

//---------------dance-single - ----------------
#NOTEDATA:;
#CHARTNAME:;
#STEPSTYPE:dance-single;
#DESCRIPTION:;
#CHARTSTYLE:;
#DIFFICULTY:Medium;
#METER:8;
#RADARVALUES:0.381678,0.323600,0.013597,0.000000,0.000000,393.000000,391.000000,2.000000,0.000000,0.000000,0.000000,0.000000,0.000000,0.000000,0.381678,0.323600,0.013597,0.000000,0.000000,393.000000,391.000000,2.000000,0.000000,0.000000,0.000000,0.000000,0.000000,0.000000;
#CREDIT:;
#NOTES:
0000
0000
0000
0000
,
0000
0000
0000
0000
,
0000
0000
0000
0000
,
0000
0000
0000
0000
,
0100
0001
0010
0100
0001
1000
0001
0010
,
0100
0001
1000
0001
0010
0100
0001
1000
,
0001
0010
0100
0001
0100
0001
1000
0001
,
0010
0100
0001
1000
0001
0010
0100
0001
,
1000
0001
0010
0100
0001
1000
0001
0000
,
0100
0001
0010
0001
1000
0001
0100
0000
,
0010
0001
0100
0010
0001
0100
1000
0000
,
0010
0001
0100
0010
0001
0100
1000
0000
,
0010
0100
0001
1000
0001
0010
0100
0010
,
0001
0100
0001
1000
0001
0010
0100
0000
,
0010
0100
0001
1000
0001
0010
0100
0000
,
0001
0100
0001
0100
1000
0100
0001
0000
,
0010
0001
0100
0010
0001
1000
0100
0001
,
0010
0100
0001
0010
0100
0001
1000
0001
,
0010
0100
0001
1000
0001
0010
0100
0001
,
0010
0100
0010
0001
1000
0001
0100
0010
,
0001
0100
0001
0100
0100
0010
1000
0001
,
0010
0001
0100
0010
0001
1000
0001
0100
,
0010
0001
1000
0001
0100
0010
0001
1000
,
0001
0100
0010
0001
1000
0001
0100
0010
,
0100
1000
0001
0010
0100
0001
1000
0000
,
0010
0001
0100
0010
1000
0100
0001
0000
,
0010
0100
0001
1000
0001
0010
0100
0000
,
0010
0100
0001
1000
0001
0010
0100
0000
,
0001
0010
0100
0001
1000
0001
0010
0010
,
0100
0001
1000
0100
0001
0010
0100
0001
,
1000
0001
0010
0100
0001
0100
0001
0000
,
0010
0100
0001
1000
0001
0010
0100
0000
,
0010
0100
0001
1000
0001
0010
0100
0001
,
1000
0001
0010
0100
0001
1000
0001
0010
,
0100
0001
1000
0001
0100
0010
0001
1000
,
0100
0010
0100
0001
1000
0001
0010
0100
,
0001
1000
0001
0010
0001
0100
0001
0010
,
0100
0010
0100
0100
1000
0001
0010
0100
,
0001
1000
0001
0010
0100
0001
1000
0001
,
0010
0001
0100
0001
0100
0010
0001
1000
,
0100
0010
0100
0001
1000
0001
0010
0100
,
0001
1000
0001
0010
0100
0001
1000
0001
,
0010
0010
0100
0010
0001
0010
0001
0100
,
0001
0100
0010
0001
1000
0001
0100
0010
,
0001
1000
0100
0010
0100
0001
1000
0000
,
0100
0001
0010
0100
0001
0100
0001
0000
,
1000
0100
0001
0010
0100
0001
1000
0000
,
0010
0100
0001
1000
0001
0010
0100
0000
,
0100
1000
0001
0010
0100
0001
1000
0001
,
0010
0100
0001
1000
0001
0010
0100
0001
,
0100
0001
0010
0100
0001
0100
0001
0000
,
0010
0100
0001
1000
0001
0010
0100
0000
,
0010
0000
0001
0100
1000
0000
0001
0100
,
1000
0000
0010
0001
0100
0000
1000
0001
,
0010
0010
0001
0100
1000
0000
0010
0001
,
0100
0010
0001
0100
1000
0000
1001
0000
,
0101
0000
0000
0000
;

//---------------dance-single - ----------------
#NOTEDATA:;
#CHARTNAME:;
#STEPSTYPE:dance-single;
#DESCRIPTION:;
#CHARTSTYLE:;
#DIFFICULTY:Easy;
#METER:4;
#RADARVALUES:0.220460,0.228424,0.013597,0.000000,0.000000,227.000000,225.000000,2.000000,0.000000,0.000000,0.000000,0.000000,0.000000,0.000000,0.220460,0.228424,0.013597,0.000000,0.000000,227.000000,225.000000,2.000000,0.000000,0.000000,0.000000,0.000000,0.000000,0.000000;
#CREDIT:;
#NOTES:
0000
0000
0000
0000
,
0000
0000
0000
0000
,
0000
0000
0000
0000
,
0000
0000
0000
0000
,
0100
0000
0001
0000
,
0100
0000
0010
0000
,
0001
0100
1000
0000
,
0010
0100
0001
0000
,
0100
0001
0010
0100
0001
0010
0100
0000
,
0010
0001
0100
1000
,
0100
0001
0010
0100
0001
1000
0100
0000
,
0010
0100
0001
1000
,
0100
0001
0010
0100
,
0001
1000
0100
0001
,
0010
0100
0001
1000
0001
0010
0100
0000
,
0010
0100
0001
1000
,
0100
0001
0010
0100
,
0001
1000
0001
0010
,
0100
0001
1000
0001
,
0010
0100
0001
1000
,
0001
0010
0100
0001
,
1000
0001
0010
0100
,
0001
1000
0001
0010
,
0100
0001
0100
0001
,
0100
0010
0100
0001
1000
0001
0010
0000
,
0100
0001
0010
0001
,
0100
0010
0100
0001
1000
0001
0010
0000
,
0100
0001
0100
0001
,
1000
0100
0001
0010
,
0100
0001
1000
0001
,
0010
0100
0001
1000
0010
0100
0001
0000
,
0010
0100
0001
1000
,
0100
0001
0010
0100
,
0001
1000
0001
0010
,
0100
0001
0100
0100
,
0010
0100
0001
1000
,
0001
0010
0100
0001
,
1000
0001
0010
0100
,
0001
1000
0001
0010
,
0100
0001
1000
0001
,
0010
0100
0001
1000
,
0001
0010
0100
0001
,
1000
0001
0010
0100
,
0001
0100
0001
0010
,
0100
0001
1000
0100
0001
0010
0100
0000
,
0010
0100
0001
1000
,
0001
0010
0100
0001
1000
0001
0010
0000
,
0100
0001
0100
0001
,
0010
0100
0001
1000
,
0100
0001
0010
0100
,
0001
1000
0100
0001
0010
0100
0001
0000
,
0010
0100
0001
1000
,
1000
0000
0001
0000
,
0100
0000
0010
0000
,
0010
0100
0001
0000
,
1000
0100
0001
1001
,
1001
0000
0000
0000
;

//---------------dance-single - ----------------
#NOTEDATA:;
#CHARTNAME:;
#STEPSTYPE:dance-single;
#DESCRIPTION:;
#CHARTSTYLE:;
#DIFFICULTY:Beginner;
#METER:1;
#RADARVALUES:0.057300,0.095177,0.013597,0.000000,0.000000,59.000000,57.000000,2.000000,0.000000,0.000000,0.000000,0.000000,0.000000,0.000000,0.057300,0.095177,0.013597,0.000000,0.000000,59.000000,57.000000,2.000000,0.000000,0.000000,0.000000,0.000000,0.000000,0.000000;
#CREDIT:;
#NOTES:
0000
0000
0000
0000
,
0000
0000
0000
0000
,
0000
0000
0000
0000
,
0000
0000
0000
0000
,
0100
0000
0010
0000
,
0001
0000
0010
0000
,
1000
0000
0000
0000
,
0001
0000
0000
0000
,
0010
0000
0000
0000
,
0100
0000
0000
0000
,
0001
0000
0000
0000
,
1000
0000
0000
0000
,
0100
0000
0000
0000
,
0010
0000
0000
0000
,
0100
0000
0000
0000
,
0010
0000
0000
0000
,
0100
0000
0000
0000
,
0010
0000
0000
0000
,
0100
0000
0000
0000
,
0010
0000
0000
0000
,
0100
0000
0000
0000
,
1000
0000
0000
0000
,
0010
0000
0000
0000
,
0100
0000
0000
0000
,
0010
0000
0000
0000
,
0100
0000
0000
0000
,
1000
0000
0000
0000
,
0001
0000
0000
0000
,
0010
0000
0000
0000
,
0100
0000
0000
0000
,
0010
0000
0000
0000
,
0100
0000
0000
0000
,
0010
0000
0000
0000
,
0100
0000
0000
0000
,
1000
0000
0000
0000
,
0100
0000
0000
0000
,
0010
0000
0000
0000
,
0100
0000
0000
0000
,
0010
0000
0000
0000
,
0100
0000
0000
0000
,
0010
0000
0000
0000
,
0100
0000
0000
0000
,
0011
0000
0000
0000
,
0010
0000
0000
0000
,
0100
0000
0000
0000
,
1000
0000
0000
0000
,
0100
0000
0000
0000
,
0010
0000
0000
0000
,
0100
0000
0000
0000
,
0010
0000
0000
0000
,
0100
0000
0000
0000
,
0010
0000
0000
0000
,
0100
0000
1000
0000
,
0001
0000
0010
0000
,
0100
0000
0000
0000
,
0010
0000
0000
0000
,
1001
0000
0000
0000
;
