#TITLE:alter ego;
#SUBTITLE:;
#ARTIST:Doechii & JT;
#TITLETRANSLIT:;
#SUBTITLETRANSLIT:;
#ARTISTTRANSLIT:;
#GENRE:;
#CREDIT:;
#BANNER:;
#BACKGROUND:;
#LYRICSPATH:;
#CDTITLE:;
#MUSIC:Doechii, JT - ALTER EGO (Audio).mp3;
#OFFSET:0.000000;
#SAMPLESTART:100.059883;
#SAMPLELENGTH:12.000000;
#SELECTABLE:YES;
#BPMS:0.000000=126.999992
,80.000000=128.000000
,96.000000=125.999992
,124.000000=126.999992
;
#STOPS:0.000000=0.100000,
415.500000=6.000000
;
#BGCHANGES:;
#KEYSOUNDS:;
#ATTACKS:;

//---------------dance-single - ----------------
#NOTES:
     dance-single:
     :
     Hard:
     14:
     0.673560,0.750010,0.447619,0.009947,0.422751,948.000000,858.000000,90.000000,2.000000,0.000000,0.000000,0.673560,0.750010,0.447619,0.009947,0.422751,948.000000,858.000000,90.000000,2.000000,0.000000,0.000000:
// measure 0
0000
0000
0000
0000
,  // measure 1
0000
0000
0000
0000
,  // measure 2
1001
1000
1000
1000
1000
1000
1000
1000
,  // measure 3
1000
1000
1000
1000
1000
1000
1000
1000
,  // measure 4
1001
0001
0001
0001
0001
0001
0001
0001
,  // measure 5
0001
0001
0001
0001
0001
0001
0001
0001
,  // measure 6
1000
1001
1000
1000
1000
1000
1000
1001
,  // measure 7
1000
1000
1000
1000
1000
1000
1000
1000
,  // measure 8
1000
1001
1001
1001
0101
1100
0110
0001
,  // measure 9
1001
0000
0110
0000
0101
0000
0010
0100
0001
0000
1001
0000
0100
0000
0010
0100
,  // measure 10
0001
1000
0101
1000
1001
0110
0101
0001
,  // measure 11
1000
0001
0100
0010
1001
0100
0010
0001
,  // measure 12
1000
0001
0100
0010
0001
0100
1000
0000
,  // measure 13
0100
0000
1000
0000
0100
0000
0001
0010
0100
0000
0010
0000
1001
0000
0100
0000
,  // measure 14
0001
0100
0010
0001
1000
0001
0100
0010
,  // measure 15
1000
0001
0100
0010
0001
1000
0001
0100
,  // measure 16
0011
1001
0001
0100
0010
1001
0001
0100
,  // measure 17
0010
1001
0100
0010
0001
1000
0001
0100
,  // measure 18
0010
0100
0001
0100
0010
0100
0110
1001
,  // measure 19
0101
0000
0100
0000
0010
0000
0100
0001
0100
0000
0001
0000
0100
0000
0010
0000
,  // measure 20
1001
0010
0001
0100
0010
1100
0110
0101
,  // measure 21
0001
1000
0001
0100
0010
0110
0101
0110
,  // measure 22
1001
0010
0001
0100
0010
1100
0101
0110
,  // measure 23
0101
0000
0100
0000
0010
0000
0001
0100
0010
0000
0101
0000
0110
0000
1001
0000
,  // measure 24
0100
0001
0000
1000
0100
0000
0001
0000
0010
0000
0100
0000
0011
0000
0100
0000
,  // measure 25
0001
0100
1000
0000
0001
1000
0100
0000
,  // measure 26
0010
0001
0000
1000
0100
0000
0010
0000
0101
0000
0101
0000
0101
0000
0010
0000
,  // measure 27
1000
0001
0100
0000
0010
0001
1000
0101
,  // measure 28
0100
0000
0000
0001
0000
0000
0010
0000
0100
0000
0001
0000
1000
0000
0000
0000
,  // measure 29
0001
0000
0000
0100
0000
0000
0001
0000
0010
0000
0100
0000
0010
0000
1001
0000
,  // measure 30
0010
0000
0000
0100
0000
0000
1000
0000
0100
0000
0001
0000
0010
0000
0000
0000
,  // measure 31
0100
0000
0000
0010
0000
0000
0001
0000
0001
0000
0100
0000
1000
0000
1001
0000
,  // measure 32
0100
0001
0000
1000
0100
0000
0010
0000
0100
0000
0001
0000
1001
0000
0010
0000
,  // measure 33
0100
0001
0100
0000
1000
0100
0001
0000
,  // measure 34
1000
0001
0000
0010
0100
0000
0010
0000
0110
0000
0110
0000
0110
0000
0001
0000
,  // measure 35
1000
0100
0001
0000
0010
0100
0001
1001
,  // measure 36
0010
0000
0000
0100
0000
0000
0001
0000
1000
0000
0100
0000
0001
0000
0000
0000
,  // measure 37
0010
0000
0000
0100
0000
0000
0010
0000
0001
0000
0100
0000
1000
0000
0000
0000
,  // measure 38
0001
0000
0000
0100
0000
0000
0010
0000
0001
0000
1000
0000
0100
0000
0000
0000
,  // measure 39
0001
0000
0000
0100
0000
0000
0010
0000
0001
0000
0100
0000
1000
0000
1001
0000
,  // measure 40
0010
0000
0000
0100
0000
0000
0001
0000
0000
1000
0100
0000
0010
0000
0100
0000
,  // measure 41
0001
0010
0000
0000
0100
0000
0001
0000
0000
0010
0001
0000
0100
0000
0000
0000
,  // measure 42
1000
0001
0010
0000
0000
0100
0001
0100
0000
0000
0000
0100
0001
0010
0000
0000
,  // measure 43
0000
0000
1000
0000
0100
0001
0000
0010
0000
0100
0000
0001
0000
0000
1000
0100
,  // measure 44
0001
0000
0010
0100
0000
0010
0000
1000
0100
0000
0000
0010
0100
0001
1000
0001
,  // measure 45
0010
0000
0000
0001
0000
0010
0000
0100
0001
0000
0000
0000
1000
0100
0001
0010
,  // measure 46
0100
0000
0001
0010
0000
0100
0000
1000
0001
0000
0001
0100
0010
0100
0001
1000
,  // measure 47
0100
0010
0001
0000
0001
0100
0000
0010
1000
0000
0000
0000
0000
0000
0000
0000
,  // measure 48
1000
1001
0010
0110
0101
0110
0101
1100
,  // measure 49
0110
0001
0100
0001
1000
0001
0010
0100
,  // measure 50
0001
1000
0010
0001
1000
0001
0100
0010
,  // measure 51
0001
1000
0001
0100
0010
0101
0110
1001
,  // measure 52
1000
0000
0010
0100
0000
0001
0000
1000
0000
0100
0001
0000
0010
0000
0100
0000
,  // measure 53
0001
0001
1000
0001
0100
0010
0001
0100
1000
0001
0100
0010
0100
0000
0001
0000
,  // measure 54
1000
0000
0100
0001
0100
0000
0011
0000
1000
0000
0100
0001
0010
0000
0001
0000
,  // measure 55
1000
0000
0100
0001
0010
0100
0001
1000
0001
0000
0010
0100
0001
0000
1000
0000
,  // measure 56
0100
0001
0000
0010
0100
0000
0001
0000
1000
0000
0100
0000
0011
0000
0100
0000
,  // measure 57
0001
0010
0100
0000
0001
1000
0100
0000
,  // measure 58
0100
0010
0000
0001
0100
0000
0010
0000
0110
0000
0110
0000
0110
0000
0001
0000
,  // measure 59
0001
0100
0010
0000
0100
0001
0010
1001
,  // measure 60
0100
0000
0000
0001
0000
0000
0010
0000
0100
0000
0001
0000
1000
0000
0000
0000
,  // measure 61
0100
0000
0000
0001
0000
0000
0010
0000
0100
0000
0001
0000
1000
0000
0101
0000
,  // measure 62
0001
0000
0000
0100
0000
0000
0010
0000
0001
0000
0010
0000
0100
0000
0000
0000
,  // measure 63
0010
0000
0000
0001
0000
0000
1000
0000
0100
0000
0001
0000
0010
0000
0101
0000
,  // measure 64
0010
0100
0000
0001
1000
0000
0100
0000
0001
0000
0100
0000
0110
0000
1000
0000
,  // measure 65
0100
0001
0010
0000
0100
0001
1000
0000
,  // measure 66
0010
0100
0000
0001
0010
0000
0100
0000
0101
0000
0110
0000
1100
0000
0010
0000
,  // measure 67
0100
0001
1000
0000
0100
0001
0010
0110
,  // measure 68
0001
0000
0000
0010
0000
0000
0100
0000
0001
0000
1000
0000
0100
0000
0000
0000
,  // measure 69
0001
0000
0000
0100
0000
0000
0001
0000
1000
0000
0100
0000
0001
0000
1001
0000
,  // measure 70
0010
0000
0000
0001
0000
0000
1000
0000
0100
0000
0001
0000
0100
0000
0000
0000
,  // measure 71
0010
0000
0000
1000
0000
0000
0100
0000
0001
0000
0010
0000
0100
0000
1001
0000
,  // measure 72
0010
0100
0010
0000
0100
0001
0100
0000
1000
0100
0001
0000
0010
0100
0001
0000
,  // measure 73
1000
0100
0001
0000
0010
0100
0001
0000
1000
0100
0001
0000
0010
0100
0001
0000
,  // measure 74
1000
0100
0001
0000
0010
0100
0001
0000
1000
0100
0001
0000
0010
0100
0001
0000
,  // measure 75
1000
0100
0001
0000
0010
0100
0001
0000
1000
0100
0001
0000
0010
0100
0001
0000
,  // measure 76
1000
0100
0001
0000
0010
0100
0010
0000
0100
0001
0100
0000
0100
0001
0100
0000
,  // measure 77
0010
0100
0010
0000
1000
0001
1000
0000
0010
0100
0010
0000
0100
0010
0100
0000
,  // measure 78
1000
0001
1000
0000
0010
0100
0010
0000
0100
0001
0100
0000
0010
0100
0010
0000
,  // measure 79
0100
0001
0100
0000
1000
0100
1000
0000
0100
0001
0100
0000
0010
0100
0010
0000
,  // measure 80
0100
0001
0100
0000
0010
0100
0010
0000
0100
0010
0100
0000
1000
0001
1000
0000
,  // measure 81
0010
0100
0010
0000
0100
0001
0100
0000
0010
0100
0010
0000
0100
1000
0100
0000
,  // measure 82
0010
0100
0010
0000
1000
0100
1000
0000
0100
0001
0100
0000
0010
0100
0010
0000
,  // measure 83
0100
0001
0100
0000
0010
0100
0010
0000
0100
0010
0100
0000
0010
0100
0010
0000
,  // measure 84
1000
0100
1000
0000
0010
0100
0010
0000
0010
0100
0010
0000
0100
0010
0100
0000
,  // measure 85
1000
0001
1000
0000
0100
0001
0100
0000
0010
0100
0010
0000
0100
0010
0100
0000
,  // measure 86
0100
0010
0100
0000
1000
0001
1000
0000
0010
0100
0010
0000
0100
0001
0100
0000
,  // measure 87
1000
0000
0001
0100
0010
0101
0101
1000
,  // measure 88
0010
0000
0000
0001
0000
0000
0010
0000
0001
0100
0010
0000
0001
0000
1000
0000
,  // measure 89
0100
0000
0000
0010
0000
0000
0100
0000
0000
0001
1000
0000
0010
0000
0100
0000
,  // measure 90
0001
0000
0000
0010
0000
0000
0100
0000
0010
0001
0010
0000
0100
0000
0001
0000
,  // measure 91
0010
0000
0000
0100
0000
0000
0001
0000
0000
1000
0100
0000
0001
0000
0010
0000
,  // measure 92
0100
0000
0000
0001
0000
0000
0010
0000
0010
0100
0001
0000
1000
0000
0100
0000
,  // measure 93
0001
0000
0000
0010
0000
0000
0100
0000
0000
0100
0010
0000
0100
0000
1000
0000
,  // measure 94
0100
0000
0000
0001
0000
0000
1000
0000
0100
0001
0010
0000
0100
0000
1000
0000
,  // measure 95
0100
0000
0000
0001
0000
0000
0010
0000
0100
0010
0001
0000
1000
0000
0100
0000
,  // measure 96
0001
0010
0000
0100
0001
0000
1000
0000
0100
0000
0001
0000
0110
0000
0100
0000
,  // measure 97
0010
0100
0001
0000
1000
0100
0001
0000
,  // measure 98
0010
0100
0000
0001
1000
0000
0100
0000
0101
0000
0110
0000
1100
0000
0010
0000
,  // measure 99
0100
0001
0100
0000
0010
0100
0001
1001
,  // measure 100
0010
0000
0000
0000
0100
0000
0000
0000
0001
0100
0000
0000
0010
0000
1001
0000
,  // measure 101
0100
0000
0010
0000
0001
0100
0010
1001
,  // measure 102
0100
0001
1000
0001
,  // measure 103
1000
0001
1000
0001
1000
0000
0000
0000
0100
0000
0001
0000
1000
0000
2002
0000
,  // measure 104
3003
0000
0000
0000
;

//---------------dance-single - ----------------
#NOTES:
     dance-single:
     :
     Medium:
     10:
     0.446198,0.491386,0.029841,0.129312,0.000000,628.000000,622.000000,6.000000,26.000000,0.000000,0.000000,0.446198,0.491386,0.029841,0.129312,0.000000,628.000000,622.000000,6.000000,26.000000,0.000000,0.000000:
0000
0000
0000
0000
,
0000
0000
0000
0000
,
1001
1000
1000
1000
1000
1000
1000
1000
,
1000
1000
1000
1000
1000
1000
1000
1000
,
1001
0001
0001
0001
0001
0001
0001
0001
,
0001
0001
0001
0001
0001
0001
0001
0001
,
1001
1000
1000
1000
1000
1000
1000
1000
,
1000
1000
1000
1000
1000
1000
1000
1000
,
1001
0010
0100
0001
1000
0010
0001
0100
,
0001
1000
0001
0010
0100
0001
1000
0001
,
0010
0100
0001
1000
0001
0010
0100
0001
,
1000
0001
0010
0010
0001
0100
0010
0001
,
1000
0001
0100
0010
0001
0100
1000
0000
,
0010
0100
0001
1000
0001
0010
0100
0001
,
1000
0001
0010
0100
0001
1000
0001
0010
,
0100
0001
1000
0001
0010
0100
0001
1000
,
0001
0010
0100
0001
1000
0001
0010
0001
,
1000
0001
0100
0010
0001
1000
0001
0100
,
0010
0001
0100
0001
0100
0010
0001
1000
,
0001
0100
0010
0001
1000
0001
0100
0010
,
1001
0100
0001
1000
0001
0010
0100
0001
,
1000
0010
0001
0100
0001
0100
0010
0001
,
1000
0001
0100
0010
0001
0100
0001
0100
,
0010
0001
1000
0001
0100
0010
0001
0100
,
1000
0010
0100
0001
1000
0001
0010
0100
,
0001
1000
0100
0000
0010
0100
0001
0000
,
1000
0100
0001
0010
0100
0100
0100
0100
,
0100
0001
0100
0000
0010
0100
0001
0100
,
0001
0000
0000
0010
0100
0002
1000
0000
,
0020
0000
0000
0033
0001
0100
1000
0010
,
0000
0000
0000
0001
1000
0200
0001
0000
,
0002
0000
0000
0303
0010
0100
0001
1000
,
0100
0001
0010
0100
0001
1000
0001
0010
,
0100
0001
1000
0000
0010
0100
0001
0000
,
0010
0100
0001
1000
0001
0010
0100
0001
,
1000
0001
0010
0000
0100
0001
0100
0010
,
0010
0000
0000
0001
0100
2000
0001
0000
,
0200
0000
0000
3300
0010
0001
1000
0100
,
0010
0000
0000
0001
1000
0200
0001
0000
,
0002
0000
0000
0303
0100
0010
0001
0100
,
1000
0000
0100
0000
,
0010
0001
1000
0100
,
0100
0000
0010
0000
,
1000
0001
0100
0010
,
0100
0000
1000
1000
,
0010
0000
0001
1000
,
0100
0000
0001
0100
,
0010
1000
0100
0000
,
0001
1000
0001
0100
0010
0001
1000
0001
,
0100
0010
0001
1000
0001
0100
0010
0001
,
0100
0001
0100
0010
0001
1000
0001
0100
,
0010
0001
1000
0001
0100
0010
0001
0100
,
1000
0010
0100
0010
0001
0100
0001
0100
,
0010
0001
1000
0001
0100
0010
0001
0100
,
1000
0010
0100
0010
0001
0100
0001
0100
,
0010
0001
1000
0001
0100
0010
0001
0100
,
0001
0100
0010
0001
1000
0001
0100
0010
,
0001
1000
0100
0000
0001
0100
1000
0000
,
0010
0100
0001
1000
0001
0010
0100
0001
,
1000
0001
0010
0000
0100
0001
0100
0010
,
0100
0000
0000
0001
0010
0200
0001
0000
,
0002
0000
0000
0303
0010
0100
0001
1000
,
0001
0000
0000
0100
0010
2000
0100
0000
,
0002
0000
0000
3003
0010
0100
0001
1000
,
0001
0010
0100
0001
1000
0001
0010
0100
,
0001
0100
0001
0000
0010
0100
0001
0000
,
1000
0100
0001
0010
0100
0001
1000
0001
,
0010
0100
0001
0000
0100
0001
1000
0001
,
0010
0000
0000
0100
0001
2000
0100
0000
,
0002
0000
0000
3003
0100
0010
0001
0100
,
1000
0000
0000
0001
1000
0200
0010
0000
,
0002
0000
0000
0303
0010
0001
0100
1000
,
0100
0001
1000
0001
,
0010
0001
0100
0010
,
0001
1000
0001
0100
,
0010
0000
0001
0100
0010
0000
0001
1000
,
0100
0000
0010
0001
0100
0000
0100
0000
,
0001
1000
0001
0010
,
0001
1000
0001
0100
,
0010
0000
0001
0100
1000
0000
0010
0100
,
0001
0010
1000
0100
0001
0000
0100
0001
,
1000
0010
0001
1000
0100
0000
0010
0100
,
0001
0100
0010
0001
1000
0000
0100
0000
,
0100
0001
0010
0100
0001
0000
1000
0100
,
0001
0010
0100
0001
1000
0000
0100
0001
,
0010
0100
0001
1000
0100
0000
0001
0100
,
0001
0100
0010
0001
1000
0000
0100
0000
,
0000
0000
0100
0001
1000
0000
0010
0100
,
0010
0000
0000
1000
0100
0002
0100
0000
,
0020
0000
0000
0033
,
0100
0000
0000
0001
0100
2000
0100
0000
,
0002
0000
0000
3003
,
0010
0000
0000
0100
0001
2000
0001
0000
,
0200
0000
0000
3300
,
0010
0000
0100
0001
1000
0002
0010
0000
,
0200
0000
0000
0303
,
0010
0100
0001
1000
0001
0010
0100
0001
,
0100
0001
0010
0000
0100
0001
1000
0000
,
0010
0001
0001
0010
0100
0001
1000
0001
,
0010
0100
0001
0000
1000
0100
0001
0010
,
0100
0000
0001
0000
0010
0100
0001
1000
,
0100
0001
0100
0001
,
1000
0100
0001
0010
,
0100
0001
0100
0000
0010
0100
0001
2002
,
3003
0000
0000
0000
;

//---------------dance-single - ----------------
#NOTES:
     dance-single:
     :
     Easy:
     5:
     0.181179,0.336211,0.034815,0.069630,0.000000,255.000000,248.000000,7.000000,14.000000,0.000000,0.000000,0.181179,0.336211,0.034815,0.069630,0.000000,255.000000,248.000000,7.000000,14.000000,0.000000,0.000000:
0000
0000
0000
0000
,
0000
0000
0000
0000
,
1001
0000
0000
0000
,
0000
0000
0000
0000
,
1001
0000
0000
0000
,
0000
0000
0000
0000
,
0000
0000
0000
0000
,
0000
0000
0000
0000
,
0010
0100
0001
1000
,
0001
0010
0100
0001
,
1000
0001
0010
0100
,
0100
0001
1000
0001
,
0010
0100
0001
1000
,
0001
0010
0100
0001
,
1000
0001
0010
0100
,
0001
1000
0001
0100
,
0010
0110
0010
0110
,
0001
1001
0010
0110
,
0010
0100
0001
1000
,
0001
0010
0100
0001
,
1000
0001
0010
0100
,
0001
1000
0001
0010
,
0100
0001
1000
0001
,
0010
0100
0100
0100
,
0010
0001
1000
0001
,
0100
0000
0010
0000
,
0100
0001
1000
0001
,
0010
0000
0100
0000
,
0002
0000
0000
0000
,
0000
0003
0010
0100
,
0002
0000
0000
0000
,
0000
0003
0001
1000
,
0100
0001
0010
0100
,
0001
0000
1000
0000
,
0100
0001
0010
0100
,
0100
0000
1000
0000
,
0020
0000
0000
0000
,
0000
0030
0100
0001
,
2000
0000
0000
0000
,
0000
3000
0100
0001
,
0010
0000
0100
0000
,
0000
0000
0000
0000
,
0010
0000
0100
0000
,
0000
0000
0000
0000
,
0001
0000
0000
0000
,
1000
0000
0000
0000
,
0100
0000
0000
0000
,
0001
0000
0000
0000
,
0100
0001
1000
0001
,
0010
0100
0001
1000
,
0001
0010
0100
0001
,
1000
0001
0010
0100
,
0001
1000
0001
0010
,
0100
0001
1000
0001
,
0010
0001
1000
0100
,
0010
0100
0001
1000
,
0001
0010
0100
0001
,
1000
0000
0010
0000
,
0100
0001
1000
0001
,
0010
0000
0100
0000
,
0002
0000
0000
0000
,
0000
0003
0010
0100
,
0002
0000
0000
0000
,
0000
0003
1000
0100
,
0010
0100
0001
1000
,
0001
0000
0010
0000
,
0100
0001
0100
0001
,
0010
0000
0100
0000
,
2000
0000
0000
0000
,
0000
3000
0100
0001
,
0020
0000
0000
0000
,
0000
0030
0100
0001
,
0000
0000
0001
0010
,
0000
0000
0100
0001
,
0000
0000
1000
0100
,
0000
0001
0010
0100
,
0000
0001
1000
0100
,
0000
0000
0100
0010
,
0000
0000
0010
0100
,
0000
0001
1000
0100
,
0000
0001
0010
0100
,
0100
0001
0010
0010
,
0100
0001
1000
0001
,
0010
0001
1000
0100
,
0001
0100
0010
0100
,
0001
1000
0001
0010
,
0100
0001
0100
1000
,
0000
0000
0000
0000
,
0200
0000
0000
0000
,
0000
0000
0000
0300
,
0020
0000
0000
0000
,
0000
0000
0000
0030
,
0002
0000
0000
0000
,
0000
0000
0000
0003
,
2000
0000
0000
0000
,
0000
0000
0000
3000
,
0100
0001
0010
0100
,
0001
0000
0010
0000
,
1000
0100
0001
0010
,
0100
0000
0001
0000
,
0000
0000
1000
0100
,
0000
0000
0001
0100
,
0000
0000
0000
0000
,
0010
0100
0001
2002
,
3003
0000
0000
0000
;

//---------------dance-single - ----------------
#NOTES:
     dance-single:
     :
     Beginner:
     3:
     0.088103,0.179296,0.004974,0.000000,0.000000,124.000000,123.000000,1.000000,0.000000,0.000000,0.000000,0.088103,0.179296,0.004974,0.000000,0.000000,124.000000,123.000000,1.000000,0.000000,0.000000,0.000000:
0000
0000
0000
0000
,
0000
0000
0000
0000
,
1001
0000
0000
0000
,
0000
0000
0000
0000
,
0000
0000
0000
0000
,
0000
0000
0000
0000
,
0000
0000
0000
0000
,
0000
0000
0000
0000
,
0010
0000
0000
0000
,
0100
0000
0000
0000
,
0001
0000
0000
0000
,
1000
0000
0000
0000
,
0100
0000
0000
0000
,
0001
0000
0000
0000
,
0010
0000
0000
0000
,
0100
0000
0000
0000
,
0001
0000
0000
0000
,
1000
0000
0000
0000
,
0100
0000
0000
0000
,
0001
0000
0000
0000
,
0010
0000
0000
0000
,
0100
0000
0000
0000
,
0001
0000
0000
0000
,
1000
0000
0000
0000
,
0100
0100
0100
0100
,
0100
0000
0010
0000
,
0010
0010
0010
0010
,
0010
0000
0010
0000
,
1000
0000
0000
0000
,
0000
0000
0000
0000
,
0001
0000
0000
0000
,
0000
0000
0000
0000
,
0010
0010
0010
0010
,
0010
0000
0010
0000
,
0100
0100
0100
0100
,
0100
0000
0100
0000
,
0001
0000
0000
0000
,
0000
0000
0000
0000
,
1000
0000
0000
0000
,
0000
0000
0000
0000
,
0100
0000
0000
0000
,
0000
0000
0000
0000
,
0001
0000
0000
0000
,
0000
0000
0000
0000
,
0010
0000
0000
0000
,
0100
0000
0000
0000
,
0001
0000
0000
0000
,
1000
0000
0000
0000
,
0000
0100
0000
0001
,
0000
1000
0000
0100
,
0000
0001
0000
0010
,
0000
0100
0000
0001
,
0000
0000
0000
0000
,
0010
0000
0000
0000
,
0100
0000
0000
0000
,
0001
0000
0000
0000
,
1000
1000
1000
1000
,
1000
0000
0100
0000
,
0001
0001
0001
0001
,
0001
0000
0010
0000
,
0100
0000
0000
0000
,
0000
0000
0000
0000
,
0001
0000
0000
0000
,
0000
0000
0000
0000
,
1000
1000
1000
1000
,
1000
0000
1000
0000
,
0100
0100
0100
0100
,
0100
0000
0100
0000
,
0010
0000
0000
0000
,
0000
0000
0000
0000
,
0001
0000
0000
0000
,
0000
0000
0000
0000
,
1000
0000
0000
0000
,
0100
0000
0000
0000
,
0001
0000
0000
0000
,
0010
0000
0000
0000
,
0100
0000
0000
0000
,
0001
0000
0000
0000
,
1000
0000
0000
0000
,
0100
0000
0000
0000
,
0010
0000
0000
0000
,
0100
0000
0000
0000
,
0001
0000
0000
0000
,
1000
0000
0000
0000
,
0100
0000
0000
0000
,
0001
0000
0000
0000
,
0010
0000
0000
0000
,
0000
0000
0000
0000
,
0100
0000
0000
0000
,
0000
0000
0000
0000
,
0001
0000
0000
0000
,
0000
0000
0000
0000
,
1000
0000
0000
0000
,
0000
0000
0000
0000
,
0100
0000
0000
0000
,
0000
0000
0000
0000
,
0010
0010
0010
0010
,
0010
0000
0010
0000
,
0100
0100
0100
0100
,
0100
0000
0100
0000
,
0001
0000
0000
0000
,
0000
0000
0000
0000
,
0000
0000
0000
0000
,
0100
0000
0000
0000
;
