#VERSION:0.83;
#TITLE:all night;
#SUBTITLE:;
#ARTIST:The Dare;
#TITLETRANSLIT:;
#SUBTITLETRANSLIT:;
#ARTISTTRANSLIT:;
#GENRE:;
#ORIGIN:;
#CREDIT:;
#BANNER:;
#BACKGROUND:;
#PREVIEWVID:;
#JACKET:;
#CDIMAGE:;
#DISCIMAGE:;
#LYRICSPATH:;
#CDTITLE:;
#MUSIC:All Night.ogg;
#OFFSET:0.000000;
#SAMPLESTART:100.059883;
#SAMPLELENGTH:12.000000;
#SELECTABLE:YES;
#BPMS:0.000=122.000;
#STOPS:0.000=0.300;
#DELAYS:;
#WARPS:;
#TIMESIGNATURES:0.000=4=4;
#TICKCOUNTS:0.000=4;
#COMBOS:0.000=1;
#SPEEDS:0.000=1.000=0.000=0;
#SCROLLS:0.000=1.000;
#FAKES:;
#LABELS:0.000=Song Start;
#BGCHANGES:;
#KEYSOUNDS:;
#ATTACKS:
;

//---------------dance-single - ----------------
#NOTEDATA:;
#CHARTNAME:;
#STEPSTYPE:dance-single;
#DESCRIPTION:;
#CHARTSTYLE:;
#DIFFICULTY:Hard;
#METER:14;
#RADARVALUES:0.551343,0.825155,0.008567,0.201323,0.550425,901.000000,899.000000,2.000000,47.000000,0.000000,0.000000,0.000000,0.000000,0.000000,0.551343,0.825155,0.008567,0.201323,0.550425,901.000000,899.000000,2.000000,47.000000,0.000000,0.000000,0.000000,0.000000,0.000000;
#CREDIT:;
#NOTES:
// measure 0
0000
0000
0000
0000
,  // measure 1
0000
0000
0000
0000
,  // measure 2
0100
0001
1000
0100
0000
0000
0001
1000
,  // measure 3
0100
0100
0010
0001
0000
0100
0000
0001
,  // measure 4
0000
0000
0001
0000
0100
0000
0010
0000
0001
0100
0010
0001
0000
0010
0000
0000
,  // measure 5
0100
0001
0100
0001
0000
0000
1000
0100
,  // measure 6
0001
0100
0000
0000
0010
0001
0100
1000
,  // measure 7
0000
0000
0100
0001
0000
0010
0001
0100
,  // measure 8
0000
0000
0001
0000
0100
0000
0010
0000
0100
0000
0001
0010
0000
0100
0000
0000
,  // measure 9
0100
0000
0001
0000
0010
0000
0000
0100
,  // measure 10
0000
0000
0001
0000
1000
0000
0000
0000
0100
0000
0001
1000
0000
0100
0010
0000
,  // measure 11
0001
1000
0200
0000
,  // measure 12
0000
0000
0000
0000
0300
0000
0001
1000
,  // measure 13
0100
0000
0100
0000
0010
0000
0100
0001
,  // measure 14
0000
1000
0100
0000
0000
0000
0100
0010
,  // measure 15
0001
0100
0002
0000
,  // measure 16
0000
0000
0000
0003
,  // measure 17
0001
0100
0001
1000
0100
0000
0010
0100
,  // measure 18
0001
1000
0001
0000
0001
1000
0001
0100
,  // measure 19
0010
0000
0001
0100
0001
0100
1000
0000
,  // measure 20
0000
0100
0002
0000
0020
0000
0033
0000
,  // measure 21
0001
0100
0001
0100
1000
0000
0010
0100
,  // measure 22
0001
1000
0001
0000
0010
0100
0001
1000
,  // measure 23
0001
0000
0100
0010
0001
1000
0001
0000
,  // measure 24
0000
0020
0002
0033
,  // measure 25
0200
0000
0000
0000
0300
0001
1000
0001
,  // measure 26
0020
0000
0000
0000
0030
0100
0001
0100
,  // measure 27
2000
0000
0000
0000
3000
0010
0001
0100
,  // measure 28
1000
0000
0010
0000
0001
0100
0001
0100
,  // measure 29
2000
0000
0000
0000
3000
0100
0001
0100
,  // measure 30
2000
0000
0000
0000
3000
0001
0010
0100
,  // measure 31
0002
0000
0000
0000
0003
0010
0100
0001
,  // measure 32
1000
0000
0100
0000
0010
0100
0001
1000
,  // measure 33
0001
0000
0001
0000
0100
0000
0010
0000
0000
0000
0000
0000
0100
0001
0000
0000
,  // measure 34
0001
0000
0000
0000
0100
0000
0000
0000
0010
0000
0100
0001
1000
0000
0100
0000
,  // measure 35
0100
0000
0001
0000
0000
1000
0100
0001
,  // measure 36
0010
0000
0000
1000
0000
0000
0001
0000
0000
0000
0000
0000
1000
0100
0000
0000
,  // measure 37
0010
0000
0000
0100
0000
0000
0000
0000
0000
0000
0001
0000
1000
0000
0001
0000
,  // measure 38
0100
0000
0000
0001
0000
0000
0010
0000
0000
0000
0100
0000
0010
0000
0001
0000
,  // measure 39
0100
0000
0000
0010
0000
0000
0001
0000
0000
0000
1000
0000
0100
0000
0000
0000
,  // measure 40
0100
0000
0000
0010
0000
0000
0001
0000
0000
0000
1000
0000
0100
0000
0000
0000
,  // measure 41
0001
0010
0100
0001
1000
0000
0001
0010
,  // measure 42
0100
0001
1000
0000
0001
0010
0100
0001
,  // measure 43
1000
0000
0001
0001
0001
0010
0100
0000
,  // measure 44
0000
1000
0200
0000
0020
0000
0330
0000
,  // measure 45
0001
0100
0001
0100
1000
0000
0001
0100
,  // measure 46
0001
0100
1000
0000
0001
0100
0001
0100
,  // measure 47
1000
0000
0001
0100
0001
0100
1000
0000
,  // measure 48
0200
0000
0020
0330
,  // measure 49
0100
0001
0010
0100
0001
0000
0001
0100
,  // measure 50
0001
0100
1000
0000
0001
0100
0001
0000
,  // measure 51
1000
0000
0100
0001
0100
1000
0001
0000
,  // measure 52
0000
0200
0020
0330
,  // measure 53
0001
1000
0001
0100
0010
0000
0001
1000
,  // measure 54
0001
0000
0100
0000
0001
0000
0000
0000
0100
0000
0010
0000
0001
0100
0000
0000
,  // measure 55
1000
0000
0001
0100
0001
0100
1000
0000
,  // measure 56
0000
0200
0020
0330
,  // measure 57
1000
0100
0001
1000
0100
0001
0100
0001
1000
0001
0010
0100
0001
1000
0001
0010
,  // measure 58
0100
0010
0001
0100
0001
0100
0010
0001
1000
0001
0100
0010
0001
1000
0001
0100
,  // measure 59
0010
0001
1000
0001
0100
0010
0001
1000
0001
0100
0010
0001
1000
0001
0100
0010
,  // measure 60
0100
0001
1000
0001
0020
0000
0000
0000
0200
0000
0000
0000
0330
0000
0000
0000
,  // measure 61
0001
0010
0100
0001
1000
0001
0010
0100
0001
1000
0001
0010
0100
0001
1000
0001
,  // measure 62
0010
0100
0001
1000
0001
0010
0100
0001
1000
0001
0010
0100
0001
1000
0001
0010
,  // measure 63
0100
0001
1000
0001
0010
0100
0001
1000
0001
0010
0100
0001
1000
0001
0010
0100
,  // measure 64
0001
0100
0001
0010
0200
0000
0000
0000
0310
0000
0000
0000
0100
0010
0100
0001
,  // measure 65
0100
0100
0001
0100
0001
0100
0010
0001
1000
0001
0100
1000
0001
0001
0100
0010
,  // measure 66
0001
1000
0001
0100
0010
0001
1000
0001
0100
0010
0001
0100
0001
0100
0001
0100
,  // measure 67
1000
0100
0001
1000
0001
0010
0100
0001
1000
0001
0010
0100
0001
1000
0001
0010
,  // measure 68
0100
0001
0100
0010
0002
0000
0000
0000
0020
0000
0000
0000
0033
0000
0000
0000
,  // measure 69
1000
0100
0001
0100
0001
0100
0001
1000
0001
0010
0100
0001
1000
0001
0010
0100
,  // measure 70
0001
1000
0001
0010
0100
0001
1000
0001
0010
0100
0001
1000
0001
0010
0100
0001
,  // measure 71
1000
0001
0010
0100
0001
1000
0001
0010
0100
0001
1000
0001
0010
0100
0001
1000
,  // measure 72
0001
0010
0100
0001
2000
0000
0000
0000
0200
0000
0000
0000
3300
0000
0000
0000
,  // measure 73
0002
0100
0000
0100
0000
0100
0000
0100
,  // measure 74
0000
0100
0000
0100
0000
0100
0000
0100
,  // measure 75
0000
0100
0000
0100
0000
0100
0000
0100
,  // measure 76
0000
0100
0000
0100
0000
0100
0000
0103
,  // measure 77
1000
0100
0001
0100
0001
0000
0001
0100
,  // measure 78
0001
0000
0100
0000
1000
0000
0000
0000
0001
0000
0100
0000
0001
0100
0000
0000
,  // measure 79
1000
0000
0001
0100
0001
0100
1000
0000
,  // measure 80
0000
0100
0002
0000
0020
0000
0033
0000
,  // measure 81
0001
0100
0001
0100
1000
0000
0100
0001
,  // measure 82
0100
0001
0100
0000
0001
0100
0001
0100
,  // measure 83
1000
0000
1000
0100
0100
0001
0100
0000
,  // measure 84
0000
0020
2000
3030
,  // measure 85
0001
0100
0001
0100
1000
0000
0010
0001
,  // measure 86
1000
0000
0001
0000
0100
0000
0000
0000
0100
0000
0010
0100
1000
0001
0000
0000
,  // measure 87
1000
0000
0010
0100
0100
0001
0100
0000
,  // measure 88
0000
0200
0020
0330
,  // measure 89
0001
0100
0001
0100
1000
0000
0001
0100
,  // measure 90
0001
0000
0100
0000
1000
0000
0000
0000
1000
0000
0001
0000
0100
0001
0000
0000
,  // measure 91
1000
0000
0010
0100
0001
0100
1000
0000
,  // measure 92
0000
2000
0200
3300
,  // measure 93
0001
0100
0001
0101
,  // measure 94
0001
0100
0001
0100
,  // measure 95
0001
0100
0010
1001
,  // measure 96
0001
0020
0200
0330
,  // measure 97
0001
0100
0010
0001
1000
0001
0100
0010
0001
1000
0001
0100
0010
0001
1000
0001
,  // measure 98
0100
0010
0001
1000
0001
0100
0001
0010
0100
0001
1000
0001
0100
0010
0001
1000
,  // measure 99
0001
0100
0010
0001
1000
0001
0100
0010
0001
1000
0001
0100
0010
0001
1000
0001
,  // measure 100
0100
0010
0001
1000
0001
0100
0010
0001
1000
0100
0010
0001
0100
0000
0000
0000
,  // measure 101
0001
0100
0010
0100
0001
0100
0010
0001
1000
0001
0100
0010
0001
0100
0001
0100
,  // measure 102
1000
0010
0001
0100
0010
0001
1000
0001
0100
0010
0001
1000
0001
0100
0001
1000
,  // measure 103
0100
0010
0001
0100
0010
0001
1000
0001
0100
0010
0001
1000
0001
0100
0010
0001
,  // measure 104
1000
0001
0100
0010
0002
0000
0000
0000
0200
0000
0000
0000
0303
0000
0000
0000
,  // measure 105
0010
0001
1000
0001
0100
0010
0001
1000
0001
0100
0010
0001
1000
0001
0100
0010
,  // measure 106
0001
1000
0001
0100
0010
0001
1000
0001
0100
0010
0001
1000
0001
0100
0010
0001
,  // measure 107
1000
0001
0100
0010
0001
1000
0001
0100
0010
0001
1000
0001
0100
0010
0001
1000
,  // measure 108
0001
0100
0010
0001
2000
0000
0000
0000
0200
0000
0000
0000
3300
0000
0000
0000
,  // measure 109
0001
0010
0100
0001
1000
0001
0010
0100
0001
1000
0001
0010
0010
0100
0010
0001
,  // measure 110
1000
0001
0100
0010
0001
1000
0001
0100
0010
0001
1000
0001
0100
0010
0001
0100
,  // measure 111
0001
0100
0010
0001
1000
0001
0100
0010
0001
1000
0001
0100
0010
0001
1000
0001
,  // measure 112
0100
0010
0001
1000
0200
0000
0000
0000
0002
0000
0000
0000
0303
0000
0000
0000
,  // measure 113
0010
0100
0001
1000
0001
0010
0100
0001
1000
0001
0010
0100
0001
1000
0001
0010
,  // measure 114
0100
0001
1000
0001
0010
0100
0001
1000
0001
0010
0100
0001
1000
0001
0010
0100
,  // measure 115
0001
0100
0010
0001
0100
0001
0100
0010
0001
1000
0001
0100
0001
0100
2000
0000
,  // measure 116
0000
3000
0200
0000
0020
0000
0330
0000
;
