#TITLE:afterbody;
#SUBTITLE:;
#ARTIST:Jae Stephens;
#TITLETRANSLIT:;
#SUBTITLETRANSLIT:;
#ARTISTTRANSLIT:;
#GENRE:;
#CREDIT:;
#BANNER:;
#BACKGROUND:;
#LYRICSPATH:;
#CDTITLE:;
#MUSIC:Jae Stephens - Afterbody.ogg;
#OFFSET:0.000000;
#SAMPLESTART:100.059883;
#SAMPLELENGTH:12.000000;
#SELECTABLE:YES;
#BPMS:0.000000=134.000000
;
#STOPS:
;
#BGCHANGES:0.000=Jae Stephens - Afterbody.mp4=1.000=0=0=1=====,
99999=-nosongbg-=1.000=0=0=0 // don't automatically add -songbackground-
;
#KEYSOUNDS:;
#ATTACKS:;

//---------------dance-single - ----------------
#NOTES:
     dance-single:
     :
     Hard:
     12:
     0.479945,0.556805,0.311274,0.134170,0.150270,626.000000,568.000000,58.000000,25.000000,0.000000,0.000000,0.479945,0.556805,0.311274,0.134170,0.150270,626.000000,568.000000,58.000000,25.000000,0.000000,0.000000:
// measure 0
0000
0000
0000
0000
,  // measure 1
0000
0000
0000
0000
,  // measure 2
0000
0000
0000
0000
,  // measure 3
0000
0000
0000
0000
,  // measure 4
0100
0000
0000
0010
0001
0000
1000
0100
,  // measure 5
0100
0000
0000
0001
0010
0000
0100
0001
,  // measure 6
1000
0000
0000
0001
0100
0000
1000
0000
,  // measure 7
1001
0110
1001
0110
,  // measure 8
0001
0100
0010
0001
1000
0001
0100
0010
,  // measure 9
0001
1000
0001
0100
1000
0000
0000
0000
,  // measure 10
0001
1000
0001
0100
0010
0001
0100
0010
,  // measure 11
0001
1000
0001
0100
1000
0000
0010
0001
,  // measure 12
0100
1000
0001
0100
0010
0001
1000
0001
,  // measure 13
0100
0010
0001
1000
0001
0100
0010
0001
,  // measure 14
0100
0001
0010
0001
1000
0001
0100
0010
,  // measure 15
1001
0001
1001
1000
1001
0000
0110
0000
,  // measure 16
0000
0000
0100
0001
1000
0000
0100
0001
0000
0000
0010
0000
0100
0000
0001
0000
,  // measure 17
0000
0000
1000
0100
0001
0000
0010
0100
0000
0000
0100
0000
2000
0000
0000
0000
,  // measure 18
3000
0000
0100
0001
0010
0000
1000
0100
0000
0000
0000
0000
0000
0000
0000
0000
,  // measure 19
0000
0000
0100
0000
0001
0000
1000
0100
0000
0000
0001
0000
0020
0000
0000
0000
,  // measure 20
0030
0000
0100
0001
1000
0000
0100
0001
0000
0000
0010
0100
0001
0000
1000
0100
,  // measure 21
0000
0000
0001
0000
0100
0000
0001
0010
0000
0000
0010
0000
0001
0000
1000
0100
,  // measure 22
0000
0000
0001
0000
0010
0000
0100
0001
0000
0000
0000
0000
1000
0000
0100
0000
,  // measure 23
1001
0000
0110
0000
1001
0000
0110
0010
,  // measure 24
0200
0000
0300
0001
1000
0000
0001
0000
,  // measure 25
0000
0010
0000
0001
0100
0000
1000
0000
,  // measure 26
0020
0000
0030
0001
0100
0000
1000
0000
,  // measure 27
0000
0010
0000
0001
0100
0000
0010
0000
,  // measure 28
0001
0000
0000
0100
1000
0000
0000
0000
0100
0000
0000
0000
0000
0000
0000
0000
,  // measure 29
0001
0000
0000
1000
0100
0000
0001
0000
0010
0000
0000
0000
0000
0000
0000
0000
,  // measure 30
0001
0000
0000
0100
1000
0000
0001
0000
0100
0000
0000
0000
0010
0000
0001
0000
,  // measure 31
1001
0110
1001
0110
,  // measure 32
0200
0000
0300
0001
1000
0000
0100
0000
,  // measure 33
0000
0001
0000
0010
0100
0000
0001
0000
,  // measure 34
2000
0000
3000
0100
0001
0000
0010
0000
,  // measure 35
0000
0001
0000
0100
1000
0000
0100
0000
,  // measure 36
0100
0000
0000
1000
0001
0000
1000
0000
0100
0000
0000
0000
0000
0000
0000
0000
,  // measure 37
0100
0000
0000
0001
0010
0000
0100
0000
0001
0000
0000
0000
0000
0000
0000
0000
,  // measure 38
0001
0000
0000
1000
0100
0000
0010
0000
0001
0000
0000
0000
0010
0000
0100
0000
,  // measure 39
1001
0110
1001
0110
,  // measure 40
0100
0000
0000
0010
0100
0000
0001
0000
1000
0000
0000
0000
0001
0000
0100
0000
,  // measure 41
0010
0000
0000
0100
0001
0000
0010
0000
0100
0000
0000
0000
0100
0000
0010
0000
,  // measure 42
0001
0000
0000
1000
0100
0000
0001
0000
1000
0000
0100
0000
0001
0000
0100
0000
,  // measure 43
0010
0000
0000
0100
0001
0000
0100
0000
0001
0000
0000
0000
0000
0000
0000
0000
,  // measure 44
0010
0000
0000
0001
0100
0000
0010
0000
0100
0000
0000
0001
1000
0000
0100
0000
,  // measure 45
0001
0000
0000
0100
0010
0000
0100
0000
0001
0000
0000
0000
0000
0000
1000
0000
,  // measure 46
0100
0000
0000
0010
0100
0000
0001
0000
0010
0000
0000
0100
0001
0000
1000
0000
,  // measure 47
1001
0000
0110
0000
1001
0000
0110
0010
,  // measure 48
0010
0000
0000
0100
0001
1000
0000
0000
0001
0000
0000
0000
0100
0010
0000
0000
,  // measure 49
0010
0000
0000
0100
1000
0001
0000
0000
0010
0000
0000
0000
0100
0001
0000
0000
,  // measure 50
0010
0000
0000
0001
0100
0000
1000
0000
0100
0000
0000
1000
0100
0001
0000
0000
,  // measure 51
0100
0000
0000
0010
0001
0100
0000
0000
0010
0000
0000
0000
1000
0000
0100
0000
,  // measure 52
0001
0000
0010
0000
0001
0000
0100
0000
1000
0000
0000
0010
0100
0000
0001
0000
,  // measure 53
0010
0000
0000
1000
0100
0001
0000
0000
1000
0000
0000
0100
0001
0010
0000
0000
,  // measure 54
0010
0000
0000
0001
1000
0100
0000
0000
0010
0000
0000
0000
0100
0000
0001
0000
,  // measure 55
1001
0000
0110
0000
1001
0000
0110
0010
,  // measure 56
0002
0000
0003
0010
0100
0000
0010
0000
,  // measure 57
0000
1000
0000
0100
0001
0000
1000
0000
,  // measure 58
0020
0000
0030
0100
0001
0000
1000
0000
,  // measure 59
0000
0100
0000
0001
0010
0000
0010
0000
,  // measure 60
1000
0000
0000
0001
0010
0000
0100
0000
0001
0000
0000
0000
0000
0000
0000
0000
,  // measure 61
1000
0000
0000
0100
0001
0000
0010
0000
0100
0000
0000
0000
0020
0000
0030
0000
,  // measure 62
0100
0000
0000
0001
1000
0000
0000
0000
0001
0000
0000
0000
0010
0000
0100
0000
,  // measure 63
1001
0110
1001
0110
,  // measure 64
0002
0000
0003
0010
0100
0000
0001
0000
,  // measure 65
0000
0001
0000
0100
1000
0000
0100
0000
,  // measure 66
0020
0000
0030
0001
1000
0000
0100
0001
,  // measure 67
1000
0100
0000
0001
0010
0000
0100
0000
,  // measure 68
0001
0000
0000
1000
0100
0000
0010
0000
0001
0000
0000
0000
0000
0000
0000
0000
,  // measure 69
0100
0000
0000
0001
1000
0000
0010
0000
0100
0000
0001
0000
0010
0000
0000
0000
,  // measure 70
0010
0000
0000
0001
0100
0000
0010
0000
0001
0000
0000
0000
0100
0000
0010
0000
,  // measure 71
1001
0110
1001
0110
,  // measure 72
0010
0000
0001
0000
0100
0000
1000
1000
,  // measure 73
1000
0100
0010
1001
,  // measure 74
0001
0000
1000
0000
0001
0000
0100
0100
,  // measure 75
0100
0100
0100
0100
0000
0001
2002
0000
,  // measure 76
3003
0000
0000
0010
0100
0000
0001
0000
0000
0000
1000
0000
0100
0001
0010
0000
,  // measure 77
0001
0000
0000
0010
0100
0000
0001
0000
0010
0000
1000
0000
2002
0000
3003
0000
,  // measure 78
0100
0000
0010
0000
0010
0000
0100
0001
,  // measure 79
1001
0110
1001
0110
,  // measure 80
0010
0001
1000
0001
0100
0010
0001
1000
,  // measure 81
0001
0100
0010
0001
1000
0000
0100
0000
,  // measure 82
0010
0001
1000
0001
0100
0010
0001
1000
,  // measure 83
0001
0100
0010
0001
1000
0000
0100
0000
,  // measure 84
0001
1000
0001
0100
0010
0001
1000
0001
,  // measure 85
0100
0010
0001
0100
1000
0000
0001
0000
,  // measure 86
0220
0000
0000
0330
,  // measure 87
1001
0000
0110
0000
1001
0000
0110
0010
,  // measure 88
0010
0001
1000
0001
0100
0010
0001
1000
,  // measure 89
0001
0100
0010
0001
1000
0000
0100
0000
,  // measure 90
0001
0100
0010
0001
0100
0001
0100
0010
,  // measure 91
0001
1000
0001
0100
1000
0000
0100
0000
,  // measure 92
0010
0001
0100
0001
1000
0001
0010
0100
,  // measure 93
0001
1000
0001
0010
0100
0000
0001
0000
,  // measure 94
0220
0000
0000
0330
,  // measure 95
1001
0000
0110
0000
1001
0000
0110
0010
,  // measure 96
0200
0000
0300
0010
0001
0000
0100
2000
,  // measure 97
0000
0000
3000
0100
0001
0000
1000
0000
,  // measure 98
2002
0000
3003
0100
0001
0000
1000
0200
,  // measure 99
0000
0300
0100
0001
1000
0000
0100
0000
,  // measure 100
0010
0000
0100
0001
1000
0000
0100
0002
,  // measure 101
0003
0000
0001
0100
1000
0000
0100
0000
,  // measure 102
0010
0000
0001
1000
0100
0000
0010
0000
,  // measure 103
1001
0110
1001
0110
;
