#TITLE:afraid;
#SUBTITLE:;
#ARTIST:2Hollis & Nate Sib;
#TITLETRANSLIT:;
#SUBTITLETRANSLIT:;
#ARTISTTRANSLIT:;
#GENRE:;
#CREDIT:;
#BANNER:;
#BACKGROUND:;
#LYRICSPATH:;
#CDTITLE:;
#MUSIC:2hollis, nate sib - afraid (official video).mp3;
#OFFSET:0.000000;
#SAMPLESTART:100.059883;
#SAMPLELENGTH:12.000000;
#SELECTABLE:YES;
#BPMS:0.000000=154.000000
,40.000000=153.000000
,76.000000=152.000000
,168.000000=154.000000
,264.000000=152.000000
,360.000000=154.000000
,424.000000=152.000000
;
#STOPS:0.000000=0.100000
;
#BGCHANGES:;
#KEYSOUNDS:;
#ATTACKS:;

//---------------dance-single - ----------------
#NOTES:
     dance-single:
     :
     Hard:
     12:
     0.631225,0.572501,0.022344,0.033516,0.008379,791.000000,787.000000,4.000000,6.000000,0.000000,0.000000,0.631225,0.572501,0.022344,0.033516,0.008379,791.000000,787.000000,4.000000,6.000000,0.000000,0.000000:
// measure 0
0000
0000
0000
0000
,  // measure 1
0000
0000
0000
0000
,  // measure 2
0100
0010
0001
1000
0001
0100
0010
0001
,  // measure 3
1000
0001
0100
0010
0001
1000
0001
0100
,  // measure 4
0010
0001
1000
0001
0100
0010
0001
1000
,  // measure 5
0001
0100
0010
0001
1000
0001
0100
0010
,  // measure 6
0001
1000
0001
0100
0010
0001
1000
0001
,  // measure 7
0100
0010
0001
1000
0001
0100
0010
0001
,  // measure 8
1000
0001
0100
0010
0001
1000
0001
0100
,  // measure 9
0000
0010
0001
1000
0100
0100
0010
1000
,  // measure 10
0100
0010
0100
0001
1000
0001
0100
0010
,  // measure 11
0010
0010
0001
0001
0001
0100
0010
0001
,  // measure 12
0100
1000
0100
0010
0001
0100
0001
0100
,  // measure 13
0010
0001
0010
0100
0010
0001
0100
1000
,  // measure 14
0100
0100
0100
0010
0100
0001
0100
0001
,  // measure 15
0100
0001
0010
0001
1000
0001
0100
0010
,  // measure 16
0001
0100
1000
0001
1000
0001
0100
0010
,  // measure 17
0000
0001
1000
0001
0100
0010
0001
0100
,  // measure 18
1000
0100
0001
0010
0100
0001
1000
0001
,  // measure 19
0010
0100
0001
0100
0001
0010
1000
0001
,  // measure 20
0100
0010
0001
1000
0001
0100
0010
0001
,  // measure 21
0100
0001
0100
0010
0001
1000
0010
0001
,  // measure 22
0100
0001
0100
0001
0100
0010
0001
0100
,  // measure 23
0001
0100
0010
0001
1000
0001
0100
0010
,  // measure 24
0001
1000
0001
0100
0010
0001
1000
0001
,  // measure 25
0100
0010
0001
1000
0001
0100
0010
0001
,  // measure 26
2000
0100
0000
0100
,  // measure 27
0000
0000
0100
0000
3000
0001
0100
0010
,  // measure 28
0002
0010
0000
0010
,  // measure 29
0000
0010
0000
0013
,  // measure 30
0200
0010
0000
0010
,  // measure 31
0000
0010
0000
0310
,  // measure 32
0002
1000
0000
1003
,  // measure 33
0000
0010
0100
0001
1000
0001
0010
0100
,  // measure 34
0001
0010
1000
0001
0100
0010
0001
0100
,  // measure 35
0001
0100
0010
0001
1000
0001
0100
0010
,  // measure 36
0001
1000
0001
0100
0010
0001
1000
0001
,  // measure 37
0100
0010
0001
1000
0001
0100
0010
0001
,  // measure 38
1000
0001
0100
0010
0001
0100
0001
0100
,  // measure 39
0010
0001
0100
1000
1000
0100
0010
0001
,  // measure 40
0100
0001
0100
0010
0001
1000
0001
0100
,  // measure 41
0010
0100
0010
0001
1000
0001
0100
0010
,  // measure 42
0001
0100
0001
0100
0010
0001
1000
0001
,  // measure 43
0100
0010
0001
0100
0010
0001
0100
1000
,  // measure 44
0001
0100
0001
0100
0010
0001
0100
1000
,  // measure 45
0100
0010
0001
0100
0001
0100
0010
0001
,  // measure 46
1000
0001
0100
0010
0001
1000
0001
0100
,  // measure 47
0010
0001
1000
0001
0100
0010
0001
0100
,  // measure 48
1000
0001
0100
0010
0000
0001
0100
1000
,  // measure 49
0000
1000
0001
0100
0010
0001
1000
0100
,  // measure 50
0010
0100
0001
1000
0001
0000
0010
0100
,  // measure 51
0001
0000
0100
0000
0010
0001
1000
0100
,  // measure 52
0000
0100
0001
0100
1000
0010
0001
0100
,  // measure 53
0010
0000
0001
0000
0100
0000
1000
2000
,  // measure 54
0000
0000
3000
0000
0001
0000
1000
0001
0010
0000
0100
0000
0001
0000
0010
0000
,  // measure 55
0000
0000
0000
0100
0010
0001
0100
2000
,  // measure 56
0000
0000
0000
0000
0000
3000
0000
0101
,  // measure 57
0000
1100
0000
0101
0000
0010
0100
0001
,  // measure 58
0110
0010
0010
0100
0001
0100
0001
0100
,  // measure 59
0010
0001
1000
0001
0100
0010
0001
0100
,  // measure 60
1000
0010
0001
1000
0001
0100
0010
0001
,  // measure 61
1000
0000
0001
0000
0100
0000
0010
0000
0100
0000
0000
0001
0000
0000
0100
0000
,  // measure 62
0010
0001
0100
0010
0001
1000
0001
0100
,  // measure 63
0010
0001
1000
0001
0100
0010
0001
0100
,  // measure 64
1000
0010
0001
0100
0001
0100
0010
0001
,  // measure 65
1000
0000
0001
0000
0100
0000
0010
0000
0001
0000
0000
0100
0000
0000
1000
0000
,  // measure 66
0100
0001
0010
0100
,  // measure 67
0001
0010
0100
0010
0001
0000
0010
0000
,  // measure 68
0001
0010
0100
0100
,  // measure 69
0100
0010
0001
0100
1000
0000
0001
0010
,  // measure 70
0100
0010
0001
0100
,  // measure 71
1000
0100
0001
0100
0010
0000
1000
0100
,  // measure 72
0001
0000
1000
0100
0001
0000
0010
0000
,  // measure 73
0000
0001
0100
0001
0100
0010
0001
0100
,  // measure 74
1000
0001
1000
0001
0100
0010
0001
1000
,  // measure 75
0001
0100
0010
0001
0100
0001
0100
0010
,  // measure 76
0001
1000
0001
0100
0010
0001
0100
0001
,  // measure 77
0100
0010
0001
1000
0001
0100
0010
0001
,  // measure 78
0100
0001
0100
0010
0001
1000
0001
0100
,  // measure 79
0010
0001
1000
0001
0100
0010
0001
1000
,  // measure 80
0001
0100
0010
0001
0100
0001
0100
0010
,  // measure 81
0000
1000
0001
0100
0010
0001
1000
0100
,  // measure 82
0100
0010
0001
1000
0001
0100
0010
0001
,  // measure 83
0100
0001
0100
0010
0001
1000
0001
0100
,  // measure 84
0010
0001
0100
1000
0100
0010
0001
0100
,  // measure 85
0001
0100
0010
0001
1000
0001
0100
0010
,  // measure 86
0001
0100
0001
0100
0010
0001
1000
0001
,  // measure 87
0100
0010
0001
1000
0001
0100
0010
0001
,  // measure 88
0100
0001
0100
0010
0001
1000
0001
0100
,  // measure 89
0010
0001
1000
0001
0100
0010
0001
0100
,  // measure 90
1000
0100
0010
0001
,  // measure 91
1000
0000
0001
0000
0100
0010
0100
0001
,  // measure 92
0010
0000
0010
0000
0001
0100
1000
0010
,  // measure 93
0100
0010
0100
0001
,  // measure 94
1000
0100
0001
0100
,  // measure 95
0010
0001
1000
0001
,  // measure 96
0100
0000
0010
0000
0100
0000
0001
0100
,  // measure 97
0000
0001
0100
0010
0001
0100
0001
0100
,  // measure 98
0010
0001
1000
0001
0100
0010
0001
0100
,  // measure 99
1000
0010
0100
0001
0100
0001
0100
0010
,  // measure 100
0001
1000
0001
0100
0010
0001
0100
0001
,  // measure 101
0100
0010
0001
1000
0001
0100
0010
0001
,  // measure 102
0100
0001
0100
0010
0001
1000
0001
0100
,  // measure 103
0010
0001
0100
1000
0100
0001
0100
0001
,  // measure 104
0100
0001
0100
0001
0100
0010
0001
0100
,  // measure 105
0001
0100
0010
0001
1000
0001
0100
0010
,  // measure 106
0001
1000
0001
0100
0010
0001
0100
0001
,  // measure 107
0100
0010
0001
1000
0001
0100
0010
0001
,  // measure 108
0100
0001
0100
0010
0001
1000
0001
0100
,  // measure 109
0010
0001
1000
0001
0100
0010
0001
1000
,  // measure 110
0001
0100
0010
0001
0100
1000
0100
0010
,  // measure 111
0001
0100
0001
0100
0001
0100
0001
1000
,  // measure 112
0001
0100
0010
0100
0010
0001
1000
0001
,  // measure 113
0100
0010
0001
0100
1000
0100
0010
0001
;

//---------------dance-single - ----------------
#NOTES:
     dance-single:
     :
     Medium:
     9:
     0.392620,0.477085,0.000000,0.000000,0.000000,492.000000,492.000000,0.000000,0.000000,0.000000,0.000000,0.392620,0.477085,0.000000,0.000000,0.000000,492.000000,492.000000,0.000000,0.000000,0.000000,0.000000:
0000
0000
0000
0000
,
0000
0000
0000
0000
,
0100
0000
0010
0000
0001
1000
0100
0000
,
0001
0000
0010
0000
0100
0001
1000
0000
,
0010
0000
0100
0000
0001
0010
0100
0010
,
1000
0000
0100
0000
0001
0010
0100
0001
,
1000
0000
0010
0000
0100
0010
0001
0100
,
1000
0001
1000
0001
0100
0010
0001
0100
,
1000
0000
0001
0000
0010
0100
0001
1000
,
0001
0000
0000
0000
,
0100
0000
0010
0000
0001
0100
1000
0010
,
0100
0000
0001
0000
0100
0010
0001
0100
,
1000
0000
0010
0000
0100
0010
0001
0100
,
1000
0000
0010
0000
0100
0010
0001
0100
,
1000
0000
0001
0000
0100
0010
0001
0100
,
1000
0000
0001
0000
0100
0010
0001
0100
,
1000
0000
1000
0000
0001
0100
0010
0001
,
0010
0000
0000
0000
,
0100
0000
0010
0000
0100
0010
0001
0100
,
1000
0000
0001
0000
0100
0010
0001
0100
,
1000
0000
0010
0000
0100
0010
0001
0100
,
1000
0000
0001
0000
0100
0010
0001
0100
,
1000
0000
0100
0000
0010
0001
1000
0100
,
0010
0000
0001
0000
0100
0010
0001
0100
,
1000
0010
0001
0100
,
0010
0001
1000
0001
0100
0010
0001
0100
,
1000
0100
0000
0100
,
0000
0001
0000
0001
,
0000
0010
0000
0010
,
0000
1000
0000
0100
,
0000
0001
0000
0100
,
0000
0010
0000
0001
,
0000
1000
0000
0100
,
0000
0000
0000
0000
,
0010
0100
0001
1000
,
0001
0010
0100
0001
,
1000
0001
0010
0100
,
0001
1000
0001
0010
,
0100
0001
0010
0001
,
1000
0001
0100
0010
,
0001
1000
0001
0100
,
0010
0001
1000
0100
,
0100
0010
0100
0001
,
1000
0001
0010
0100
,
0001
1000
0001
0010
,
0100
0010
0001
1000
,
0001
0100
0010
0001
,
0100
0001
0100
0010
,
0001
1000
0001
0100
,
0010
0001
0100
1000
,
0010
0100
0001
1000
,
0001
0100
0010
0001
,
1000
0001
0100
0010
,
0001
1000
0001
0100
,
0010
0001
1000
0100
,
0010
0100
0001
1000
,
0001
1000
0001
0100
,
0010
0001
1000
0100
,
0010
0100
0001
0010
,
0010
0001
0100
1000
,
0100
0001
0100
0010
,
0001
1000
0100
0000
,
0010
0100
0001
1000
,
0001
0010
0100
0001
,
1000
0010
0001
1000
,
0001
0100
0010
0001
,
0100
0010
0001
0100
,
0010
0100
0001
1000
,
0001
0010
0100
0001
,
1000
0001
0010
0100
,
0001
1000
0001
0010
,
0100
0001
0001
0100
,
0010
0001
0100
1000
,
0000
0000
0000
0000
,
0010
0000
0100
0000
0001
1000
0100
0001
,
0010
0000
0100
0000
0001
0010
0100
0001
,
1000
0000
0001
0000
0010
0100
0001
1000
,
0001
0000
0010
0000
0100
0010
1000
0100
,
0001
0000
0010
0000
0100
0010
0001
0100
,
1000
0000
0010
0000
0100
0010
0001
0100
,
1000
0000
0010
0000
0100
0010
0001
0100
,
1000
0000
0000
0000
,
0010
0000
0001
0000
0100
0010
1000
0001
,
0100
0000
0010
0000
0100
0010
0001
0100
,
1000
0000
0001
0000
0100
0010
0001
0100
,
1000
0000
0010
0000
0100
0010
0001
0100
,
1000
0000
0010
0000
0100
0010
0001
1000
,
0100
0000
0010
0000
0100
0010
0001
0100
,
1000
0000
0001
0000
0100
0010
0001
0100
,
0010
0001
1000
0001
0100
0010
0001
0100
,
1000
0001
1000
0001
,
0100
0000
0010
0000
0100
0000
0001
0010
,
0100
0000
0100
0000
0010
0000
0001
0100
,
1000
0010
0100
0001
,
1000
0001
0010
0100
,
0001
1000
0001
0100
,
0010
0001
0100
1000
,
0000
0000
0000
0000
,
0000
0010
0100
0001
,
1000
0001
0010
0100
,
0001
1000
0001
0010
,
0100
0001
0100
0001
,
1000
0001
0100
0010
,
0001
0100
0001
0100
,
0010
0001
1000
0001
,
0100
0010
0001
0100
,
1000
0010
0100
0001
,
1000
0001
0010
1000
,
0001
0100
0010
0001
,
0100
1000
0100
0010
,
0001
0100
0001
0100
,
0010
0001
1000
0001
,
0100
0010
0001
1000
,
0001
0000
0100
0000
0010
0001
0100
1000
;

//---------------dance-single - ----------------
#NOTES:
     dance-single:
     :
     Easy:
     6:
     0.284091,0.285937,0.011172,0.122893,0.000000,356.000000,354.000000,2.000000,22.000000,0.000000,0.000000,0.284091,0.285937,0.011172,0.122893,0.000000,356.000000,354.000000,2.000000,22.000000,0.000000,0.000000:
0000
0000
0000
0000
,
0000
0000
0000
0000
,
1000
0100
0010
0010
,
0100
0001
0100
0001
,
0010
1000
0100
0001
,
0010
0100
0001
1000
,
0001
0010
0100
0001
,
1000
0001
0010
0100
,
0001
1000
0001
0010
,
0000
0000
0000
0000
,
2000
0000
0000
3000
,
0001
0100
0010
0100
,
0002
0000
0000
0003
,
0010
0100
0001
1000
,
0002
0003
0010
0100
,
0002
0003
1000
0100
,
0002
0000
0000
0003
,
0000
0000
0000
0000
,
2000
0000
0000
3000
,
0100
0001
0010
0100
,
0002
0000
0000
0003
,
0010
0100
0001
1000
,
0200
0300
0001
1000
,
0200
0300
0001
1000
,
0200
0000
0300
0001
,
1000
0100
0001
0010
,
0001
0100
0000
1000
,
0000
0100
0000
0010
,
0000
1001
0000
0010
,
0000
1001
0000
0010
,
0000
0100
0000
1000
,
0000
0010
0000
0001
,
0000
0100
0000
1000
,
0000
0000
0000
0000
,
0010
0100
0001
1000
,
0001
0010
0100
0001
,
1000
0001
0010
0100
,
0001
1000
0001
0010
,
0100
0001
1000
0001
,
0010
0100
0001
1000
,
0001
0010
0100
0001
,
0100
0001
0100
0001
,
1000
0100
0001
0010
,
0100
0001
1000
0001
,
0010
0100
0001
1000
,
0001
0010
0100
0001
,
1000
0001
0010
0100
,
0001
0100
0001
0100
,
0001
0001
0100
0010
,
0001
1000
0001
0100
,
0010
0001
0100
1000
,
0010
0001
0100
0010
,
0001
0100
0010
0001
,
1000
0001
0100
0010
,
0002
0003
1000
0100
,
0001
1000
0001
0100
,
0020
0000
0000
0030
,
1000
1000
1000
0000
,
1000
0100
0010
0001
,
1000
0001
0100
0010
,
0001
1000
0001
0100
,
0010
0001
0100
1000
,
0001
0100
0010
0001
,
1000
0001
0100
0010
,
0001
1000
0001
0100
,
0010
0001
1000
0000
,
0001
0100
0001
1000
,
0001
0010
0100
0000
,
0001
0100
0001
1000
,
0001
0010
0100
0000
,
0001
0100
0001
0000
,
1000
0100
0001
0000
,
0010
0100
0001
1000
,
0000
0000
0000
0000
,
0020
0000
0000
0030
,
0100
0001
1000
0001
,
0200
0000
0000
0300
,
0001
1000
0100
0001
,
0020
0030
0100
0001
,
2000
3000
0100
0001
,
0020
0000
0000
0030
,
0000
0000
0000
0000
,
0200
0000
0000
0300
,
0001
0100
0001
1000
,
0020
0000
0000
0030
,
0100
0001
1000
0100
,
0002
0003
0010
0100
,
0200
0300
0001
1000
,
0200
0000
0000
0300
,
0000
0000
0000
0000
,
0100
0010
0001
1000
,
0001
0100
0010
0001
,
0010
0100
0001
1000
,
0001
0010
0100
0001
,
1000
0001
0010
0100
,
0001
1000
0001
0001
,
1000
0001
0100
0010
,
0000
0000
0000
0000
,
0010
0100
0001
1000
,
0001
0010
0100
0001
,
1000
0001
0010
0100
,
0001
1000
0001
0010
,
0100
0001
1000
0001
,
0010
0100
0001
1000
,
0001
0010
0100
0001
,
1000
0100
0001
0010
,
0100
0010
0100
0001
,
0010
0100
0001
1000
,
0001
0010
0100
0001
,
1000
0100
0010
0001
,
1000
0001
0100
0010
,
0001
1000
0001
0100
,
0010
0001
0100
1000
,
0100
0100
0100
0010
;

//---------------dance-single - ----------------
#NOTES:
     dance-single:
     :
     Beginner:
     2:
     0.102145,0.157806,0.005586,0.000000,0.000000,128.000000,127.000000,1.000000,0.000000,0.000000,0.000000,0.102145,0.157806,0.005586,0.000000,0.000000,128.000000,127.000000,1.000000,0.000000,0.000000,0.000000:
0000
0000
0000
0000
,
0000
0000
0000
0000
,
0100
0000
1000
0000
,
0100
0000
0001
0000
,
0010
0000
0100
0000
,
0001
0000
1000
0000
,
0100
0000
0001
0000
,
1000
0000
0100
0000
,
0001
0000
0010
0000
,
0000
0000
0000
0000
,
0100
0000
0000
0000
,
0000
0000
0000
0000
,
0001
0000
0000
0000
,
0000
0000
0000
0000
,
1000
0000
0000
0000
,
0100
0000
0000
0000
,
0001
0000
0000
0000
,
0000
0000
0000
0000
,
0010
0000
0000
0000
,
0000
0000
0000
0000
,
1000
0000
0000
0000
,
0000
0000
0000
0000
,
0100
0000
0000
0000
,
0001
0000
0000
0000
,
0010
0000
0000
0000
,
0100
0000
0000
0000
,
1000
0000
0000
0000
,
0000
0000
0000
0001
,
0001
0000
0000
0100
,
0100
0000
0000
0000
,
0010
0000
0000
0000
,
0000
0000
0000
0000
,
1000
0000
0000
0000
,
0000
0000
0000
0000
,
0001
0000
1000
0000
,
0100
0000
0001
0000
,
0010
0000
0100
0000
,
0001
0000
1000
0000
,
0100
0000
0001
0000
,
0010
0000
0100
0000
,
0001
0000
1000
0000
,
0100
0000
0000
0000
,
0010
0000
0100
0000
,
0001
0000
1000
0000
,
0100
0000
0001
0000
,
0010
0000
0100
0000
,
0001
0000
1000
0000
,
0100
0000
0000
0000
,
0001
0000
0000
0000
,
0001
0000
0100
0000
,
1000
0000
0000
0000
,
0010
0000
0000
0000
,
0100
0000
0000
0000
,
0001
0000
0000
0000
,
1000
0000
0000
0000
,
1000
0000
0000
0000
,
0100
0000
0000
0000
,
0000
0000
0000
0000
,
0011
0000
0000
0000
,
0100
0000
0000
0000
,
1000
0000
0000
0000
,
0100
0000
0000
0000
,
0100
0000
0000
0000
,
0010
0000
0000
0000
,
0100
0000
0000
0000
,
0000
0000
0000
0000
,
0100
0000
0000
0000
,
0000
0000
0000
0000
,
0001
0000
0000
0000
,
0000
0000
0000
0000
,
1000
0000
0000
0000
,
0000
0000
0000
0000
,
0100
0000
0000
0000
,
0000
0000
0000
0000
,
0010
0000
0000
0000
,
0000
0000
0000
0000
,
1000
0000
0000
0000
,
0000
0000
0000
0000
,
0100
0000
0000
0000
,
0001
0000
0000
0000
,
0010
0000
0000
0000
,
0000
0000
0000
0000
,
0100
0000
0000
0000
,
0000
0000
0000
0000
,
1000
0000
0000
0000
,
0000
0000
0000
0000
,
0001
0000
0000
0000
,
0010
0000
0000
0000
,
0100
0000
0000
0000
,
0001
0000
0000
0000
,
1000
0000
0000
0000
,
0000
0000
0000
0100
,
0100
0000
0000
0001
,
0001
0000
0000
0000
,
0010
0000
0000
0000
,
0100
0000
0000
0000
,
1000
0000
0000
0000
,
0000
0000
0000
0000
,
0001
0000
0010
0000
,
0100
0000
0001
0000
,
1000
0000
0100
0000
,
0001
0000
1000
0000
,
0100
0000
0001
0000
,
0010
0000
0100
0000
,
0010
0000
0100
0000
,
0001
0000
0000
0000
,
1000
0000
0100
0000
,
0001
0000
0010
0000
,
0100
0000
0001
0000
,
1000
0000
0010
0000
,
0001
0000
1000
0000
,
0100
0000
0000
0000
,
0001
0000
1000
0000
,
0100
0000
0000
0000
;
