#VERSION:0.83;
#TITLE:30 for 30;
#SUBTITLE:;
#ARTIST:SZA ft Kendrick Lamar;
#TITLETRANSLIT:;
#SUBTITLETRANSLIT:;
#ARTISTTRANSLIT:;
#GENRE:;
#ORIGIN:;
#CREDIT:;
#BANNER:;
#BACKGROUND:;
#PREVIEWVID:;
#JACKET:;
#CDIMAGE:;
#DISCIMAGE:;
#LYRICSPATH:;
#CDTITLE:;
#MUSIC:SZA - 30 For 30 feat. Kendrick Lamar (Official Audio) [TubeRipper.cc].ogg;
#OFFSET:0.000000;
#SAMPLESTART:100.059883;
#SAMPLELENGTH:12.000000;
#SELECTABLE:YES;
#BPMS:0.000=17.250,
4.000=16.950,
8.000=140.000;
#STOPS:0.000=0.550;
#DELAYS:;
#WARPS:;
#TIMESIGNATURES:0.000=4=4;
#TICKCOUNTS:0.000=4;
#COMBOS:0.000=1;
#SPEEDS:0.000=1.000=0.000=0;
#SCROLLS:0.000=1.000;
#FAKES:;
#LABELS:0.000=Song Start;
#BGCHANGES:;
#KEYSOUNDS:;
#ATTACKS:
;

//---------------dance-single - ----------------
#NOTEDATA:;
#CHARTNAME:;
#STEPSTYPE:dance-single;
#DESCRIPTION:;
#CHARTSTYLE:;
#DIFFICULTY:Hard;
#METER:13;
#RADARVALUES:0.508633,0.680740,0.201195,0.050299,0.404186,991.000000,935.000000,56.000000,14.000000,0.000000,0.000000,0.000000,0.000000,0.000000,0.508633,0.680740,0.201195,0.050299,0.404186,991.000000,935.000000,56.000000,14.000000,0.000000,0.000000,0.000000,0.000000,0.000000;
#CREDIT:;
#NOTES:
// measure 0
0000
0000
0000
0000
,  // measure 1
0000
0000
0000
0000
0000
0000
0000
0000
0000
0000
0000
0000
0000
0000
0010
0001
,  // measure 2
1000
0100
0001
0000
0010
0000
0100
0000
0001
0000
0000
0000
0000
0000
0000
0000
,  // measure 3
0001
0010
0100
0000
0010
0000
0001
0000
1000
0000
0000
0000
0100
0000
0000
0000
,  // measure 4
0001
0100
1000
0000
0010
0000
0001
0000
0100
0000
0000
0000
1000
0000
0000
0100
,  // measure 5
0001
0010
0100
0000
1000
0100
0001
0010
0100
0000
0000
0000
0001
0000
0000
1000
,  // measure 6
0100
0001
0010
0000
0100
0000
0010
0000
0100
0000
0000
0000
0000
0000
0000
0000
,  // measure 7
0000
0000
0000
0000
,  // measure 8
0000
0000
1000
0001
0000
0010
0100
0001
,  // measure 9
0000
0000
1000
0000
0001
0000
0100
0000
1000
0000
0000
0001
0000
0000
0010
0000
,  // measure 10
1001
0000
0010
0100
0000
0001
0100
0010
,  // measure 11
1001
0000
0001
0100
0010
0001
0100
1000
,  // measure 12
0101
0000
0000
0000
0000
0000
0101
0000
0000
0000
0000
0000
0001
0000
0000
0100
0000
0000
0010
0000
0000
0000
0001
0000
,  // measure 13
1000
0000
0010
0100
0000
0010
0002
0000
0000
2000
0000
0000
,  // measure 14
0000
0000
0000
0000
,  // measure 15
0000
0000
0000
0000
0000
0000
0000
0000
3003
0000
0010
0000
0000
0000
0100
0001
,  // measure 16
0010
0010
0001
0100
1000
0000
1001
0010
,  // measure 17
0100
0000
0001
0010
0000
0001
0010
0000
0000
0100
0000
0000
,  // measure 18
0010
0000
0000
0000
0001
0000
1000
0000
0000
0001
0000
0000
0100
0000
0000
0000
0000
0000
0000
0000
0000
0001
0000
0000
,  // measure 19
0100
0000
0000
0000
0010
0000
0001
0000
0000
1000
0000
0000
0010
0000
0000
0000
0000
0000
0100
0000
0000
0001
0000
0000
,  // measure 20
0010
0100
0001
0000
1000
0000
0000
0100
0001
0010
0100
0000
0010
0000
0000
0000
,  // measure 21
0100
0000
0000
0000
0010
0000
0001
0000
0000
1000
0000
0000
0100
0000
0000
0000
0000
0000
0001
0000
0000
0000
0010
0000
,  // measure 22
0100
0001
1000
0001
0000
0000
0010
0001
1000
0100
0010
0000
,  // measure 23
0100
0000
0000
0000
0001
0000
0010
0000
0000
0001
0000
0000
0100
0000
0000
0000
0000
0000
0001
0000
0000
0000
0010
0000
,  // measure 24
0100
0001
1000
0001
0010
0100
0001
0010
0001
0100
0010
0001
,  // measure 25
1000
0001
0100
0010
0001
1000
0001
0100
0010
0001
0100
1000
,  // measure 26
0110
0000
0000
0000
0101
0000
0000
0000
0000
0000
0000
0000
0000
0000
0001
1000
,  // measure 27
0100
0001
0110
0100
0010
0001
1010
0000
,  // measure 28
0101
0000
0000
0000
0101
0000
0000
0000
0000
0000
0000
0000
0000
0000
1000
0001
,  // measure 29
0010
0000
0100
0000
0001
0010
0100
0000
1000
0000
0100
0000
0001
0000
0000
0000
,  // measure 30
0110
0000
0000
0000
0101
0000
0000
0000
0000
0000
0000
0000
0000
0000
1000
0100
,  // measure 31
0001
0000
0100
0000
0010
0001
0010
0000
0100
0000
0001
0000
0010
0000
0000
0000
,  // measure 32
0101
0110
0110
1001
,  // measure 33
0001
0100
0010
0100
0001
1000
0100
0000
,  // measure 34
0000
0000
0000
0000
0000
0000
0100
0001
1000
0000
0100
0000
0001
0000
0010
0000
,  // measure 35
1000
0001
0100
0010
2000
0000
3000
0100
,  // measure 36
0110
0000
0001
0100
0010
0001
1000
0001
,  // measure 37
0100
0010
0001
0100
0020
0000
0030
0100
,  // measure 38
1001
0000
0000
0000
0100
0001
0010
0000
0100
0000
0001
0000
1000
0000
0010
0000
,  // measure 39
0001
0100
0010
0001
2000
0000
3000
0100
,  // measure 40
0001
1000
0100
0000
0000
0010
0001
0100
,  // measure 41
1000
0001
0100
0010
0001
1000
0100
0100
,  // measure 42
0010
0001
0200
0000
0000
0000
0300
0000
,  // measure 43
0110
0010
0001
0100
1000
0000
0100
0010
,  // measure 44
0001
0100
1000
0000
0000
0010
0001
0100
,  // measure 45
1000
0000
0010
0001
1000
0001
0100
0010
,  // measure 46
0001
1000
0200
0000
0300
0010
0100
0001
,  // measure 47
1000
0100
0010
0001
0100
0000
0100
0010
,  // measure 48
0001
0100
1000
0000
0100
0010
0001
0100
,  // measure 49
1000
0000
0100
0010
0001
0100
1000
0000
,  // measure 50
0110
0000
0000
0100
0001
0000
0000
0001
,  // measure 51
0100
0000
0010
0000
0100
0001
0010
0000
1000
0000
0000
0000
0000
0000
0100
0000
,  // measure 52
0001
0000
0001
0100
0010
0000
0100
0000
0001
0000
0000
0000
0000
0000
0000
0000
,  // measure 53
1000
0100
0001
0010
0100
0000
0001
0000
,  // measure 54
1001
0010
0100
0001
1000
0000
0000
0010
,  // measure 55
0110
0001
1000
0001
0110
0000
0110
0000
,  // measure 56
0110
0000
0110
0000
0001
1000
0100
0001
,  // measure 57
0010
0000
0100
0001
0000
0001
0100
0000
0000
0001
0000
0000
,  // measure 58
0010
1000
0001
0000
0010
0000
0100
0000
0001
0000
0000
0000
0000
0000
0000
0000
,  // measure 59
1000
0001
0010
0000
0100
0000
0001
0000
0010
0000
0000
0000
0010
0000
0000
0000
,  // measure 60
1000
0100
0001
0000
0100
0000
0010
0000
0001
0000
0000
0000
0000
0000
0000
1000
,  // measure 61
0100
0001
0010
0000
1000
0000
0001
0100
0010
0000
0000
0000
0001
0000
0000
0000
,  // measure 62
0010
0100
0001
0000
0001
0000
0100
0000
1000
0000
0000
0000
0000
0000
0000
0000
,  // measure 63
0000
0000
0000
0000
,  // measure 64
0000
0000
1000
0100
0000
0001
0010
0100
,  // measure 65
0001
0000
0010
0000
0001
0000
0100
0000
1000
0000
0000
0001
0000
0000
0010
0000
,  // measure 66
0000
0000
0010
0100
0000
0010
0001
0100
,  // measure 67
1000
0000
0001
0100
0010
0001
0100
1000
,  // measure 68
0101
0000
0000
0101
0000
0000
0100
0000
0010
0001
0000
1000
,  // measure 69
0100
0000
0010
0001
0000
0001
0200
0000
0000
0020
0000
0000
,  // measure 70
0000
0000
0000
0000
,  // measure 71
0000
0000
0000
0000
0000
0000
0000
0000
0330
0000
0100
0000
0000
0000
0001
1000
,  // measure 72
0100
0001
0010
0100
0001
0000
0000
1000
,  // measure 73
0100
0000
0000
0000
0001
0000
0010
0000
0000
1000
0000
0000
0001
0000
0000
0000
0000
0000
0010
0000
0000
0000
0000
0000
,  // measure 74
0001
0000
0000
1000
0000
0000
0100
0000
,  // measure 75
0100
0010
0001
0000
1000
0000
0100
0000
0001
0000
0001
0000
0100
0000
0010
0100
,  // measure 76
0001
0000
1000
0000
0100
0000
0010
0100
0001
0000
0010
0100
0001
0000
1000
0000
,  // measure 77
0100
0000
0010
0100
0001
0000
1000
0000
0100
0000
0000
0000
0000
0000
0100
0001
,  // measure 78
0010
0100
0001
0100
0010
1000
0001
0100
,  // measure 79
0001
1000
0100
0000
0001
0000
0100
0000
0010
0000
0001
0000
0010
0000
0100
0001
,  // measure 80
1000
0001
0010
0100
0001
0000
0010
0100
0001
0000
1000
0000
0100
0000
0001
0100
,  // measure 81
0010
0000
0000
0000
0000
0000
0001
0000
0000
0100
0000
0000
0010
0000
0000
0000
0000
0000
1000
0000
0000
0000
0000
0000
0100
0000
0000
0000
0000
0000
0000
0000
0000
0000
0000
0000
0000
0000
0000
0000
0000
0000
0000
0000
0001
0000
0000
0000
,  // measure 82
1000
0100
0001
0010
0100
0001
0010
0001
0100
0010
0001
0100
,  // measure 83
1000
0000
0000
0000
0000
0000
1001
0000
0000
0000
0000
0100
,  // measure 84
0001
0100
0001
0100
0010
0001
1000
0001
0100
0010
0001
0100
,  // measure 85
1000
0000
0000
0000
0000
0000
1001
0000
0000
0000
0000
0010
,  // measure 86
0001
0100
0001
0100
0010
0001
1000
0001
0100
0010
0001
0100
,  // measure 87
2000
0000
0002
3003
,  // measure 88
0010
0001
0100
0010
0001
1000
0001
0100
0010
0001
1000
0001
,  // measure 89
0100
0000
1001
0000
,  // measure 90
1001
0000
0000
0000
0101
0000
0000
1000
,  // measure 91
0100
0001
0000
0000
0000
0000
0100
0000
0010
0000
0000
0000
0000
0000
1000
0100
,  // measure 92
0001
0010
0000
0000
0000
0000
0001
0000
1000
0100
0000
0000
0000
0000
0100
0000
,  // measure 93
1000
0000
0000
0000
0000
0000
0100
0001
0010
0000
0000
0000
0000
0000
0001
1000
,  // measure 94
0100
0010
0000
0000
0000
0000
0010
0100
0001
0000
0010
0000
0000
0000
0001
1000
,  // measure 95
0100
0001
0000
0100
1000
0000
0000
0100
,  // measure 96
0001
0010
0000
0000
0000
0000
1000
0000
0100
0001
0000
0000
0000
0010
0100
0001
,  // measure 97
0010
1000
0000
0001
0020
0000
0000
0030
,  // measure 98
0100
0010
0001
0100
0010
0001
1000
0001
0100
0010
0001
0100
,  // measure 99
1000
0000
0010
0100
0000
0001
1000
0100
0001
0010
0000
0000
,  // measure 100
0100
0000
0010
0001
0000
0100
0010
0001
0100
1000
0000
0000
,  // measure 101
0010
0100
0001
1000
0000
0100
0010
0001
0100
1000
0000
0000
,  // measure 102
0010
0001
1000
0100
0000
0010
0100
0001
1000
0001
0010
0100
,  // measure 103
0001
0000
0001
1000
0010
0100
0010
0001
0100
1000
0000
0001
,  // measure 104
0100
0010
0001
1000
0001
0100
0010
0001
1000
0100
0000
0001
,  // measure 105
0100
0010
0001
1000
0001
0100
0010
0001
0100
1000
0000
0000
,  // measure 106
0100
0001
0010
0000
0100
0000
0001
0000
0010
0000
0000
0000
0000
0000
0000
0000
,  // measure 107
0001
1000
0100
0000
0001
0000
0100
0000
1000
0000
0000
0000
0010
0000
0000
0000
,  // measure 108
0100
0010
0001
0000
0001
0000
0100
0000
1000
0000
0000
0000
0000
0000
0000
1000
,  // measure 109
0100
0001
0010
0000
0100
0000
0001
0010
0100
0000
0000
0000
0001
0000
0000
0000
,  // measure 110
0001
0100
1000
0000
0001
0000
0100
0000
1000
0000
0000
0000
0000
0000
0000
0000
,  // measure 111
0000
0000
0000
0000
,  // measure 112
0000
0000
0100
0001
0000
0010
0100
0001
,  // measure 113
0010
0000
0001
0000
1000
0000
0001
0000
0100
0000
0000
0001
0000
0000
0010
0000
,  // measure 114
0000
0000
0001
0100
0000
0010
0001
0100
,  // measure 115
1000
0000
0010
0001
0100
1000
0100
0001
,  // measure 116
0101
0000
0000
1100
0000
0000
0100
0000
0010
0001
0000
0100
,  // measure 117
0001
0000
1000
0100
0002
0000
2000
0000
,  // measure 118
0000
0000
0000
0000
,  // measure 119
0000
0000
0000
0000
0000
0000
0000
0000
3003
0000
1000
0000
0000
0000
0100
0001
,  // measure 120
0010
0100
0001
1000
0001
0000
0110
0100
,  // measure 121
0001
0000
1000
0100
0000
0001
0010
0000
0000
0001
0000
0000
,  // measure 122
0010
0000
0000
0000
0100
0000
1000
0000
0000
0100
0000
0000
0001
0000
0000
0000
0000
0000
0010
0000
0000
0000
0000
0000
,  // measure 123
0001
0000
0000
0000
0100
0000
1000
0000
0000
0100
0000
0000
0001
0000
0000
0000
0000
0000
1000
0000
0000
0100
0000
0000
,  // measure 124
0001
0001
0010
0000
0100
0000
0001
0000
0010
0100
0001
0000
1000
0000
0000
0000
,  // measure 125
0010
0000
0000
0000
0100
0000
0001
0000
0000
0010
0000
0000
0100
0000
0000
0000
0000
0000
0001
0000
0000
0000
0000
0000
,  // measure 126
1000
0000
0000
0000
0100
0000
0000
0000
0001
0000
0000
0000
0010
0000
0000
0000
0000
0000
0000
0000
0000
0000
0000
0000
0100
0000
0000
0001
0000
0000
1000
0000
0000
0000
0000
0000
0100
0000
0000
0001
0000
0000
0000
0000
0000
0000
0000
0000
,  // measure 127
0010
0000
0000
0000
0010
0000
0001
0000
0000
1000
0000
0000
0100
0000
0000
0000
0000
0000
0100
0000
0000
0000
0001
0000
,  // measure 128
1000
0100
0001
0010
0100
0001
0010
0001
0100
0001
0100
0010
,  // measure 129
0001
1000
0001
0100
0010
0001
1000
0001
0100
0010
0001
0100
,  // measure 130
0000
0000
1001
0000
0000
0000
0000
1000
,  // measure 131
0001
0100
0110
0010
0001
0100
1001
0000
,  // measure 132
0000
0000
1001
0000
0000
0000
0000
0010
,  // measure 133
0001
0000
0100
0000
1000
0001
0010
0000
0001
0000
0100
0000
1000
0000
0001
0000
,  // measure 134
0110
0000
0101
0000
0000
0000
0000
0100
,  // measure 135
1000
0000
0001
0000
0010
0100
0001
0000
1000
0000
0100
0000
0001
0000
0000
0000
,  // measure 136
1001
0000
0110
0000
0100
0001
0100
0001
,  // measure 137
0000
0010
0100
0001
0000
1000
0101
0000
,  // measure 138
0110
0000
0000
0000
0101
0000
0000
0000
0000
0000
1000
0001
0010
0000
0001
0000
,  // measure 139
0100
0001
0100
0001
0100
0010
1001
0000
,  // measure 140
0110
0000
0000
0000
0101
0000
0000
0000
0000
0000
1000
0001
0010
0000
0100
0000
,  // measure 141
0010
0001
0100
0010
0001
0100
1000
0000
,  // measure 142
0101
0000
0000
0000
0101
0000
0000
0000
0000
0000
1000
0001
0010
0000
0001
0000
,  // measure 143
1000
0001
0100
0010
0001
0100
1000
0000
,  // measure 144
0110
0000
0110
0000
0001
1000
0100
0001
,  // measure 145
0000
0010
0100
0001
0000
0000
1001
0000
;
