#TITLE:12 to 12;
#SUBTITLE:;
#ARTIST:Sombr;
#TITLETRANSLIT:;
#SUBTITLETRANSLIT:;
#ARTISTTRANSLIT:;
#GENRE:;
#CREDIT:;
#BANNER:;
#BACKGROUND:;
#LYRICSPATH:;
#CDTITLE:;
#MUSIC:sombr - 12 to 12 (official video).mp3;
#OFFSET:0.000000;
#SAMPLESTART:100.059883;
#SAMPLELENGTH:12.000000;
#SELECTABLE:YES;
#BPMS:0.000000=124.000000
;
#STOPS:0.000000=0.800000
;
#BGCHANGES:0.000=sombr - 12 to 12 (official video).mp4=1.000=0=0=1=====,
99999=-nosongbg-=1.000=0=0=0 // don't automatically add -songbackground-
;
#KEYSOUNDS:;
#ATTACKS:;

//---------------dance-single - ----------------
#NOTES:
     dance-single:
     :
     Hard:
     11:
     0.426696,0.540134,0.082396,0.028839,0.111235,725.000000,705.000000,20.000000,7.000000,0.000000,0.000000,0.426696,0.540134,0.082396,0.028839,0.111235,725.000000,705.000000,20.000000,7.000000,0.000000,0.000000:
// measure 0
0000
0000
0000
0000
,  // measure 1
0000
0000
0000
0000
,  // measure 2
0100
0010
0001
1000
,  // measure 3
0001
0100
0010
0001
,  // measure 4
0100
1000
0001
0100
,  // measure 5
0010
0001
1000
0001
,  // measure 6
0100
0010
0001
1000
,  // measure 7
0001
0100
0010
0001
,  // measure 8
1000
0001
0100
0001
,  // measure 9
0100
0001
0100
0001
0100
0001
0100
0000
0010
0000
0000
0000
0100
0001
0010
0000
,  // measure 10
0100
0000
1000
0000
0001
0100
0010
0000
,  // measure 11
0001
1000
0001
0000
0200
0000
0301
0000
,  // measure 12
1000
0000
0100
0010
0001
1000
0100
0000
,  // measure 13
1000
0000
0100
0001
0100
0000
0001
0000
,  // measure 14
1000
0000
0000
0001
0000
0000
0000
0000
0010
0000
0010
0000
0001
0000
0100
0000
,  // measure 15
1000
0100
0020
0030
,  // measure 16
0010
0000
0000
0000
0010
0000
1000
0001
0010
0000
0100
0000
0001
0000
0000
0000
,  // measure 17
1000
0000
0100
0000
0000
0000
0001
0000
0000
0000
0000
0000
0010
0100
0001
0000
,  // measure 18
0001
0000
0000
0010
0000
0000
0000
0000
0001
0000
0100
0000
1000
0000
0001
0000
,  // measure 19
0010
0000
0000
0000
0100
0000
0001
0000
0000
0000
0000
0000
0010
0000
0001
0100
,  // measure 20
0010
0000
0000
0001
0000
0000
1000
0000
0100
0000
0001
0000
0010
0000
0100
0000
,  // measure 21
0001
0010
1000
0100
0000
0001
0000
1000
,  // measure 22
0100
0000
0000
0001
0000
0000
0100
0000
0010
0000
0001
0000
0100
0000
1000
0000
,  // measure 23
0001
0100
1000
0001
,  // measure 24
0010
0000
0100
1000
0001
0010
0100
0010
,  // measure 25
0001
0100
0000
1000
0100
0000
0010
0000
,  // measure 26
0110
0000
0001
0100
0010
0001
1000
0001
,  // measure 27
0100
0010
0001
0100
1000
0000
0001
0100
,  // measure 28
1001
1000
0001
1000
0001
0100
0010
0001
,  // measure 29
1000
0000
0001
0000
0100
0000
0010
0000
1000
0000
0000
0001
0000
0000
0010
0000
,  // measure 30
0000
0000
0000
0000
0200
0000
0300
0000
0001
0000
0000
1000
0000
0000
0100
0000
,  // measure 31
0010
0000
0001
0000
1000
0000
0001
0000
0100
0000
0000
0010
0000
0000
0002
0000
,  // measure 32
0000
0000
0000
0000
,  // measure 33
0020
0000
0000
0000
,  // measure 34
0033
0000
0010
0100
0001
0000
0001
0100
,  // measure 35
0010
0001
1000
0000
0110
0000
0101
0000
,  // measure 36
1001
0000
1000
0100
0001
0010
0100
0001
,  // measure 37
0000
0000
0100
0000
0010
0000
0001
0000
1000
0000
0000
0100
0000
0000
0010
0000
,  // measure 38
0001
0000
0010
0000
0100
0000
0001
1000
,  // measure 39
0000
0100
0001
0010
0100
0001
0100
0000
,  // measure 40
1000
0000
0010
0000
0001
1000
0100
0001
,  // measure 41
0100
0010
1000
0001
0100
0010
0001
0000
,  // measure 42
1000
0000
0100
0000
0001
0000
0010
0100
0000
0000
0001
0000
0010
0000
0100
0000
,  // measure 43
0001
0000
0010
0000
0100
0000
1000
0100
0000
0001
0010
0000
0100
0000
0001
0000
,  // measure 44
0010
0000
0001
0000
0100
0000
0010
0001
0000
0000
0010
0000
1000
0001
1000
0000
,  // measure 45
0100
0000
0010
0000
0001
0000
1000
0100
0000
0001
0010
0000
0100
0000
0010
0000
,  // measure 46
0001
0000
1000
0000
0100
0000
0001
0010
0100
0000
0010
0000
0001
0000
1000
0000
,  // measure 47
0100
0000
0010
0000
0001
0000
1000
0010
0000
0001
0100
0000
0001
0000
0100
0000
,  // measure 48
1000
0000
0100
0000
0010
0000
0001
0100
1000
0000
0010
0000
0100
0000
0001
1000
,  // measure 49
0100
0000
0001
0000
0000
0000
0001
0010
0100
0000
1000
0100
0001
0010
0100
0001
,  // measure 50
1000
0000
0010
0100
0001
0100
1000
0000
,  // measure 51
0001
0100
0000
1000
0000
0000
0001
0000
,  // measure 52
0100
0000
0100
0001
1000
0001
0010
0001
,  // measure 53
1000
0100
0000
0001
0000
0000
0100
0001
,  // measure 54
1000
0000
0010
0000
0001
0000
0100
0100
,  // measure 55
0010
0001
1000
0001
0100
0010
0001
0100
,  // measure 56
1000
0000
0001
0101
0000
1000
0100
0001
,  // measure 57
0000
0000
1000
0000
0100
0000
0001
0000
0010
0000
0001
0000
0100
0000
0001
1000
,  // measure 58
0100
0000
0001
0100
1000
0000
0100
0010
,  // measure 59
0001
1000
0100
0010
0000
0000
0010
0100
,  // measure 60
0010
0000
0000
0000
0010
0000
0001
0010
1000
0000
0001
0000
0100
0000
1000
0001
,  // measure 61
0010
0000
0000
0000
0100
0000
0001
0000
0000
0000
0000
0000
1000
0000
0001
0010
,  // measure 62
0001
0000
0100
0000
0010
0000
0001
0100
,  // measure 63
1000
0001
0100
0001
0100
0010
0001
0100
,  // measure 64
1000
0000
0000
0000
0100
0000
0001
0000
0010
0000
0010
0001
0010
0000
0000
0000
,  // measure 65
0100
0001
0100
0010
0001
0100
1000
0010
,  // measure 66
1001
0000
0001
0100
0010
0001
1000
0001
,  // measure 67
0100
0010
0001
1000
0010
0000
1000
0100
,  // measure 68
1001
0010
0001
1000
0001
0100
0010
0001
,  // measure 69
1000
0000
0001
0000
0100
0000
0010
0000
1000
0000
0000
0001
0000
0000
0010
0000
,  // measure 70
1000
0000
0001
0000
0010
0000
0000
0010
,  // measure 71
0001
0000
1000
0000
0001
0000
0100
0000
0010
0000
0000
0001
0000
0000
1000
0000
,  // measure 72
0100
0010
0001
0100
,  // measure 73
1000
0010
0100
0001
,  // measure 74
1000
0000
0001
0100
1000
0000
0010
0100
,  // measure 75
0001
1000
0001
0000
0110
0000
0101
0000
,  // measure 76
0110
0000
1000
0100
0001
0010
0100
0001
,  // measure 77
0000
0000
0010
0000
0001
0000
0100
0000
1000
0000
0000
0010
0000
0000
0100
0000
,  // measure 78
0001
0000
0010
0000
0100
0000
0001
0100
,  // measure 79
1000
0010
0001
0100
0010
0001
0100
0000
,  // measure 80
1000
0000
0100
0000
0000
0100
0000
0010
,  // measure 81
0001
1000
0001
0100
0001
0000
1000
0000
,  // measure 82
0001
0000
0100
0000
0010
0001
0100
0001
,  // measure 83
1000
0000
0100
0001
0000
1000
0100
0000
,  // measure 84
0001
0000
0100
0000
0100
0001
1000
0001
,  // measure 85
0010
0000
0100
0001
1000
0000
0100
0010
,  // measure 86
0100
0000
0100
0000
0010
1000
0001
0100
,  // measure 87
0001
0000
0010
0100
0000
0001
1000
0000
,  // measure 88
0010
0000
0001
0000
0100
0010
0001
0100
,  // measure 89
1000
0100
0000
0001
0100
0000
0010
0100
,  // measure 90
0002
0100
1000
0100
,  // measure 91
0010
0100
0010
1000
,  // measure 92
0010
0000
0100
0010
0000
0100
0000
0010
,  // measure 93
0000
0100
0000
1000
0000
0000
0003
0000
,  // measure 94
0200
0001
1000
0001
,  // measure 95
1000
0001
1000
0001
,  // measure 96
0010
0001
0010
0001
,  // measure 97
0010
0001
0010
0001
,  // measure 98
0300
0000
1000
0100
0001
0000
0010
0100
,  // measure 99
0001
1000
0001
0000
0110
0000
0101
0000
,  // measure 100
1001
0000
0010
0100
0001
1000
0001
0010
,  // measure 101
0000
0000
0100
0000
0001
0000
1000
0000
0001
0000
0000
0010
0000
0000
0001
0000
,  // measure 102
0110
0000
0001
0000
0100
0000
1000
0010
,  // measure 103
0001
1000
0001
0100
0010
0001
0100
0000
,  // measure 104
1000
0000
0010
0000
0000
1000
0000
0100
,  // measure 105
0001
0000
0010
0000
0001
0000
0100
0000
0001
0000
0000
0000
1000
0001
1000
0000
,  // measure 106
1001
0000
0100
0001
0010
0000
0100
0001
,  // measure 107
1000
0001
0010
0000
0110
0000
0101
0000
,  // measure 108
1100
0000
0010
0001
0100
0001
1000
0001
,  // measure 109
0000
0000
0100
0000
0000
0000
0001
0000
0010
0000
0000
0100
0000
0000
1000
0000
,  // measure 110
0100
0000
0001
0000
0100
0000
1000
0010
,  // measure 111
0100
0001
1000
0001
0010
0100
0001
0000
,  // measure 112
0100
0000
1000
0000
0000
0010
0000
0100
,  // measure 113
0001
0000
0010
0000
0100
0000
0010
0000
0100
0000
0001
0000
1000
0000
0100
0001
,  // measure 114
0010
0000
0000
0000
0100
0000
0001
1000
0100
0000
0010
0000
0100
0000
0001
1000
,  // measure 115
0100
0000
0001
0000
1000
0000
0100
0001
0000
0100
0001
0000
0001
0000
0100
0000
,  // measure 116
1000
0000
0001
0000
0100
0000
0010
0100
0001
0000
0000
0000
0100
0001
0010
0000
,  // measure 117
0010
0000
0000
0000
0000
0000
0100
0001
0000
0010
0100
0000
0001
0000
1000
0000
,  // measure 118
0100
0000
0000
0000
1001
0000
0010
0100
0000
0000
0000
0000
1000
0001
1000
0000
,  // measure 119
0100
0000
0000
0001
0000
0000
0000
0000
0000
0000
0000
0000
0000
0000
0000
0000
;
