#TITLE:Sober Up;
#SUBTITLE:;
#ARTIST:AJR;
#TITLETRANSLIT:;
#SUBTITLETRANSLIT:;
#ARTISTTRANSLIT:;
#GENRE:;
#CREDIT:Constantino Flouras;
#MUSIC:SoberUp.ogg;
#BANNER:SoberUp.png;
#BACKGROUND:SoberUpBg.png;
#CDTITLE:;
#SAMPLESTART:0.000;
#SAMPLELENGTH:0.000;
#SELECTABLE:YES;
#OFFSET:-0.262;
#BPMS:0.000=186.024;
#STOPS:;
#DISPLAYBPM:186.000;
#BGCHANGES:-1.000=SoberUp.mp4=1.000=1=0=1===CrossFade==,
99999.000=-nosongbg-=1.000=0=0=0=StretchNoLoop====
;
#FGCHANGES:;

//--------------- dance-single - ----------------
#NOTES:
     dance-single:
     :
     Easy:
     2:
     0,0,0,0,0:
0000
0000
0000
0000
,
0000
0000
0000
0000
,
0000
0000
0000
0000
,
0000
0000
0000
0000
,
0010
0010
0010
0000
,
0000
0000
0010
1000
,
0100
0100
0100
0000
,
0000
0000
0100
0001
,
0010
0010
0010
0000
,
0000
0000
0010
0001
,
1000
0001
0000
0000
,
0000
0000
0000
0000
,
1000
0100
1000
0000
,
0000
0000
0010
0001
,
0010
1000
0100
0000
,
0000
0000
0100
1000
,
0010
1000
0001
0000
,
0000
0000
0001
0010
,
0100
0000
0000
0000
,
0000
0000
0000
0000
,
1000
1000
1000
0000
,
0010
0010
0010
0000
,
0100
0100
0100
0000
,
1000
1000
1000
0000
,
0001
0001
0001
0000
,
0010
0010
0010
0000
,
1000
1000
1000
0000
,
0100
0100
0100
0000
,
0002
0010
0013
0000
,
2000
0010
3010
0000
,
0200
0001
0301
0000
,
0020
1000
1030
0000
,
0001
1000
0001
0000
,
0010
1000
0100
0001
,
1000
0000
0001
0000
,
1000
0000
0001
0100
,
1000
1000
0001
0000
,
0010
1000
0100
0001
,
1000
0000
0100
0000
,
1001
0000
0000
0000
,
2000
0100
3001
0000
,
0002
0100
1003
0000
,
0020
0100
0031
0000
,
0200
0010
1300
0000
,
0010
0010
0010
0000
,
0000
0000
0010
0001
,
0100
0100
0100
0000
,
0000
0000
0100
1000
,
0010
0010
0010
0000
,
0000
0000
0010
1000
,
0001
1000
0000
0000
,
0000
0000
0000
0000
,
1000
0010
1000
0000
,
0000
0000
0100
0001
,
0100
1000
0010
0000
,
0000
0000
0010
1000
,
0100
1000
0001
0000
,
0000
0000
0001
0100
,
0010
0000
0000
0000
,
0000
0000
0000
0000
,
0001
0001
0001
0000
,
0100
0100
0100
0000
,
1000
1000
1000
0000
,
0001
0001
0001
0000
,
0010
0010
0010
0000
,
0100
0100
0100
0000
,
0001
0001
0001
0000
,
0010
0010
0010
0000
,
2000
0001
3001
0000
,
0002
0010
0013
0000
,
0020
0100
0130
0000
,
0200
0001
0301
0000
,
1000
0001
1000
0000
,
0100
0001
0010
1000
,
0001
0000
1000
0000
,
0001
0000
1000
0010
,
0001
0001
1000
0000
,
0100
0001
0010
1000
,
0001
0000
0010
0000
,
1001
0000
0000
0000
;

//--------------- dance-single - ----------------
#NOTES:
     dance-single:
     :
     Hard:
     7:
     0,0,0,0,0:
0000
0000
0000
0000
,
0000
0000
0000
0000
,
0000
0000
0000
0000
,
0000
0000
0000
0000
,
1000
0000
0000
0001
0000
0000
1000
0000
0000
0001
0000
0000
0000
0000
0000
0000
,
0000
0000
0000
0000
0000
0000
0010
0000
0100
0000
0000
1000
0000
0000
0100
0000
,
0010
0000
0001
1000
0000
0000
0000
0000
,
0000
0000
0000
0000
0000
0000
0100
0000
0010
0000
0000
0001
0000
0000
0010
0000
,
0000
0100
0000
0000
0000
0000
1000
0000
0000
0001
0000
0000
0000
0000
0000
0000
0000
0000
0000
0000
0000
0000
0000
0000
,
0000
0000
0000
0000
0000
0000
1000
0000
1000
0000
0000
0000
0100
0000
0000
0010
,
0000
0000
0000
0001
0000
0000
0000
0000
0000
0000
0000
0000
0000
0000
0000
0000
,
0000
0000
0000
0000
,
0001
0000
0000
1000
0000
0000
0001
0000
0000
1000
0000
0000
0000
0000
0000
0000
,
0000
0000
0000
0000
0000
0000
0010
0000
0100
0000
0000
0001
0000
0000
0100
0000
,
0010
0000
1000
0001
0000
0000
0000
0000
,
0000
0000
0000
0000
0000
0000
0100
0000
0010
0000
0000
1000
0000
0000
0010
0000
,
0100
0000
0001
1000
0000
0000
0000
0000
,
0000
0000
0000
0000
0000
0000
0000
0000
0000
0000
0000
0000
0000
0000
0000
0000
0000
0000
0001
0000
0000
0000
0000
0000
0001
0000
0000
0000
0000
0000
0000
0000
0000
0000
0100
0000
0000
0000
0000
0000
0000
0000
0000
0000
0000
0010
0000
0000
,
0000
0000
0000
1000
0000
0000
0000
0000
0001
0000
0000
0000
0010
0000
0000
0000
,
0100
1000
1000
0100
,
0001
0000
0101
0000
1000
0001
1000
0000
,
1000
0000
1010
0000
0100
0010
0100
0000
,
0001
0000
0010
0000
0100
1000
0100
0000
,
1000
0000
0100
0000
0010
0001
0010
0000
,
1100
0001
0010
0100
,
0011
1000
0001
1000
,
0100
1001
0010
1001
,
1000
0001
0100
0000
0010
0000
0100
0000
,
1000
0000
1100
0000
0001
1000
0001
0000
,
0001
0000
0011
0000
0100
0010
0100
0000
,
1000
0000
0010
0000
0100
0001
0100
0000
,
0001
0000
0100
0000
0010
1000
0010
0000
,
0101
1000
0010
0100
,
1010
0001
1000
0001
,
0100
1001
0010
1001
,
0001
1000
0100
0000
0010
0000
0100
0000
,
1010
0100
0001
0010
,
0101
0010
0100
0010
,
1001
0110
1001
0110
,
2002
0000
0000
0000
0000
3003
0000
0000
,
1000
0000
0001
1000
0000
0100
0010
1000
,
0001
0000
1000
0001
0000
0010
0100
0001
,
0100
0000
0010
1000
0000
0100
0001
1000
,
0010
0000
0100
0010
0001
1000
0001
0000
,
1000
0000
0000
0001
0000
0000
1000
0000
0000
0001
0000
0000
0000
0000
0000
0000
,
0000
0000
0000
0000
0000
0000
0010
0000
0100
0000
0000
1000
0000
0000
0100
0000
,
0010
0000
0001
1000
0000
0000
0000
0000
,
0000
0000
0000
0000
0000
0000
0100
0000
0010
0000
0000
0001
0000
0000
0010
0000
,
0100
0000
1000
0001
0000
0000
0000
0000
,
0000
0000
0000
0000
0000
0000
1000
0000
1000
0000
0000
0100
0000
0000
0010
0000
,
0000
0000
0000
0000
0000
0001
0000
0000
0000
0000
0000
0000
0000
0000
0000
0000
0000
0000
0000
0000
0000
0000
0000
0000
0000
0000
0000
0000
0000
0000
0000
0000
,
0000
0000
0000
0000
,
0001
0000
0000
1000
0000
0000
0001
0000
0000
1000
0000
0000
0000
0000
0000
0000
,
0000
0000
0000
0000
0000
0000
0010
0000
0100
0000
0000
0001
0000
0000
0100
0000
,
0010
0000
1000
0001
0000
0000
0000
0000
,
0000
0000
0000
0000
0000
0000
0100
0000
0010
0000
0000
1000
0000
0000
0010
0000
,
0100
0000
0001
1000
0000
0000
0000
0000
,
0000
0000
0000
0000
0001
0000
0000
0000
0010
0000
0000
1000
0000
0000
0100
0000
,
0000
0000
0000
1000
0000
0000
0000
0000
0001
0000
0000
0000
0010
0000
0000
0000
,
0100
1000
1000
0100
,
1000
0000
1010
0000
0001
1000
0001
0000
,
0001
0000
0101
0000
0010
0100
0010
0000
,
1000
0000
0100
0000
0010
0001
0010
0000
,
0001
0000
0010
0000
0100
1000
0100
0000
,
0011
1000
0100
0010
,
1100
0001
1000
0001
,
0010
1001
0100
1001
,
0001
1000
0010
0000
0100
0000
0010
0000
,
0001
0000
0011
0000
1000
0001
1000
0000
,
1000
0000
1100
0000
0010
0100
0010
0000
,
0001
0000
0100
0000
0010
1000
0010
0000
,
1000
0000
0010
0000
0100
0001
0100
0000
,
1010
0001
0100
0010
,
0101
1000
0001
1000
,
0010
1001
0100
1001
,
1000
0001
0010
0000
0100
0000
0010
0000
,
0001
0011
1000
1100
,
0010
1010
0100
0101
,
0110
1001
0110
1001
,
0220
0000
0000
0000
0000
0330
0000
0000
;
