#TITLE:Runnin' Down A Dream;
#SUBTITLE:;
#ARTIST:Tom Petty;
#TITLETRANSLIT:;
#SUBTITLETRANSLIT:;
#ARTISTTRANSLIT:;
#GENRE:;
#CREDIT:computerlife22;
#MUSIC:Runnin' Down A Dream.ogg;
#BANNER:Banner.png;
#BACKGROUND:Background.png;
#CDTITLE:;
#SAMPLESTART:37.245;
#SAMPLELENGTH:17.649;
#SELECTABLE:YES;
#OFFSET:-4.065;
#BPMS:0.000=169.986
,2.000=169.975
,3.000=169.986
,5.000=169.975
,6.000=169.986
,8.000=169.975
,9.000=169.986
,11.000=169.975
,12.000=169.986
,14.000=169.975
,15.000=169.986
,16.000=169.975
,17.000=169.986
,19.000=169.975
,20.000=169.986
,22.000=169.975
,23.000=169.986
,25.000=169.975
,26.000=169.986
,28.000=169.975
,29.000=169.986
,30.000=169.975
,31.000=169.986
,33.000=169.975
,34.000=169.986
,36.000=169.975
,37.000=169.986
,39.000=169.975
,40.000=169.986
,42.000=169.975
,43.000=169.986
,45.000=169.975
,46.000=169.986
,47.000=169.975
,48.000=169.986
,50.000=169.975
,51.000=169.986
,53.000=169.975
,54.000=169.986
,56.000=169.975
,57.000=169.986
,59.000=169.975
,60.000=169.986
,61.000=169.975
,62.000=169.986
,64.000=169.975
,65.000=169.986
,67.000=169.975
,68.000=169.986
,70.000=169.975
,71.000=169.986
,73.000=169.975
,74.000=169.986
,76.000=169.975
,77.000=169.986
,78.000=169.975
,79.000=169.986
,81.000=169.975
,82.000=169.986
,84.000=169.975
,85.000=169.986
,87.000=169.975
,88.000=169.986
,90.000=169.975
,91.000=169.986
,93.000=169.975
,94.000=169.986
,95.000=169.975
,96.000=169.986
,98.000=169.975
,99.000=169.986
,101.000=169.975
,102.000=169.986
,104.000=169.975
,105.000=169.986
,107.000=169.975
,108.000=169.986
,110.000=169.975
,111.000=169.986
,112.000=169.975
,113.000=169.986
,115.000=169.975
,116.000=169.986
,118.000=169.975
,119.000=169.986
,121.000=169.975
,122.000=169.986
,123.000=169.975
,124.000=169.986
,126.000=169.975
,127.000=169.986
,129.000=169.975
,130.000=169.986
,132.000=169.975
,133.000=169.986
,135.000=169.975
,136.000=169.986
,138.000=169.975
,139.000=169.986
,141.000=169.975
,142.000=169.986
,143.000=169.975
,144.000=169.986
,146.000=169.975
,147.000=169.986
,149.000=169.975
,150.000=169.986
,152.000=169.975
,153.000=169.986
,155.000=169.975
,156.000=169.986
,157.000=169.975
,158.000=169.986
,160.000=169.975
,161.000=169.986
,163.000=169.975
,164.000=169.986
,166.000=169.975
,167.000=169.986
,169.000=169.975
,170.000=169.986
,172.000=169.975
,173.000=169.986
,175.000=169.975
,176.000=169.986
,177.000=169.975
,178.000=169.986
,180.000=169.975
,181.000=169.986
,183.000=169.975
,184.000=169.986
,186.000=169.975
,187.000=169.986
,188.000=169.975
,189.000=169.986
,191.000=169.975
,192.000=169.986
,194.000=169.975
,195.000=169.986
,197.000=169.975
,198.000=169.986
,200.000=169.975
,201.000=169.986
,203.000=169.975
,204.000=169.986
,206.000=169.975
,207.000=169.986
,209.000=169.975
,210.000=169.986
,211.000=169.975
,212.000=169.986
,214.000=169.975
,215.000=169.986
,217.000=169.975
,218.000=169.986
,220.000=169.975
,221.000=169.986
,222.000=169.975
,223.000=169.986
,225.000=169.975
,226.000=169.986
,228.000=169.975
,229.000=169.986
,231.000=169.975
,232.000=169.986
,234.000=169.975
,235.000=169.986
,237.000=169.975
,238.000=169.986
,240.000=169.975
,241.000=169.986
,243.000=169.975
,244.000=169.986
,245.000=169.975
,246.000=169.986
,248.000=169.975
,249.000=169.986
,251.000=169.975
,252.000=169.986
,254.000=169.975
,255.000=169.986
,256.000=169.975
,257.000=169.986
,259.000=169.975
,260.000=169.986
,261.000=169.975
,262.000=169.986
,264.000=169.975
,265.000=169.986
,267.000=169.975
,268.000=169.986
,270.000=169.975
,271.000=169.986
,273.000=169.975
,274.000=169.986
,276.000=169.975
,277.000=169.986
,278.000=169.975
,279.000=169.986
,282.000=169.975
,283.000=169.986
,284.000=169.975
,285.000=169.986
,287.000=169.975
,288.000=169.986
,290.000=169.975
,291.000=169.986
,293.000=169.975
,294.000=169.986
,296.000=169.975
,297.000=169.986
,299.000=169.975
,300.000=169.986
,301.000=169.975
,302.000=251.784
;
#STOPS:;
#DISPLAYBPM:170.000;
#BGCHANGES:-11.100=BGVideo.mp4=1.000=1=0=1===CrossFade==;
#FGCHANGES:;

//--------------- dance-single - computerlife22 ----------------
#NOTES:
     dance-single:
     computerlife22:
     Easy:
     4:
     0,0,0,0,0:
0000
0000
0000
0000
,
0000
0000
0000
0000
,
0100
0001
0100
0000
,
1000
0100
1000
0000
,
0100
0010
0100
0000
,
1000
0001
1000
0000
,
0220
0000
0000
0000
,
0000
0000
0330
0000
,
0010
0001
0010
0000
,
1000
0100
0010
0000
,
0001
0010
0100
0000
,
0100
0100
0001
0010
,
1000
0100
0020
0000
,
0000
0030
0100
0010
,
0001
0000
0000
0000
,
0010
0010
0001
0001
,
0100
1000
0010
0000
,
0001
0100
0010
0000
,
1000
0010
0100
0000
,
0100
0100
1000
0001
,
1000
0100
0020
0000
,
0000
0030
0100
0010
,
1000
0000
0000
0000
,
0010
0100
0010
0100
,
2000
0000
0000
0000
3200
0000
0000
0020
,
0300
0000
0030
0000
,
0002
0000
0000
0000
2003
0000
0000
0200
,
3000
0000
0300
0000
,
0020
0000
0000
0000
2030
0000
0000
0002
,
3000
0000
0003
0000
,
0200
0000
0000
0000
0302
0000
0000
2000
,
0003
0000
3000
0000
,
2000
0000
3000
0000
0020
0000
0030
2002
,
0000
0000
0000
3003
,
0000
0010
0001
0010
,
0100
0000
0000
0000
,
0000
0000
0000
0000
,
0100
1000
0100
0000
,
0001
0010
0100
0000
,
1000
0100
0010
0000
,
0010
0010
1000
0100
,
0001
0010
0200
0000
,
0000
0300
0010
0100
,
1000
0000
0000
0000
,
0100
0100
1000
1000
,
0010
0001
0100
0000
,
1000
0010
0100
0000
,
0001
0010
0100
0000
,
0010
0010
0001
1000
,
0001
0010
0200
0000
,
0000
0300
0010
0100
,
0001
0000
0000
0000
,
0100
0010
0100
0010
,
0002
0000
0000
0000
0023
0000
0000
0200
,
0030
0000
0300
0000
,
2000
0000
0000
0000
3002
0000
0000
0020
,
0003
0000
0030
0000
,
0200
0000
0000
0000
0302
0000
0000
2000
,
0003
0000
3000
0000
,
0020
0000
0000
0000
2030
0000
0000
0002
,
3000
0000
0003
0000
,
0002
0000
0003
0000
0200
0000
0300
2002
,
0000
0000
0000
3003
,
0000
0000
1000
0100
,
0010
0100
0010
0100
,
0010
0100
1000
0001
,
2001
0000
0001
0000
,
0001
0000
3001
0000
,
0102
0000
0100
0000
,
0100
0000
0103
0000
,
1020
0000
1000
0000
,
1000
0000
1030
0000
,
0210
0000
0010
0000
,
0010
0000
0310
0000
,
2002
0000
0000
0000
,
3003
0000
0000
0000
;

//--------------- dance-single - computerlife22 ----------------
#NOTES:
     dance-single:
     computerlife22:
     Medium:
     6:
     0,0,0,0,0:
0000
0000
0000
0000
,
0000
0000
0000
0000
,
0100
0001
0100
0001
,
1000
0000
0100
0000
0001
0000
0010
0001
,
0010
1000
0010
1000
,
0001
0000
0010
0000
1000
0000
0100
1000
,
0220
0000
0000
0000
,
0000
0000
0000
0000
0330
1000
0100
1000
,
0100
0010
0001
0000
0010
0000
0000
0000
,
1000
0100
0010
0000
,
0001
0010
0100
0000
,
0100
0000
0100
0000
0001
0000
0010
1000
,
0001
0100
0010
0000
2000
0000
0000
0000
,
0000
0000
0100
0010
,
3001
0000
0000
0000
,
0010
0010
0001
0001
,
0100
1000
0010
0000
,
0001
0100
0010
0000
,
1000
0010
0100
0000
,
0100
0000
0100
0000
1000
0000
0001
1000
,
0100
0010
0100
0000
0002
0000
0000
0000
,
0000
0000
0100
0010
,
1003
0000
0000
0000
,
0010
0100
0010
0100
,
2000
0000
0000
0000
3200
0000
0000
0020
,
0300
0001
0130
1000
,
0002
0000
0000
0000
2003
0000
0000
0200
,
3000
0001
0310
1000
,
0020
0000
0000
0000
2030
0000
0000
0002
,
3000
1000
0103
0010
,
0200
0000
0000
0000
0302
0000
0000
2000
,
0003
0100
3010
0001
,
2000
0000
3000
0000
0020
0000
0030
2002
,
0000
0000
0000
3003
,
0000
0010
0001
0100
,
1000
0000
0000
0000
,
0000
0010
1000
0001
,
0100
1000
0010
0000
,
0001
0100
0010
0000
,
1000
0010
0100
0000
,
0011
0100
1000
0000
,
0001
0100
0020
0000
,
0000
0000
1000
0100
,
1030
0000
0000
0000
,
1000
0001
0010
1000
,
0100
0001
0010
0000
,
1000
0100
0010
0000
,
0001
0100
0010
0000
,
1100
0010
1000
0000
,
0100
0010
0002
0000
,
0000
0000
0100
1003
,
0010
0000
0000
0000
,
0010
0001
0100
1000
,
0022
0000
0000
0033
2020
0000
3030
0002
,
0000
0100
1003
0010
,
2000
0000
0000
0000
3002
0000
0000
0200
,
0003
0001
0310
0001
,
2000
0000
0000
0000
3020
0000
0000
0002
,
0030
1000
0103
0010
,
0002
0000
0000
0000
2003
0000
0000
0020
,
3000
0000
1000
0000
0130
0000
0001
1000
,
0200
0000
0000
0000
2300
0000
0000
3022
,
0000
0000
0000
0033
,
0100
0010
0010
0100
,
1000
0001
0000
0010
0001
0000
1000
0001
,
0000
0100
0001
0000
1000
0010
0100
0000
,
2001
0100
0010
0001
,
0010
0100
0010
3001
,
0102
0010
1000
0010
,
0100
0010
1000
0103
,
1020
0100
0001
0100
,
1000
0100
0001
0130
,
1200
0010
1000
0010
,
0001
1000
0001
0310
,
2000
3001
0020
0031
,
2002
3003
0000
0000
;

//--------------- dance-single - computerlife22 ----------------
#NOTES:
     dance-single:
     computerlife22:
     Hard:
     9:
     0,0,0,0,0:
0000
0000
0000
0000
,
0000
0000
0000
0000
,
0100
0101
0100
1100
,
1000
0001
1000
0000
1100
0000
1001
0000
,
1000
1010
0010
0011
,
0010
1000
0100
0000
0010
0001
0100
0000
,
0202
0000
0000
0000
,
0000
0000
0303
0000
0000
1000
0001
1000
,
0001
0010
0100
0000
1001
0000
0101
0000
,
1000
0010
0100
0000
1001
0000
1100
0000
,
0001
1000
0200
0310
,
1000
0000
0001
0000
0010
0100
1000
1000
,
0001
0001
0010
0000
0100
0000
0000
0000
,
0000
0000
0110
0101
,
2020
0000
0000
3030
,
0000
0100
0010
0100
1000
0100
0010
0001
,
1000
0010
1001
1010
,
0001
0010
1001
0011
,
1000
0001
0020
0130
,
0001
0000
1000
0000
0100
0010
0001
0001
,
1000
1000
0100
0000
0000
0000
0000
0000
,
0000
0000
0110
1010
,
0202
0000
0000
0303
,
0100
1000
0001
1000
,
1000
1100
0000
0000
0110
0000
0010
0011
,
0000
1000
0100
1000
0100
1000
0100
1000
,
0100
0000
0110
0000
0101
0000
1000
1100
,
0000
0001
0100
0001
0100
0001
0100
0001
,
1000
0000
1001
0000
1010
0000
0001
1001
,
0000
0010
0100
0010
0100
0010
1000
0001
,
1000
0000
1100
0000
0110
0000
0100
0101
,
0000
1000
0001
1000
0001
1000
0100
0010
,
0022
0000
0033
0000
0101
0000
0100
0220
,
0000
0000
0000
0330
,
0000
0000
0000
0000
,
0000
0000
0000
0000
,
0000
0000
0000
0000
0000
0001
1000
0001
,
1000
0010
0100
0000
1001
0000
1100
0000
,
0001
0010
0100
0000
1001
0000
0101
0000
,
1000
0001
0200
0310
,
0001
0000
1000
0000
0010
0100
0001
0001
,
1000
1000
0010
0000
0100
0000
0000
0000
,
0000
0000
0110
1100
,
0022
0000
0000
0033
,
0000
0100
0010
0100
0001
0100
0010
1000
,
0001
0010
1001
0011
,
1000
0010
1001
1010
,
0001
1000
0020
0130
,
1000
0000
0001
0000
0100
0010
1000
1000
,
0001
1000
0001
0000
0100
0000
0000
0000
,
0000
0000
0110
0011
,
2200
0000
0000
3300
,
0000
0000
0000
0001
,
0001
0101
0000
0000
0110
0000
0010
1010
,
0000
0001
0100
0001
0100
0001
0100
0001
,
0100
0000
0110
0000
1100
0000
0001
0101
,
0000
1000
0100
1000
0100
1000
0100
1000
,
0001
0000
1001
0000
0011
0000
1000
1001
,
0000
0010
0100
0010
0100
0010
0001
1000
,
0001
0000
0101
0000
0110
0000
0100
1100
,
0000
0001
1000
0001
1000
0001
0100
0010
,
2020
0000
3030
0000
1100
0000
0100
0220
,
0000
0000
0000
0330
,
1000
0100
0010
0100
0001
0100
0010
0100
,
0001
1000
1000
0010
1000
1000
0001
1000
,
1000
0100
1000
1000
0001
0010
0100
0010
,
2100
0000
0001
0000
0100
0000
0100
3000
,
0102
0000
1000
0000
0100
0000
0100
0003
,
1020
0000
0100
0000
1000
0000
0100
0030
,
0201
0000
0010
0000
0001
0000
0010
0300
,
2000
0000
0001
3000
0010
0100
0010
0000
,
0002
0000
1003
0000
0100
0010
0100
0000
,
0020
0000
1030
0000
0001
0100
0001
0000
,
0200
0000
0301
0000
1000
0010
1000
0000
,
0002
0013
2000
3010
,
2002
3003
0000
0000
;
