#VERSION:0.83;
#TITLE:HOT TO GO!;
#SUBTITLE:;
#ARTIST:Chappell Roan;
#TITLETRANSLIT:;
#SUBTITLETRANSLIT:;
#ARTISTTRANSLIT:;
#GENRE:;
#CREDIT:;
#MUSIC:song.ogg;
#BANNER:banner.png;
#BACKGROUND:background.jpg;
#JACKET:;
#DISCIMAGE:;
#CDIMAGE:;
#SELECTABLE:YES;
#LYRICSPATH:;
#CDTITLE:;
#SAMPLESTART:0.000000;
#SAMPLELENGTH:10.000000;
#OFFSET:-0.131368;
#BPMS:0.000=140.000;
#STOPS:;
#WARPS:;
#DELAYS:;
#SPEEDS:0.000=1.000=0.000=0;
#SCROLLS:0.000=1.000;
#TICKCOUNTS:0.000=4;
#TIMESIGNATURES:0.000=4=4;
#LABELS:0.000=Song Start;
#COMBOS:0.000=1;
#FAKES:;
#BGCHANGES:-7.7=video_sm.mp4=1.000=0=0=1=====,
99999=-nosongbg-=1.000=0=0=0=====
;
#FGCHANGES:;
#ATTACKS:;
#TAGS:;
#PREVIEWVID:;
#KEYSOUNDS:;

//---------------dance-single - ---------------
#NOTEDATA:;
#CHARTNAME: ;
#CHARTSTYLE:;
#CREDIT:computerlife22;
#STEPSTYPE:dance-single;
#DESCRIPTION:;
#DIFFICULTY:Hard;
#METER:10;
#METERF:10;
#RADARVALUES:0.287762,0.296701,0.265455,0.109305,0.039037,258.000000,224.000000,34.000000,14.000000,0.000000,0.000000,0.000000,0.000000,0.000000,0.287762,0.296701,0.265455,0.109305,0.039037,258.000000,224.000000,34.000000,14.000000,0.000000,0.000000,0.000000,0.000000,0.000000;
#CHARTHASH:2147483647;
#BANNER:;
#LASTSECONDHINT:71.917084;
#NOTES:
// measure 0
0000
0000
0000
0000
,  // measure 1
0000
0000
0000
0000
,  // measure 2
0000
0000
0000
0000
,  // measure 3
0010
0001
0010
0001
,  // measure 4
1000
0010
0100
0001
,  // measure 5
0010
1000
0010
1000
,  // measure 6
0010
0001
0100
1000
,  // measure 7
0010
0001
0010
0001
,  // measure 8
0010
0000
0001
0000
0100
0000
1000
0001
,  // measure 9
0000
0000
1000
0000
1000
0010
0100
0000
,  // measure 10
0001
0000
0001
0000
1000
0010
0100
0001
,  // measure 11
0000
0000
1000
0000
1000
0010
0100
0000
,  // measure 12
0001
0000
0001
0000
0010
0100
1000
0001
,  // measure 13
0000
1000
0100
0010
0100
0000
1000
0010
,  // measure 14
1010
0000
0110
0000
0101
0001
0000
1000
,  // measure 15
0000
0010
0100
0010
1000
0000
0100
0010
,  // measure 16
0011
0000
0110
0000
1100
1000
0000
0001
,  // measure 17
0000
0010
0001
0010
0001
0000
0011
0000
,  // measure 18
0220
0330
0000
0011
0000
0000
1000
0010
,  // measure 19
0000
0010
1000
0010
1000
0000
1010
0000
,  // measure 20
0220
0330
0000
1010
0000
1000
1000
1000
,  // measure 21
0001
0010
0001
0010
0100
0000
0010
0000
,  // measure 22
2002
3003
0000
0101
0000
0000
0100
0100
,  // measure 23
0010
1000
0010
1000
0000
0001
0000
0010
,  // measure 24
0000
0001
0010
0001
0000
1000
0000
0000
,  // measure 25
0010
1000
0100
1000
0010
1000
0100
0000
,  // measure 26
0010
0001
0100
0001
0010
1000
0100
0000
,  // measure 27
0001
0100
0001
0010
0100
1000
0010
0000
,  // measure 28
1000
0100
1000
0010
0001
0100
1000
0000
,  // measure 29
0010
1000
0100
1000
0010
1000
0100
0000
,  // measure 30
0010
0001
0100
0001
0010
1000
0100
0000
,  // measure 31
0001
0100
0001
0010
0100
1000
0010
0000
,  // measure 32
1000
0100
1000
0010
0001
0100
1000
0000
,  // measure 33
1001
0011
0110
0110
,  // measure 34
0022
0000
0033
1000
0001
1000
0000
0000
,  // measure 35
1100
1001
1010
0110
,  // measure 36
0202
0000
0303
0001
1000
0100
0000
0000
,  // measure 37
1001
1010
0110
0110
,  // measure 38
2020
0000
3030
0001
1000
0001
0000
0000
,  // measure 39
0101
1001
0011
0110
,  // measure 40
2200
0000
3300
1000
0001
0100
0000
0000
,  // measure 41
0000
0000
0000
0000
0000
0000
0001
0000
0010
0000
0000
0000
0001
0000
0000
0000
0000
0000
1000
0000
0000
0001
0000
0000
0000
0000
0000
1000
0000
0000
0000
0000
0000
0000
0000
0000
0001
0000
0000
0000
0000
0000
0001
0000
0000
0000
0000
0000
,  // measure 42
0000
0000
0000
0000
0000
0000
1000
0000
0010
0000
0000
0000
1000
0000
0000
0000
0000
0000
0001
0000
0000
1000
0000
0000
0000
0000
0000
0001
0000
0000
0000
0000
0000
0000
0000
0000
1000
0000
0000
0000
0000
0000
0000
0000
0000
0000
0000
0000
,  // measure 43
0000
0000
0000
0000
0000
0000
0010
0000
0000
1000
0000
0000
0010
0000
0000
0000
0000
0000
1000
0000
0000
0000
0000
0000
0001
0000
0000
0000
0000
0000
0100
0000
0000
0000
0010
0000
0000
0000
0000
0000
0000
0000
0100
0000
0000
0000
0000
0000
,  // measure 44
0000
0000
0000
0000
0000
0000
0010
0000
0000
1000
0000
0000
0010
0000
0000
0000
0000
0000
1000
0000
0000
0000
0000
0000
0001
0000
0000
0000
0000
0000
0100
0000
0000
0000
0010
0000
0000
0000
0000
0000
0000
0000
0000
0000
0000
0000
0000
0000
,  // measure 45
0000
0000
0000
0000
0000
0000
1000
0000
0010
0000
0000
0000
1000
0000
0000
0000
0000
0000
0001
0000
0000
1000
0000
0000
0000
0000
0000
0001
0000
0000
0000
0000
0000
0000
0000
0000
1000
0000
0000
0000
0000
0000
1000
0000
0000
0000
0000
0000
,  // measure 46
0000
0000
0000
0001
0010
0000
0001
0000
0000
1000
0000
0000
0001
0000
1000
0000
0000
0000
0001
0000
0000
0000
0000
0000
,  // measure 47
0000
0000
0000
0000
0000
0000
0010
0000
0000
0001
0000
0000
0010
0000
0000
0000
0000
0000
0001
0000
0000
0000
0000
0000
1000
0000
0000
0000
0000
0000
0100
0000
0000
0000
0010
0000
0000
0000
0000
0000
0000
0000
0100
0000
0000
0000
0000
0000
,  // measure 48
0000
0000
0010
0001
0010
0000
0001
0000
1000
0000
0000
0000
0100
0000
0000
0000
,  // measure 49
1001
0011
0110
0110
,  // measure 50
0022
0000
0033
1000
0001
1000
0000
0000
,  // measure 51
1100
1001
1010
0110
,  // measure 52
0202
0000
0303
0001
1000
0100
0000
0000
,  // measure 53
1001
1010
0110
0110
,  // measure 54
2020
0000
3030
0001
1000
0001
0000
0000
,  // measure 55
0101
1001
0011
0110
,  // measure 56
2200
0000
3300
1000
0001
0100
0000
0000
,  // measure 57
1001
1010
0110
0110
,  // measure 58
2020
0000
3030
0001
1000
0001
0000
0000
,  // measure 59
0101
1001
0011
0110
,  // measure 60
2200
0000
3300
1000
0001
0100
0000
0000
,  // measure 61
1001
0011
0110
0110
,  // measure 62
0022
0000
0033
1000
0001
1000
0000
0000
,  // measure 63
1100
1001
1010
0110
,  // measure 64
0202
0000
0303
0001
1000
0100
0000
0000
;
