#TITLE:~Timeless~;
#SUBTITLE:;
#ARTIST:TAG NEXT MORE;
#TITLETRANSLIT:Timeless;
#SUBTITLETRANSLIT:;
#ARTISTTRANSLIT:;
#CREDIT:Chewi☆;
#BANNER:~Timeless~.png;
#BACKGROUND:~Timeless~-bg.png;
#LYRICSPATH:;
#CDTITLE:;
#MUSIC:~Timeless~.mp3;
#OFFSET:-0.525;
#SAMPLESTART:57.205;
#SAMPLELENGTH:15.000;
#SELECTABLE:YES;
#DISPLAYBPM:144.000;
#BPMS:0.000=144.000;
#STOPS:;
#BGCHANGES:;

//---------------dance-single - Chewi----------------
#NOTES:
     dance-single:
     Chewi:
     Hard:
     11:
     0.490,0.479,0.105,0.084,0.094: // measure 1
0000
0000
0000
0000
,  // measure 2
0000
0000
0000
0000
,  // measure 3
0000
0000
0000
0000
,  // measure 4
0000
0000
0000
0000
,  // measure 5
1000
0000
0100
0000
0010
0001
0010
0000
,  // measure 6
1000
0000
0010
0000
0100
0001
0100
0000
,  // measure 7
1000
0001
1000
0001
1000
0001
1000
0001
,  // measure 8
1000
0000
0000
0001
0000
0000
1000
0000
0000
0001
0000
0000
1001
0000
1000
0000
,  // measure 9
1000
1000
0100
0100
0010
0010
0001
0001
,  // measure 10
0010
0010
1000
1000
0100
0100
0001
0001
,  // measure 11
0010
0000
0100
0000
0010
1000
0001
0000
,  // measure 12
1000
0000
0100
0000
0010
0001
1000
0000
,  // measure 13
0010
0000
0101
0000
0001
1000
0100
0000
,  // measure 14
0100
0000
0110
0000
0010
0100
1000
0000
,  // measure 15
0010
0000
1000
0000
0001
1000
0100
0000
,  // measure 16
0010
0000
0100
0000
1000
0001
0100
0000
,  // measure 17
0010
0001
0010
0000
0001
0100
0001
0000
,  // measure 18
0100
1000
0100
0000
1000
0010
1000
0000
,  // measure 19
0010
0000
0010
0000
0010
0100
0101
0000
,  // measure 20
0010
0000
0010
0000
0010
0100
1100
0000
,  // measure 21
0001
1000
0100
0000
1000
0000
1100
0000
,  // measure 22
1000
0001
0100
0000
0001
0000
0101
0000
,  // measure 23
0200
0000
0310
0000
1000
1000
0001
0000
,  // measure 24
0020
0000
0130
0000
1000
1000
0010
0000
,  // measure 25
1000
0100
1000
0000
0001
0010
0001
0000
,  // measure 26
0001
0100
0001
0000
1000
0100
1000
0010
,  // measure 27
1000
0000
0100
0000
0000
0000
0000
0000
0000
0000
0000
0000
0010
0000
0000
0001
,  // measure 28
0000
0000
0000
0000
0001
0000
1000
0000
0001
0000
0001
1000
0001
0000
1000
0000
,  // measure 29
0010
1000
0100
0000
0010
0001
0100
0000
,  // measure 30
0010
0000
0000
0010
1000
0000
0000
0000
1000
0000
0000
1000
0001
0000
0000
0000
,  // measure 31
1000
0100
1000
0000
0100
0001
0100
0000
,  // measure 32
0001
0010
0001
0000
0010
1000
0010
0000
,  // measure 33
1000
0010
1000
0010
1000
0001
1000
0001
,  // measure 34
0002
0203
0320
2030
,  // measure 35
3001
0100
1000
1000
1000
0100
0001
0001
,  // measure 36
1000
1100
0010
0011
,  // measure 37
1000
0100
1000
0000
0001
0100
0001
0000
,  // measure 38
0100
0010
1000
0000
0010
0100
0001
0000
,  // measure 39
1000
0000
0000
1000
0100
0000
0000
0100
0010
0000
0000
0010
0001
0000
0000
0001
,  // measure 40
0010
0000
0000
0010
0100
0000
0000
0100
1000
0000
0000
1000
0100
0000
0000
0100
,  // measure 41
1000
0100
1000
0100
0010
0100
0010
0100
,  // measure 42
0001
0000
0000
0010
0000
0000
0001
0000
0000
0010
0000
0000
0011
0000
0010
0000
,  // measure 43
0001
0100
0001
0100
0010
1000
0010
1000
,  // measure 44
1000
0100
0010
0001
0001
0100
0010
1000
,  // measure 45
1000
0100
1000
0010
0100
0010
0100
0001
,  // measure 46
0000
2000
0002
0000
0000
0000
3003
0000
,  // measure 47
0001
0100
0010
1000
0001
0100
0010
1000
,  // measure 48
0001
0010
0100
1000
0010
1000
0100
1000
,  // measure 49
1000
1000
0100
0100
0010
0010
0001
0001
,  // measure 50
0010
0000
0000
0001
0000
0000
1000
0000
0000
0010
0000
0000
0100
0000
0100
0000
,  // measure 51
0100
0001
0010
0100
0001
0010
0000
0010
,  // measure 52
0100
1000
0100
1000
0000
1000
0001
1000
,  // measure 53
0001
0010
0000
0100
0010
0001
0100
0010
,  // measure 54
0000
1000
0010
0100
0001
0010
0100
1000
;

//---------------dance-single - Chewi----------------
#NOTES:
     dance-single:
     Chewi:
     Medium:
     6:
     0.326,0.394,0.178,0.063,0.000:
0000
0000
0000
0000
,
0000
0000
0000
0000
,
0000
0000
0000
0000
,
0000
0000
0000
0000
,
1100
0001
0010
0000
,
0101
1000
0010
0000
,
1000
1000
0010
0010
,
0100
0100
0100
0000
0001
0001
0001
0000
,
0002
1000
0010
1000
,
0100
0100
0010
0013
,
0001
0010
0001
0010
,
0100
1000
0100
1000
,
0001
1000
0001
1000
,
0010
0100
0010
0100
,
0001
0100
1000
0100
,
0001
0010
1000
0010
,
0100
0010
1000
0001
,
0010
0100
1000
0001
,
1000
0100
0001
0010
,
1000
0010
0001
0100
,
1000
0100
0010
0001
,
1000
0010
0100
0001
,
1000
0000
1000
0000
1000
0001
1000
0000
,
0001
0000
0001
0000
0001
1000
0001
0000
,
1000
0010
0001
0100
,
1000
0010
0001
0100
,
1000
0000
0010
0100
,
0101
0000
0001
1001
,
1000
0100
0010
0010
,
0001
0010
0100
0100
,
1000
1000
1000
0000
0001
0000
1000
0000
,
0001
0100
0010
1000
,
0010
0010
0010
0000
0100
0000
0001
0000
,
1001
0011
1001
1010
,
0010
0100
0010
0100
,
0001
1000
0001
0000
,
1000
1100
0001
0101
,
1000
0010
0100
0001
,
0001
0010
0100
0001
,
0010
1000
0100
0010
,
1000
1000
1000
0000
0100
0100
0100
0000
,
0010
0011
0100
0101
,
0001
0100
1000
0000
0010
0000
1000
0000
,
1000
0100
0001
0000
0010
0000
0001
0000
,
0010
0100
0010
1001
,
0100
0010
0100
1001
,
1000
0100
0001
0100
,
1000
0010
0001
0010
,
0100
0010
0100
0000
0100
0100
0100
0000
,
1000
1100
0001
0101
,
0220
0000
0000
0300
,
2000
0000
0000
0030
,
0002
0000
0000
3000
,
0020
0000
0000
0000
0000
0000
0000
0033
;

//---------------dance-single - Chewi----------------
#NOTES:
     dance-single:
     Chewi:
     Easy:
     4:
     0.197,0.254,0.073,0.084,0.000:
0000
0000
0000
0000
,
0000
0000
0000
0000
,
0000
0000
0000
0000
,
0000
0000
0000
0000
,
1000
0100
0001
0000
,
0001
0100
1000
0000
,
2002
0000
0000
0000
,
0000
0000
0000
3003
,
1000
0001
1000
0001
,
1000
0001
1000
0001
,
1000
0000
0100
0000
,
0001
0000
0010
0000
,
1000
0000
0100
0000
,
0001
0000
0010
0000
,
0001
0000
0100
0000
,
1000
0000
0010
0000
,
0001
0000
0100
0000
,
1000
0000
0010
0000
,
0100
0100
0100
0000
,
0010
0000
0110
0000
,
0010
0010
0010
0000
,
1000
0000
1001
0000
,
0001
0000
0010
0000
,
0100
0000
0001
0000
,
0010
0000
1000
0000
,
0100
0000
0010
0000
,
1010
0000
0000
0000
,
1001
0000
0000
0000
,
0101
0000
0000
0000
,
1001
0000
0000
0000
,
0001
0100
1000
0010
,
1000
0000
1000
0000
,
1000
0100
0001
0010
,
0001
0000
0001
0000
,
2000
3000
2000
3000
,
1000
1000
1000
0000
,
0002
0003
0002
0003
,
0001
0001
0001
0000
,
0100
0000
0010
0000
,
0100
0000
0010
0000
,
1000
0000
0001
0000
,
1000
0000
0001
0000
,
0001
0001
0001
0001
,
0001
0001
0001
0001
,
1000
1000
1000
1000
,
1000
1000
1000
1000
,
0010
0010
0010
0010
,
0010
0010
0010
0010
,
0100
0100
0100
0100
,
0100
0100
0100
0100
,
0002
0000
0000
0000
,
0000
0000
0000
0003
,
2000
0000
0000
0000
,
0000
0000
0000
0000
0000
0000
0000
3000
;

//---------------dance-single - Chewi----------------
#NOTES:
     dance-single:
     Chewi:
     Beginner:
     2:
     0.096,0.169,0.042,0.052,0.000:
0000
0000
0000
0000
,
0000
0000
0000
0000
,
0000
0000
0000
0000
,
0000
0000
0000
0000
,
1000
0000
0000
0000
,
0001
0000
0000
0000
,
2000
0000
0000
0000
,
0000
0000
0000
3000
,
1000
0000
0000
0000
,
0001
0000
0000
0000
,
1000
0000
0000
0000
,
0001
0000
0000
0000
,
1000
0000
0000
0000
,
0001
0000
0000
0000
,
0001
0000
0000
0000
,
1000
0000
0000
0000
,
0001
0000
0000
0000
,
1000
0000
0000
0000
,
0100
0000
0000
0000
,
0010
0000
0000
0000
,
0010
0000
0000
0000
,
1000
0000
0000
0000
,
0001
0000
0000
0000
,
0100
0000
0000
0000
,
0010
0000
0000
0000
,
0100
0000
0000
0000
,
0110
0000
0000
0000
,
1001
0000
0000
0000
,
0110
0000
0000
0000
,
1001
0000
0000
0000
,
0001
0000
0000
0000
,
1000
0000
0000
0000
,
1000
0000
0000
0000
,
0001
0000
0000
0000
,
2000
0000
0000
3000
,
1000
0000
0000
0000
,
0002
0000
0000
0003
,
0001
0000
0000
0000
,
0100
0000
0000
0000
,
0010
0000
0000
0000
,
1000
0000
0000
0000
,
0001
0000
0000
0000
,
0001
0000
0001
0000
,
0001
0000
0001
0000
,
1000
0000
1000
0000
,
1000
0000
1000
0000
,
0010
0000
0010
0000
,
0010
0000
0010
0000
,
0100
0000
0100
0000
,
0100
0000
0100
0000
,
0002
0000
0000
0000
,
0000
0000
0000
0003
,
2000
0000
0000
0000
,
0000
0000
0000
3000
;
