#MENUCOLOR:;
#METERTYPE:DDR X;
#TITLE:wish;
#SUBTITLE:;
#ARTIST:DJ YOSHITAKA feat. 杉村ことみ;
#TITLETRANSLIT:;
#SUBTITLETRANSLIT:;
#ARTISTTRANSLIT:DJ YOSHITAKA feat. SUGIMURA KOTOMI;
#CREDIT:Chewi☆;
#BANNER:wish.png;
#BACKGROUND:wish-bg.png;
#LYRICSPATH:;
#CDTITLE:;
#MUSIC:wish.mp3;
#OFFSET:-0.458;
#SAMPLESTART:58.289;
#SAMPLELENGTH:15.000;
#SELECTABLE:YES;
#DISPLAYBPM:115.000;
#BPMS:0.000=115.020;
#STOPS:;
#BGCHANGES:;

//---------------dance-single - Chewi----------------
#NOTES:
     dance-single:
     Chewi:
     Beginner:
     1:
     0.116,0.159,0.026,0.122,0.000:
0000
0000
0000
0000
,
0000
0000
0000
0000
,
0000
0000
0000
0000
,
0000
0000
0000
0000
,
1000
0000
0000
0000
,
0100
0000
0000
0000
,
0010
0000
0000
0000
,
0001
0001
0001
0000
,
0001
0000
0000
0000
,
0100
0000
0000
0000
,
0010
0000
0000
0000
,
1000
1000
1000
0000
,
0000
0000
0000
0000
,
1000
0000
1000
0000
,
0001
0000
0001
0000
,
0010
0010
0010
0000
,
0010
0000
0010
0000
,
0100
0000
0100
0000
,
1000
0000
1000
0000
,
0001
0001
0001
0000
,
0002
0000
0000
0003
,
0001
0000
0000
0000
,
2000
0000
0000
3000
,
1000
0000
0000
0000
,
0020
0000
0000
0030
,
0010
0000
0000
0000
,
0200
0000
0000
0300
,
0100
0100
0100
0000
,
0110
0000
0000
0000
,
0010
0000
0000
0000
,
0010
0000
0000
0000
,
0010
0010
0010
0000
,
1001
0000
0000
0000
,
1000
0000
0000
0000
,
0001
0000
0000
0000
,
1000
0000
0010
0010
,
0020
0000
0000
0030
,
0010
0000
0100
0000
,
0200
0000
0000
0300
,
0100
0100
0100
0000
,
2000
0000
0000
3000
,
1000
0000
0000
0000
,
0002
0000
0000
0003
,
0001
0001
0001
0000
,
0200
0000
0000
0300
,
0200
0000
0000
0300
,
0020
0000
0000
0030
,
0010
0010
0010
0000
,
2000
0000
0000
3000
,
2000
0000
0000
3000
,
0002
0000
0000
0003
,
0001
0001
0001
0000
,
0000
1001
0000
0000
;

//---------------dance-single - Chewi----------------
#NOTES:
     dance-single:
     Chewi:
     Easy:
     3:
     0.185,0.228,0.061,0.279,0.000:
0000
0000
0000
0000
,
0000
0000
0000
0000
,
0000
0000
0000
0000
,
0000
0000
0000
0000
,
2000
0000
0000
3000
,
0200
0000
0000
0300
,
0002
0000
0000
0003
,
0100
0100
0100
0000
,
0002
0000
0000
0003
,
0020
0000
0000
0030
,
2000
0000
0000
3000
,
0010
0010
0010
0000
,
0000
0000
0000
0000
,
1000
0100
1000
0000
,
0001
0000
1000
0000
,
0020
0230
0320
0030
,
0001
0100
0001
0000
,
1000
0100
1000
0000
,
0001
1000
0001
0000
,
0200
0320
0230
0300
,
0020
0000
0000
0030
,
2000
0000
0000
3000
,
0200
0000
0000
0300
,
0002
0000
0000
0003
,
0020
0000
0000
0030
,
0002
0000
0000
0003
,
0200
0000
0000
0300
,
1000
1001
1000
0000
,
2000
0000
0010
0000
,
3002
0000
0010
0000
,
2003
0000
0100
0000
,
3001
1001
1000
0000
,
0002
0000
0100
0000
,
2003
0000
0100
0000
,
3002
0000
0010
0000
,
2000
3003
0001
1001
,
1000
1000
1000
1000
,
0100
0100
0100
0100
,
0010
0010
0010
0010
,
0001
1001
1000
0000
,
0001
0001
0001
0001
,
0100
0100
0100
0100
,
0010
0010
0010
0010
,
1000
1001
1000
0000
,
0002
0000
1000
0000
,
2003
0000
0001
0000
,
3020
0000
0100
0000
,
0130
0110
0010
0000
,
0020
0000
1000
0000
,
2030
0000
0001
0000
,
3002
0000
0010
0000
,
0013
1000
0100
0001
,
0000
1001
0000
0000
;

//---------------dance-single - Chewi----------------
#NOTES:
     dance-single:
     Chewi:
     Medium:
     6:
     0.253,0.319,0.209,0.218,0.000:
0000
0000
0000
0000
,
0000
0000
0000
0000
,
0000
0000
0000
0000
,
0000
0000
0000
0000
,
1000
0100
0010
1000
,
1000
0100
0001
0100
,
0001
0010
0100
0001
,
0001
0011
1010
0011
,
1000
0100
0010
1000
,
1000
0010
0001
0010
,
0001
0100
0010
0001
,
0001
0101
1100
0101
,
0000
0000
0000
0000
,
0100
0000
0000
0100
0000
0000
0100
0000
,
0010
0000
0000
0010
0000
0000
0010
0000
,
0010
1001
1001
0100
,
0010
0000
0000
0010
0000
0000
0001
0000
,
0001
0000
0000
0001
0000
0000
0001
0000
,
1000
0000
0000
1000
0000
0000
1000
0000
,
1000
1001
1001
0001
,
0200
0000
0000
0001
,
0302
0000
0010
1000
,
0023
0000
0001
0001
,
0032
0000
0100
1000
,
2003
0000
0000
0010
,
3020
0000
0100
1000
,
0230
0000
0000
0301
,
0001
0000
1100
0000
0101
0000
1000
0001
,
2000
0000
0000
0010
,
3020
0000
0000
0001
,
0032
0000
0000
0000
,
0103
0110
1001
1000
,
0020
0000
0000
1000
,
2030
0000
0000
0100
,
3200
0000
0000
0001
,
0301
0000
1010
0011
,
1000
0100
1000
0100
1000
0000
0100
0000
,
0001
0100
0001
0100
0001
0000
0100
0000
,
0010
0100
0010
0100
0010
0000
0100
0000
,
0120
1000
0200
0330
,
0010
1000
0010
1000
0010
0000
1000
0000
,
0001
1000
0001
1000
0001
0000
0010
0000
,
0100
0010
0100
0010
0100
0000
0010
0000
,
0012
1000
0200
0303
,
0202
0000
0000
0003
,
0000
0020
0000
0000
0000
0000
0300
0000
,
0000
2000
0000
0000
0000
0000
3030
0000
,
1000
1100
0101
0001
,
2200
0000
0000
3000
,
2000
0000
0000
0300
,
0020
0000
0000
3030
,
0010
0101
1010
0100
,
0000
0001
1000
0000
0000
0000
0000
0000
;

//---------------dance-single - Chewi----------------
#NOTES:
     dance-single:
     Chewi:
     Hard:
     10:
     0.435,0.438,0.374,0.096,0.122:
0000
0000
0000
0000
,
0000
0000
0000
0000
,
0000
0000
0000
0000
,
0000
0000
0000
0000
,
1000
0100
1000
0000
0001
0000
0100
0000
0010
0000
1000
0000
0001
0000
0000
0000
,
0010
0001
0010
0000
0100
0000
1000
0000
2002
0000
0000
0000
3003
0000
0000
0000
,
1000
0010
0100
0000
0001
0000
0100
0000
0010
0000
1000
0000
0001
0000
0000
0000
,
0011
1100
0011
0101
,
0001
0100
0010
0000
1000
0000
0001
0000
0010
0000
0100
0000
0100
0000
0000
0000
,
0010
0001
0100
0000
0010
0000
1000
0000
2002
0000
0000
0000
3003
0000
0000
0000
,
1000
0010
0100
0000
0001
0000
0010
0000
0100
0000
1000
0000
0001
0000
0000
0000
,
1100
0000
0011
0000
1010
0000
0101
0200
,
0000
0010
0020
0000
0000
0000
0330
0000
,
1000
0000
0000
0100
0000
0000
0010
0000
0001
0000
1000
0000
0100
0000
1000
0000
,
0001
0000
0000
0100
0000
0000
0010
0000
1000
0000
0001
0000
0010
0000
0001
0000
,
0011
0101
1100
1010
,
0010
0000
0000
0100
0000
0000
0001
0000
0000
0000
0100
0000
0010
0000
1000
0000
,
0001
0000
0000
1000
0000
0000
0100
0000
0000
0000
0001
0000
0010
0000
0100
0000
,
0001
0000
0000
0001
0000
0000
0001
0000
0000
0000
0001
0000
0010
0000
0100
0000
,
1001
1100
1010
0101
,
0001
0010
0100
1000
0010
0100
0010
0000
,
1000
0010
0001
0010
1000
0100
0001
0100
,
1000
0100
0010
0001
0100
0010
0010
0000
,
0010
0100
0001
1000
0100
0010
0001
1000
,
0200
0000
0001
0000
1000
1000
1300
0000
,
0020
1000
0001
1030
,
0020
0000
1000
0000
0100
0100
0130
0000
,
1100
0000
0000
0000
0011
0000
0000
0000
1100
0000
0000
0000
0001
0010
0100
1000
,
0010
0000
0000
0100
0000
0000
0010
0000
0000
0000
0100
0000
0001
0000
0000
0000
,
0010
0000
0000
0100
0000
0000
1000
0000
0000
0000
0010
0000
0010
0000
0000
0000
,
0100
0000
0000
0001
0000
0000
0100
0000
0000
0000
0010
0000
1000
0000
0000
0000
,
1100
0101
0011
1010
,
1000
0000
0000
0010
0000
0000
0100
0000
0000
0000
0001
0000
1000
0000
0100
0000
,
0010
0000
0000
0100
0000
0000
1000
0000
0000
0000
0010
0000
0100
0000
0001
0000
,
0100
0000
0000
0010
0000
0000
1000
0000
0000
0000
0001
0000
0010
0000
0100
0000
,
1100
0000
0000
0000
0000
0000
0000
0000
0000
0000
0000
0000
1000
0000
0100
0000
0000
0010
0001
0000
0000
0000
0000
0000
,
0001
0010
0100
1000
0100
1000
0100
1000
,
1000
0100
0010
0001
0010
0001
0010
0001
,
0001
1000
0010
0100
0001
1000
0100
0010
,
0110
0000
0000
0000
0011
0000
0000
0000
0101
0000
0100
0000
0000
0000
0010
0100
,
0010
1000
0100
1000
0010
0010
0010
0010
,
0010
0100
0001
0010
0001
0001
0001
0001
,
0010
0100
1000
0010
0100
0100
0100
0100
,
0110
0000
0000
0000
1010
0000
0000
0000
0011
0000
0000
0000
0001
0010
0100
1000
,
0100
0000
0000
1000
0000
0000
0010
0000
0100
0000
0001
0000
0001
0000
0000
0000
,
0000
1000
0010
0000
0100
1000
0010
0000
,
0100
0010
0000
1000
1000
0001
0010
0100
,
1100
0101
0011
1010
,
1010
0000
0000
0100
0000
0000
0101
0000
0000
0000
0001
0000
0010
0000
0100
0000
,
1000
0000
0000
0001
0000
0000
0100
0000
0000
0000
0010
0000
0100
0000
0001
0000
,
0011
0000
0000
0100
0000
0000
1000
0000
0000
0000
0010
0000
1000
0000
0100
0000
,
0110
0000
1100
0000
0110
0000
0011
2000
,
0000
0001
0002
0000
0000
0000
0000
0000
,
3003
0000
0000
0000
;

//---------------dance-double - Chewi----------------
#NOTES:
     dance-double:
     Chewi:
     Hard:
     10:
     0.443,0.462,0.313,0.035,0.131: // measure 1
00000000
00000000
00000000
00000000
,  // measure 2
00000000
00000000
00000000
00000000
,  // measure 3
00000000
00000000
00000000
00000000
,  // measure 4
00000000
00000000
00000000
00000000
,  // measure 5
10000000
01000000
10000000
00000000
01000000
00000000
00100000
00000000
00010000
00000000
01000000
00000000
00100000
00000000
00000000
00000000
,  // measure 6
01000000
00010000
01000000
00000000
00010000
00000000
00100000
00000000
02000000
00000000
00000000
00000000
03000000
00000000
00000000
00000000
,  // measure 7
00100000
00010000
00100000
00000000
00010000
00000000
00100000
00000000
00001000
00000000
00010000
00000000
00000100
00000000
00000000
00000000
,  // measure 8
00001100
00000110
00000011
00001001
,  // measure 9
00000001
00000100
00000001
00000000
00000100
00000000
00000010
00000000
00001000
00000000
00000001
00000000
00001000
00000000
00000000
00000000
,  // measure 10
00000100
00001000
00000010
00000000
00001000
00000000
00000100
00000000
00020000
00000000
00000000
00000000
00030000
00000000
00000000
00000000
,  // measure 11
00001000
00010000
00001000
00000000
00010000
00000000
01000000
00000000
10000000
00000000
00100000
00000000
10000000
00000000
00000000
00000000
,  // measure 12
10010000
00000000
01100000
00000000
00110000
00000000
01100000
10000000
,  // measure 13
00000000
01000000
00010000
00100000
01000000
10000000
00100000
01000000
,  // measure 14
00010000
00000000
00000000
00010000
00000000
00000000
00010000
00000000
00100000
00000000
01000000
00000000
00100000
00000000
00010000
00000000
,  // measure 15
01000000
00000000
00000000
00001000
00000000
00000000
00010000
00000000
00000000
00000000
00010000
00000000
00001000
00000000
00000010
00000000
,  // measure 16
00001010
00001001
00000101
00001001
,  // measure 17
00000001
00000010
00000001
00000100
00000000
00000010
00000010
00001000
,  // measure 18
00000100
00001000
00000010
00001000
00000000
00000100
00000100
00010000
,  // measure 19
00001000
00100000
00010000
01000000
00100000
10000000
00010000
00100000
,  // measure 20
01100000
10010000
01010000
10100000
,  // measure 21
10000000
00100000
01000000
00010000
00100000
01000000
10000000
00000000
,  // measure 22
10000000
01000000
00100000
00010000
00001000
00000100
00000010
00000001
,  // measure 23
00000100
00001000
00000010
00000001
00000000
00000001
00000010
00001000
,  // measure 24
00000100
00000001
00000010
00000100
00000010
00000001
00000010
00000000
,  // measure 25
00000001
00000010
00000100
00001000
00010000
00100000
01000000
10000000
,  // measure 26
00100000
01000000
00010000
01000000
00000000
00100000
10000000
00010000
,  // measure 27
00100000
01000000
10000000
00100000
01000000
00010000
00100000
01000000
,  // measure 28
01100000
00000000
00000000
00000000
00110000
00000000
00000000
00000000
01010000
00000000
00000000
00000000
01000000
00010000
01000000
00100000
,  // measure 29
01000000
00000000
00000000
00010000
00000000
00000000
00100000
00000000
00000000
00000000
01000000
00000000
10000000
00000000
00000000
00000000
,  // measure 30
00100000
00000000
00000000
10000000
00000000
00000000
01000000
00000000
00000000
00000000
00100000
00000000
00110000
00000000
00000000
00000000
,  // measure 31
00100000
00000000
00000000
00001000
00000000
00000000
00010000
00000000
00000000
00000000
00010000
00000000
00001000
00000000
00000010
00000000
,  // measure 32
00000110
00001001
00000101
00001100
,  // measure 33
00000001
00000000
00000000
00000010
00000000
00000000
00000100
00000000
00000000
00000000
00001000
00000000
00000010
00000000
00001000
00000000
,  // measure 34
00000100
00000000
00000000
00000010
00000000
00000000
00000100
00000000
00000000
00000000
00001000
00000000
00010000
00000000
00100000
00000000
,  // measure 35
01000000
00000000
00000000
10000000
00000000
00000000
00100000
00000000
00000000
00000000
01000000
00000000
00010000
00000000
01000000
00000000
,  // measure 36
01100000
00000000
00000000
00000000
00000000
00000000
00000000
00000000
00000000
00000000
00000000
00000000
10000000
00100000
00000000
00000000
00000000
01000000
00010000
00000000
00000000
00000000
00000000
00000000
,  // measure 37
01000000
00010000
00100000
01000000
10000000
00100000
10000000
00000000
,  // measure 38
10000000
01000000
00100000
00010000
00100000
00100000
00100000
00000000
,  // measure 39
00100000
00010000
00001000
00000100
00000001
00000010
00001000
00000000
,  // measure 40
00000010
00000000
00000000
00000000
00000110
00000000
00000000
00000000
00001001
00000000
00000000
00000000
00000000
00000000
00001000
00000100
,  // measure 41
00001000
00000010
00001000
00000001
00000100
00000010
00001000
00000001
,  // measure 42
00001000
00000100
00001000
00000000
00000100
00000000
00001000
00000000
00000001
00000000
00001000
00000000
00000010
00000000
00001000
00000000
,  // measure 43
00000100
00010000
00001000
00000000
00100000
00000000
00010000
00000000
00100000
00000000
01000000
00000000
10000000
00000000
00100000
00000000
,  // measure 44
10100000
00000000
00000000
00000000
01010000
00000000
00000000
00000000
01100000
00000000
00000000
00000000
00100000
10000000
01000000
10000000
,  // measure 45
00100000
00000000
00000000
01000000
00000000
00000000
00010000
00000000
00000000
00000000
00100000
00000000
01000000
00000000
00100000
00000000
,  // measure 46
00010000
00000000
00000000
00100000
00000000
00000000
01000000
00000000
00000000
00000000
10000000
00000000
01000000
00000000
00100000
00000000
,  // measure 47
00010000
00000000
00000000
01000000
00000000
00000000
00010000
00000000
00000000
00000000
00100000
00000000
00001000
00000000
00010000
00000000
,  // measure 48
00010100
00001100
00001010
00000011
,  // measure 49
00000001
00000000
00000000
00000100
00000000
00000000
00000010
00000000
00000001
00000000
00000100
00000000
00000010
00000000
00001000
00000000
,  // measure 50
00000100
00000000
00000000
00001000
00000000
00000000
00000010
00000000
00001000
00000000
00000100
00000000
00010000
00000000
00001000
00000000
,  // measure 51
00100000
00000000
00000000
01000000
00000000
00000000
10000000
00000000
00100000
00000000
01000000
00000000
00010000
00000000
01000000
00000000
,  // measure 52
01100000
00000000
00000000
00000000
10100000
00000000
00000000
00000000
01000000
00010000
00100000
00000000
01000000
00000000
20000000
00000000
,  // measure 53
00000000
01000000
00020000
00000000
00000000
00000000
00000000
00000000
,  // measure 54
30030000
00000000
00000000
00000000
;

//---------------dance-double - Chewi----------------
#NOTES:
     dance-double:
     Chewi:
     Medium:
     6:
     0.243,0.296,0.200,0.122,0.000: // measure 1
00000000
00000000
00000000
00000000
,  // measure 2
00000000
00000000
00000000
00000000
,  // measure 3
00000000
00000000
00000000
00000000
,  // measure 4
00000000
00000000
00000000
00000000
,  // measure 5
10000000
00100000
00010000
00000000
,  // measure 6
00010000
10000000
00010000
00000000
,  // measure 7
10000000
01000000
00010000
00000000
,  // measure 8
01000000
00010000
00001000
00000010
,  // measure 9
00000001
00000010
00001000
00000000
,  // measure 10
00001000
00000100
00000001
00000000
,  // measure 11
00000001
00000100
00001000
00000000
,  // measure 12
00000100
00001000
00010000
01000000
,  // measure 13
02200000
00000000
00000000
03300000
,  // measure 14
00100000
00000000
00000000
00100000
00000000
00000000
10000000
00000000
,  // measure 15
00010000
00000000
00000000
00010000
00000000
00000000
00100000
00000000
,  // measure 16
00110000
00011000
00001000
00000010
,  // measure 17
00000100
00000000
00000000
00000100
00000000
00000000
00000100
00000000
,  // measure 18
00000010
00000000
00000000
00000010
00000000
00000000
00000010
00000000
,  // measure 19
00001000
00000000
00000000
00010000
00000000
00000000
00001000
00000000
,  // measure 20
00011000
01010000
01000000
10000000
,  // measure 21
00200000
00000000
00010000
00000000
,  // measure 22
00320000
00000000
01000000
00000000
,  // measure 23
02030000
00000000
00100000
00000000
,  // measure 24
03200000
00000000
00310000
00010000
,  // measure 25
00002000
00000000
00010000
00000000
,  // measure 26
00023000
00000000
00001000
00000010
,  // measure 27
00030020
00000000
00001000
00000000
,  // measure 28
00000100
00001000
00000200
00000330
,  // measure 29
00000010
00000000
00000000
00000010
00000000
00000000
00001010
00000000
,  // measure 30
00001000
00000000
00000000
00001000
00000000
00000000
00001001
00000000
,  // measure 31
00000001
00000000
00000000
00001000
00000000
00000000
00010000
00000000
,  // measure 32
00002000
00023000
02030000
03020000
,  // measure 33
00130000
00000000
00000000
01100000
00000000
00000000
00100000
00000000
,  // measure 34
10000000
00000000
00000000
10010000
00000000
00000000
00010000
00000000
,  // measure 35
01000000
00000000
00000000
01100000
00000000
00000000
00100000
00000000
,  // measure 36
10100000
00000000
01010000
00000000
,  // measure 37
01000000
00010000
01000000
00010000
,  // measure 38
00100000
00001000
00010000
00000100
,  // measure 39
00001000
00000100
00001000
00000100
,  // measure 40
00000011
00000101
00001010
00000000
,  // measure 41
00000010
00000100
00000010
00000000
00001000
00000000
00000100
00000000
,  // measure 42
00010000
00001000
00100000
00010000
,  // measure 43
01000000
00100000
01000000
00000000
00010000
00000000
10000000
00000000
,  // measure 44
11000000
00110000
11000000
10000000
,  // measure 45
00010000
00000000
00000000
00010000
00000000
00000000
00100000
00000000
,  // measure 46
00000000
00100000
00010000
00000000
00001000
00000000
00000010
00000000
,  // measure 47
00000000
00000010
00000000
00000000
00000010
00000000
00000010
00000000
,  // measure 48
00001010
00011000
00001010
00000110
,  // measure 49
00000100
00000000
00000000
00000100
00000000
00000001
00000010
00000000
,  // measure 50
00000100
00000000
00000000
00000100
00000000
00000100
00001000
00000000
,  // measure 51
00010000
00000000
00000000
00001000
00000000
00010000
00001000
00000000
,  // measure 52
00011000
00010000
00001000
00010000
,  // measure 53
00000000
00001000
00010000
00000000
00000000
00000000
00000000
00000000
;

//---------------dance-double - Chewi----------------
#NOTES:
     dance-double:
     Chewi:
     Easy:
     3:
     0.168,0.228,0.035,0.104,0.000:
00000000
00000000
00000000
00000000
,
00000000
00000000
00000000
00000000
,
00000000
00000000
00000000
00000000
,
00000000
00000000
00000000
00000000
,
10000000
00000000
00000000
00000000
,
01000000
01000000
01000000
00000000
,
00010000
00000000
00000000
00000000
,
00100000
00010000
00001000
00000010
,
00000100
00000000
00000000
00000000
,
00000100
00000001
00000100
00000000
,
00001000
00000000
00000000
00000000
,
00001000
00010000
01000000
10000000
,
01000000
01000000
00000000
00000000
,
00100000
00000000
00100000
00000000
,
00010000
10000000
00010000
00000000
,
01000000
00010000
00001000
00000100
,
00000001
00000000
00001000
00000000
,
00000010
00001000
00000010
00000000
,
00000100
00000000
00000010
00000000
,
00000010
00001000
00010000
00100000
,
02000000
00000000
00000000
03000000
,
20000000
00000000
00000000
30000000
,
00200000
00000000
00000000
00300000
,
00020000
00000000
00000000
00030000
,
00002000
00000000
00000000
00003000
,
00000200
00000000
00000000
00000300
,
00000002
00000000
00000000
00000003
,
00000010
00001000
00000010
00000000
,
00000010
00000100
00000001
00000000
,
00000001
00000000
00001001
00000000
,
00001000
00000100
00001000
00000000
,
00000010
00001000
00010000
01000000
,
10000000
00000000
01000000
00100000
,
00010000
00000000
00010000
00010000
,
01000000
00000000
01000000
00100000
,
01100000
01000000
00010000
00000000
,
00100000
00010000
00001000
00010000
,
00010000
00000100
00001000
00010000
,
00010000
00001000
00000010
00000100
,
00000002
00001000
00002000
00003003
,
00000001
00000100
00000000
00000100
,
00000010
00000010
00000000
00000010
,
00001000
00000010
00000000
00000010
,
00000010
00001000
00010000
00010000
,
02000000
00000000
00000000
03000000
,
00200000
00000000
00000000
00300000
,
20000000
00000000
00000000
30000000
,
10000000
01000000
00100000
00010000
,
00100000
00000000
00000000
00010000
,
00010000
00000000
00000000
00001000
,
00000010
00000000
00000000
00000010
,
00001001
00000000
00001000
00000001
,
00000000
00000110
00000000
00000000
;
