#TITLE:why, or why not ~TV version~;
#SUBTITLE:;
#ARTIST:大嶋啓之 feat. 片霧烈火;
#TITLETRANSLIT:;
#SUBTITLETRANSLIT:;
#ARTISTTRANSLIT:HIROYUKI OSHIMA feat. REKKA KATAKIRI;
#GENRE:;
#CREDIT:Chewi☆;
#MENUCOLOR:;
#METERTYPE:DDR X;
#BANNER:why, or why not ~TV version~.png;
#BACKGROUND:why, or why not ~TV version~-bg.png;
#LYRICSPATH:;
#CDTITLE:;
#MUSIC:why, or why not ~TV version~.mp3;
#OFFSET:-3.843;
#SAMPLESTART:60.902;
#SAMPLELENGTH:15.000;
#SELECTABLE:YES;
#LISTSORT:;
#DISPLAYBPM:68.000;
#BPMS:0.000=68.000;
#STOPS:;
#BGCHANGES:;
#ATTACKS:;

//---------------dance-single - Chewi----------------
#NOTES:
     dance-single:
     Chewi:
     Hard:
     7:
     0.182,0.221,0.055,0.166,0.000: // measure 1
0000
0000
0000
0000
,  // measure 2
0000
0000
0000
0000
,  // measure 3
0000
0000
0000
0000
,  // measure 4
0000
0000
0000
0000
,  // measure 5
2010
0100
0001
3100
,  // measure 6
0001
0100
0010
0001
0100
0000
0000
0000
,  // measure 7
0012
0010
0010
0013
,  // measure 8
0010
1000
0100
0010
1000
0000
0000
0000
,  // measure 9
2000
3200
0320
0032
,  // measure 10
1003
0001
0010
0001
1000
0010
1000
0000
,  // measure 11
0020
0230
0302
2003
,  // measure 12
3001
1000
0100
1000
0001
0100
0001
0000
,  // measure 13
0120
0100
0100
0100
,  // measure 14
1030
0100
0001
0010
,  // measure 15
0210
0010
0010
0310
,  // measure 16
0001
0000
0100
0000
1000
0000
0001
1000
,  // measure 17
0001
0000
0000
0000
1000
0100
1000
0000
,  // measure 18
0100
0001
0100
0000
0001
0010
0001
0000
,  // measure 19
0010
1000
0010
0000
2000
0000
0010
0000
,  // measure 20
0001
3100
0002
0100
,  // measure 21
1000
0000
0013
0000
0010
0001
0010
0000
,  // measure 22
0001
0100
0001
0000
0100
1000
0100
0000
,  // measure 23
1000
0010
1000
0000
0020
0000
1000
0000
,  // measure 24
0100
0130
0110
0000
;

//---------------dance-single - Chewi----------------
#NOTES:
     dance-single:
     Chewi:
     Medium:
     4:
     0.168,0.182,0.033,0.155,0.000: // measure 1
0000
0000
0000
0000
,  // measure 2
0000
0000
0000
0000
,  // measure 3
0000
0000
0000
0000
,  // measure 4
0000
0000
0000
0000
,  // measure 5
2000
3010
0002
0013
,  // measure 6
1000
0001
0001
1000
,  // measure 7
0020
0130
0200
0310
,  // measure 8
0010
1000
1000
0010
,  // measure 9
2000
3100
0002
0013
,  // measure 10
0100
0010
0010
0100
,  // measure 11
0200
0310
0002
1003
,  // measure 12
0001
0100
1000
0100
,  // measure 13
1002
0000
1000
0000
1000
1000
1003
0000
,  // measure 14
0100
0000
0010
0000
0010
0100
0010
0000
,  // measure 15
0210
0000
0010
0000
0010
0010
0310
0000
,  // measure 16
1000
0000
0010
0000
0001
0010
1000
0010
,  // measure 17
0001
0000
2000
0100
,  // measure 18
0010
0000
3100
0000
0001
0001
0001
0000
,  // measure 19
1000
1000
1000
0000
0002
0000
0100
0000
,  // measure 20
0010
0000
0103
0000
0001
0001
0001
0000
,  // measure 21
1000
1000
1000
0000
0020
0000
0100
0000
,  // measure 22
1000
0000
0130
0000
0100
0100
0100
0000
,  // measure 23
0100
0100
0100
0000
0200
0000
0001
0000
,  // measure 24
0010
0301
1001
0000
;

//---------------dance-single - Chewi----------------
#NOTES:
     dance-single:
     Chewi:
     Easy:
     2:
     0.082,0.091,0.011,0.022,0.000: // measure 1
0000
0000
0000
0000
,  // measure 2
0000
0000
0000
0000
,  // measure 3
0000
0000
0000
0000
,  // measure 4
0000
0000
0000
0000
,  // measure 5
0010
0000
0010
0000
,  // measure 6
0010
0010
0010
0000
,  // measure 7
1000
0000
1000
0000
,  // measure 8
1000
1000
1000
0000
,  // measure 9
0100
0000
0100
0000
,  // measure 10
0100
0100
0100
0000
,  // measure 11
0001
0000
0001
0000
,  // measure 12
0001
0001
0001
0000
,  // measure 13
0002
0000
0000
0003
,  // measure 14
0001
1000
0001
0000
,  // measure 15
2000
0000
0000
3000
,  // measure 16
0001
1000
0001
0000
,  // measure 17
1001
0000
0001
0100
,  // measure 18
0010
0000
0001
0000
,  // measure 19
0100
0000
1000
0010
,  // measure 20
0100
0000
1000
0000
,  // measure 21
0001
0000
0100
0010
,  // measure 22
0100
0000
0010
0001
,  // measure 23
1000
0000
0100
0010
,  // measure 24
0100
0000
0100
0000
;

//---------------dance-single - Chewi----------------
#NOTES:
     dance-single:
     Chewi:
     Beginner:
     1:
     0.035,0.052,0.011,0.022,0.000: // measure 1
0000
0000
0000
0000
,  // measure 2
0000
0000
0000
0000
,  // measure 3
0000
0000
0000
0000
,  // measure 4
0000
0000
0000
0000
,  // measure 5
0010
0000
0000
0000
,  // measure 6
0010
0000
0000
0000
,  // measure 7
1000
0000
0000
0000
,  // measure 8
1000
0000
0000
0000
,  // measure 9
0100
0000
0000
0000
,  // measure 10
0100
0000
0000
0000
,  // measure 11
0001
0000
0000
0000
,  // measure 12
0001
0000
0000
0000
,  // measure 13
0002
0000
0000
0000
,  // measure 14
0003
0000
0000
0000
,  // measure 15
2000
0000
0000
0000
,  // measure 16
3000
0000
0000
0000
,  // measure 17
1001
0000
0001
0000
,  // measure 18
0000
0000
0001
0000
,  // measure 19
0000
0000
1000
0000
,  // measure 20
0000
0000
1000
0000
,  // measure 21
0000
0000
0100
0000
,  // measure 22
0000
0000
0010
0000
,  // measure 23
0000
0000
0100
0000
,  // measure 24
0000
0000
0100
0000
;
