#TITLE:uen;
#SUBTITLE:;
#ARTIST:少年ラジオ;
#TITLETRANSLIT:uen;
#SUBTITLETRANSLIT:;
#ARTISTTRANSLIT:SHOUNEN RADIO;
#GENRE:;
#CREDIT:TaroNuke & Chewi☆;
#MENUCOLOR:;
#METERTYPE:DDR X;
#BANNER:uen.png;
#BACKGROUND:uen-bg.png;
#LYRICSPATH:;
#CDTITLE:;
#MUSIC:uen.ogg;
#OFFSET:-3.485;
#SAMPLESTART:70.363;
#SAMPLELENGTH:15.000;
#SELECTABLE:YES;
#LISTSORT:;
#DISPLAYBPM:50.000:200.000;
#BPMS:0.000=200.000,32.000=100.000,48.000=50.000,56.000=100.000,72.000=50.000,80.000=100.000,96.000=50.000,100.000=100.000,108.000=200.000,236.000=100.000;
#STOPS:;
#BGCHANGES:;
#ATTACKS:;

//---------------dance-single - TaroNuke----------------
#NOTES:
     dance-single:
     TaroNuke:
     Hard:
     13:
     0.588,0.726,0.463,0.151,0.303: // measure 1
0000
0000
0000
0000
,  // measure 2
0000
0000
0000
0000
,  // measure 3
0011
0000
1100
0000
,  // measure 4
0011
0000
1001
0000
,  // measure 5
1000
1000
0010
0100
0001
0001
0010
0100
,  // measure 6
0010
0010
0001
1000
0100
0100
0100
0100
,  // measure 7
0010
0010
0001
1000
0010
0010
1000
0001
,  // measure 8
1000
0100
0010
0001
0100
0010
1000
1000
,  // measure 9
0020
0030
0000
0000
0000
0000
0000
0000
0200
0300
0000
0000
0000
0000
0000
0000
,  // measure 10
0002
0003
0000
0000
0000
0000
1000
0100
0000
0100
1000
0001
0100
0000
0001
1000
,  // measure 11
0100
0000
0100
0000
0100
0000
0100
0010
0001
0000
0001
0000
0001
0000
0001
0100
,  // measure 12
0010
0000
0010
0000
0010
0000
0010
1000
0000
1000
0001
0000
1001
0000
0110
0000
,  // measure 13
1000
0010
0200
0300
0000
1001
0011
0101
,  // measure 14
1001
0000
0000
0000
0220
0000
0330
0000
2000
3200
0320
0032
1003
0000
0011
0000
,  // measure 15
1000
0100
1000
0000
0001
0100
0001
0000
1000
0000
0100
0000
0010
0000
0001
0100
,  // measure 16
0010
0100
0001
0000
1000
0000
0001
0010
0100
0010
0001
0000
1000
0000
0010
0100
,  // measure 17
1000
0100
0010
0000
1000
0000
0100
0000
0010
0001
0100
0000
0001
0000
0010
0000
,  // measure 18
0100
1000
0100
0000
1000
0010
1000
0000
0001
0100
0001
0000
0100
0010
1000
0000
,  // measure 19
0100
0000
0000
0000
0000
0000
0000
0010
0001
0000
0000
0000
0000
0000
0000
0000
0100
0000
0000
0000
0000
0000
0000
0010
1000
0000
0000
0000
0000
0000
0000
0000
,  // measure 20
1001
0000
0000
0010
1000
0000
0000
0000
1001
0000
0000
0100
1000
0000
0000
0000
,  // measure 21
1000
0000
0010
0000
0100
0000
0001
0010
0100
0000
0001
0000
0100
0000
1000
0000
,  // measure 22
0001
0000
0100
0000
0010
0000
1000
0010
0000
0000
0100
0010
0100
0000
0001
0000
,  // measure 23
1000
0000
0010
0000
0100
0000
0001
0010
0000
0010
0100
0000
1100
0000
1001
0000
,  // measure 24
0001
0000
0010
0000
0100
0000
1000
0100
0010
0000
1000
0000
0010
0001
1000
0001
,  // measure 25
0100
0000
0100
0000
0010
0000
0010
0000
1000
0100
1000
0100
0010
0001
0010
0001
,  // measure 26
1000
0000
0001
0010
0100
0000
0010
0100
1000
0000
0001
1000
0001
0100
0001
0010
,  // measure 27
0100
0000
1000
0100
1000
0000
0001
0100
0001
0000
1100
0000
0001
0000
1010
0000
,  // measure 28
1001
0000
1000
0100
0001
0100
1000
0000
,  // measure 29
1001
0000
0001
0100
1000
0100
0001
0000
,  // measure 30
1001
0000
0001
0010
1000
0010
0001
0000
,  // measure 31
1001
0000
1000
0010
0001
0010
1000
0000
,  // measure 32
2100
3010
0201
0310
,  // measure 33
1020
0130
0012
1003
,  // measure 34
0110
0000
1000
0100
1000
0000
0001
0100
,  // measure 35
0001
0100
0010
0100
0010
1000
0010
0000
,  // measure 36
1001
0000
1000
0100
0001
1000
0010
0000
,  // measure 37
1001
0000
0001
0100
1000
0001
0010
0000
,  // measure 38
1001
0000
0001
0010
1000
0001
0100
0000
,  // measure 39
1001
0000
1000
0010
0001
0010
0100
0001
,  // measure 40
1000
0100
0010
0001
0000
1001
0000
0000
,  // measure 41
0001
0100
0010
1000
0000
1001
0000
0000
,  // measure 42
1000
0000
0000
0010
0010
0000
1000
0000
,  // measure 43
0001
0000
0000
0100
0110
0000
0000
0000
,  // measure 44
1000
0100
0001
0100
1000
0100
0001
0100
,  // measure 45
1000
0010
0001
0010
1000
0010
0001
0010
,  // measure 46
1000
0001
0010
0001
1000
0001
0010
0100
,  // measure 47
0000
0100
1000
0000
0101
0000
1001
0000
,  // measure 48
1100
0011
0101
1010
,  // measure 49
0011
0110
1100
1001
,  // measure 50
1200
0010
0001
1300
,  // measure 51
1000
0010
0000
1100
0000
0101
0000
0000
,  // measure 52
1000
1000
0010
0100
0001
0001
0010
0100
,  // measure 53
0010
0010
0001
1000
0100
0100
1000
0010
,  // measure 54
0100
0100
0001
1000
0010
0010
0100
0001
,  // measure 55
1000
1000
0100
0010
0001
0001
1000
0010
,  // measure 56
0100
0001
0100
0001
0100
0001
1000
0001
1000
0001
1000
0001
,  // measure 57
0010
0001
0010
0001
0010
0001
0100
0001
0100
0001
0100
0001
,  // measure 58
1000
0011
1100
0101
,  // measure 59
1001
1100
1001
0011
,  // measure 60
2002
0000
0003
0000
,  // measure 61
3000
0001
0000
0001
0000
0010
0000
0010
0000
0100
0000
0100
0000
1000
0000
1000
,  // measure 62
0000
0000
0000
0000
0000
0000
0000
0000
0000
0000
0000
0000
0000
0000
0000
0000
0000
0000
0000
0000
0000
0000
0000
0000
0000
0000
0000
0000
0000
0002
0000
0000
0000
0000
0000
0000
0000
0000
0000
0000
0000
1003
0000
0000
0000
0000
0000
0000
0000
0000
0000
0000
0000
0000
0000
0000
0000
0000
0000
0000
0000
0000
0000
0000
;

//---------------dance-single - TaroNuke----------------
#NOTES:
     dance-single:
     TaroNuke:
     Medium:
     9:
     0.338,0.513,0.202,0.118,0.021: // measure 1
0000
0000
0000
0000
,  // measure 2
0000
0000
0000
0000
,  // measure 3
1000
0000
0100
0000
,  // measure 4
0001
0000
0010
0000
,  // measure 5
1000
0100
1000
0000
0001
0100
0001
0000
,  // measure 6
1000
0100
1000
0000
0010
0100
0010
0000
,  // measure 7
1000
0100
1000
0000
0100
0010
0100
0000
,  // measure 8
0010
0001
0010
0001
0010
0001
0010
0000
,  // measure 9
1001
0000
0100
0000
,  // measure 10
0010
0000
1001
0000
,  // measure 11
1000
0100
1000
0100
0010
0001
0010
0001
,  // measure 12
1000
0010
1000
0010
0100
0100
0100
0000
,  // measure 13
0001
1001
0010
1100
,  // measure 14
0101
0000
0010
0000
1000
0001
1000
0010
,  // measure 15
1000
1000
0010
0010
,  // measure 16
0100
0001
0100
0000
0010
1000
0010
0000
,  // measure 17
1000
0100
1000
0000
0001
0000
0010
0000
,  // measure 18
0100
0000
0010
0000
0001
1000
0010
0000
,  // measure 19
1010
0011
0101
1100
,  // measure 20
1001
0101
1001
1100
,  // measure 21
0001
0000
0100
0000
0010
0000
0100
0000
0001
0000
1000
0100
1000
0000
0001
0000
,  // measure 22
1000
0000
0100
0000
0010
0000
0100
0000
1000
0000
0001
0100
0001
0000
1000
0000
,  // measure 23
0001
0000
0010
0000
0100
0000
0010
0000
0001
0000
1000
0010
1000
0000
0001
0000
,  // measure 24
1000
0000
0010
0000
0100
0000
0010
0000
1000
0000
0001
0000
0100
0010
0100
0010
,  // measure 25
1000
0000
0100
0000
0010
0000
0001
1000
,  // measure 26
0001
0100
1000
0100
,  // measure 27
0020
0000
0000
0000
0030
0000
0000
1000
,  // measure 28
0002
0000
0000
0000
,  // measure 29
0203
0000
0000
0000
,  // measure 30
0320
0000
0000
0000
,  // measure 31
2030
0000
0000
0000
,  // measure 32
3001
0100
0010
1000
,  // measure 33
0001
0100
0010
0100
,  // measure 34
0001
0000
0000
1000
0001
0000
0000
0000
,  // measure 35
1001
0000
0001
0100
0010
1000
0010
0000
,  // measure 36
2000
0000
0001
0000
,  // measure 37
3020
0000
1000
0000
,  // measure 38
0230
0000
0001
0000
,  // measure 39
0302
0000
1000
0003
,  // measure 40
1000
0100
0010
0001
0000
1000
0000
0000
,  // measure 41
0001
0010
0100
1000
0000
0001
0000
0000
,  // measure 42
1001
0000
1010
0000
,  // measure 43
0011
0000
1001
0000
,  // measure 44
1000
0100
0001
0100
,  // measure 45
1000
0100
0001
0100
,  // measure 46
1000
0000
0010
0000
0001
0000
0010
1000
,  // measure 47
0000
1000
0100
0000
0010
0000
0001
0000
,  // measure 48
1000
1010
0010
0110
,  // measure 49
0100
0101
0001
0011
,  // measure 50
0010
0110
0100
1100
,  // measure 51
1000
0001
0000
0100
0000
0010
0000
0000
,  // measure 52
1000
0001
1000
0000
0100
0000
0010
0000
,  // measure 53
0001
0000
0010
0000
0100
0010
0001
0000
,  // measure 54
1000
0001
1000
0000
0010
0000
0100
0000
,  // measure 55
0001
0000
0100
0000
0010
1000
0100
0000
,  // measure 56
2000
0000
3200
0000
,  // measure 57
0320
0000
2030
0000
,  // measure 58
3010
0001
0100
1000
,  // measure 59
0100
0010
0001
0010
,  // measure 60
0200
0000
0000
0000
,  // measure 61
0000
0000
0000
0000
,  // measure 62
0300
0000
0000
0000
;

//---------------dance-single - Chewi----------------
#NOTES:
     dance-single:
     Chewi:
     Beginner:
     2:
     0.100,0.154,0.101,0.017,0.000: // measure 1
0000
0000
0000
0000
,  // measure 2
0000
0000
0000
0000
,  // measure 3
0010
0000
0000
0000
,  // measure 4
0010
0000
0000
0000
,  // measure 5
1000
0000
0000
0000
,  // measure 6
0010
0000
0000
0000
,  // measure 7
0010
0000
0000
0000
,  // measure 8
1000
0000
0000
0000
,  // measure 9
0002
0000
0000
0000
,  // measure 10
0000
0000
0000
0003
,  // measure 11
0001
0000
0001
0000
,  // measure 12
0010
0000
0010
0000
,  // measure 13
1000
0000
0000
0000
,  // measure 14
1001
0000
0000
0000
,  // measure 15
1000
0000
1000
0000
,  // measure 16
0010
0000
0100
0000
,  // measure 17
1000
0000
0010
0000
,  // measure 18
0100
0000
0001
0000
,  // measure 19
0100
0000
0000
0000
,  // measure 20
1001
0000
0000
0000
,  // measure 21
1000
0000
0100
0000
,  // measure 22
0001
0000
0010
0000
,  // measure 23
1000
0000
0100
0000
,  // measure 24
0001
0000
0010
0000
,  // measure 25
0100
0000
0000
0000
,  // measure 26
1000
0000
1000
0000
,  // measure 27
0100
0000
0001
0000
,  // measure 28
1001
0000
0000
0000
,  // measure 29
1001
0000
0000
0000
,  // measure 30
1001
0000
0000
0000
,  // measure 31
1001
0000
0000
0000
,  // measure 32
0100
0000
0000
0000
,  // measure 33
1000
0000
0000
0000
,  // measure 34
0110
0000
0000
0000
,  // measure 35
0010
0000
0000
0000
,  // measure 36
1001
0000
0000
0000
,  // measure 37
1001
0000
0000
0000
,  // measure 38
1001
0000
0000
0000
,  // measure 39
1001
0000
0000
0000
,  // measure 40
1000
0000
0000
0000
,  // measure 41
0001
0000
0000
0000
,  // measure 42
1000
0000
0000
0000
,  // measure 43
0001
0000
0000
0000
,  // measure 44
1000
0000
0000
0000
,  // measure 45
1000
0000
0000
0000
,  // measure 46
1000
0000
0000
0000
,  // measure 47
1000
0000
0000
0000
,  // measure 48
0100
0000
0000
0000
,  // measure 49
0010
0000
0000
0000
,  // measure 50
1000
0000
0000
0000
,  // measure 51
1000
0000
0000
0000
,  // measure 52
1000
0000
0000
0000
,  // measure 53
0010
0000
0000
0000
,  // measure 54
0100
0000
0000
0000
,  // measure 55
1000
0000
0000
0000
,  // measure 56
0100
0000
0000
0000
,  // measure 57
0010
0000
0000
0000
,  // measure 58
1000
0000
0000
0000
,  // measure 59
1001
0000
0000
0000
,  // measure 60
0002
0000
0000
0000
,  // measure 61
0000
0000
0000
0000
,  // measure 62
0003
0000
0000
0000
;

//---------------dance-single - Chewi----------------
#NOTES:
     dance-single:
     Chewi:
     Easy:
     6:
     0.289,0.385,0.311,0.017,0.000: // measure 1
0000
0000
0000
0000
,  // measure 2
0000
0000
0000
0000
,  // measure 3
0011
0000
1100
0000
,  // measure 4
0011
0000
1001
0000
,  // measure 5
1000
0010
0001
0010
,  // measure 6
0010
0001
0100
0100
,  // measure 7
0010
0001
0010
1000
,  // measure 8
1000
0010
0100
1000
,  // measure 9
0002
0000
0000
0000
,  // measure 10
0000
0000
0003
0100
,  // measure 11
0100
0100
0001
0001
,  // measure 12
0010
0010
0000
1001
,  // measure 13
1000
0000
0000
0011
,  // measure 14
1001
0000
0000
1000
,  // measure 15
1000
0001
1000
0010
,  // measure 16
0010
1000
0100
1000
,  // measure 17
1000
1000
0010
0001
,  // measure 18
0100
1000
0001
0100
,  // measure 19
0100
0001
0100
1000
,  // measure 20
1001
1000
1001
1000
,  // measure 21
1000
0100
0100
0100
,  // measure 22
0001
0010
0000
0100
,  // measure 23
1000
0100
0000
1100
,  // measure 24
0001
0100
0010
0010
,  // measure 25
0100
0010
1000
0010
,  // measure 26
1000
0100
1000
0001
,  // measure 27
0100
1000
0001
0001
,  // measure 28
1001
1000
0001
1000
,  // measure 29
1001
0001
1000
0001
,  // measure 30
1001
0001
1000
0001
,  // measure 31
1001
1000
0001
1000
,  // measure 32
0100
0010
0001
0010
,  // measure 33
1000
0100
0010
1000
,  // measure 34
0110
1000
1000
0001
,  // measure 35
0001
0010
0010
0010
,  // measure 36
1001
1000
0001
0010
,  // measure 37
1001
0001
1000
0010
,  // measure 38
1001
0001
1000
0100
,  // measure 39
1001
1000
0001
0100
,  // measure 40
1000
0010
0000
0000
,  // measure 41
0001
0010
0000
0000
,  // measure 42
1000
0000
0010
1000
,  // measure 43
0001
0000
0110
0000
,  // measure 44
1000
0001
1000
0001
,  // measure 45
1000
0001
1000
0001
,  // measure 46
1000
0010
1000
0010
,  // measure 47
0000
1000
0101
1001
,  // measure 48
1100
0011
0101
1010
,  // measure 49
0011
0110
1100
1001
,  // measure 50
1000
0010
0001
1000
,  // measure 51
1000
0000
0000
0000
,  // measure 52
1000
0010
0001
0010
,  // measure 53
0010
0001
0100
1000
,  // measure 54
0100
0001
0010
0100
,  // measure 55
1000
0100
0001
1000
,  // measure 56
0100
0001
1000
0001
,  // measure 57
0010
0001
0100
0001
,  // measure 58
1000
0011
1100
0101
,  // measure 59
1001
1100
1001
0011
,  // measure 60
0002
0000
0000
0000
,  // measure 61
0000
0000
0000
0000
,  // measure 62
0003
0000
0000
0000
;
