#TITLE:typhoon;
#SUBTITLE:;
#ARTIST:Chewi☆;
#TITLETRANSLIT:;
#SUBTITLETRANSLIT:;
#ARTISTTRANSLIT:;
#GENRE:;
#CREDIT:Chewi☆;
#MENUCOLOR:;
#METERTYPE:DDR;
#BANNER:typhoon.png;
#BACKGROUND:Cannibal-bg.png;
#LYRICSPATH:;
#CDTITLE:;
#MUSIC:typhoon.mp3;
#OFFSET:-0.031;
#SAMPLESTART:8.889;
#SAMPLELENGTH:15.000;
#SELECTABLE:YES;
#LISTSORT:;
#BPMS:0.000=140.000;
#STOPS:;
#BGCHANGES:;
#ATTACKS:;

//---------------dance-single - Chewi----------------
#NOTES:
     dance-single:
     Chewi:
     Hard:
     8:
     0.319,0.430,0.097,0.065,0.000: // measure 1
0000
0000
0000
0000
,  // measure 2
0000
0000
0000
0000
,  // measure 3
0000
0000
0000
0000
,  // measure 4
0000
0000
0000
0000
,  // measure 5
1000
0100
0001
0100
,  // measure 6
1000
0010
0001
0010
,  // measure 7
1000
0100
0010
0011
,  // measure 8
0001
0100
0010
1010
,  // measure 9
1000
0000
1000
0000
1000
0001
1000
0000
,  // measure 10
0001
1000
0001
0000
0001
0010
0100
1000
,  // measure 11
0010
0000
0010
0000
0010
0100
0010
0000
,  // measure 12
0100
0010
0100
0000
0010
0001
1000
0100
,  // measure 13
0010
0000
0001
0000
0010
1000
0100
0000
,  // measure 14
0001
0000
0010
0000
1000
0100
0001
0000
,  // measure 15
0010
1000
0100
0000
0010
0001
0100
0000
,  // measure 16
0010
0100
0001
1000
0100
0010
0001
0000
,  // measure 17
0022
0000
0000
0000
,  // measure 18
0000
0000
0000
0033
;

//---------------dance-single - Chewi----------------
#NOTES:
     dance-single:
     Chewi:
     Medium:
     4:
     0.259,0.316,0.032,0.194,0.000: // measure 1
0000
0000
0000
0000
,  // measure 2
0000
0000
0000
0000
,  // measure 3
0000
0000
0000
0000
,  // measure 4
0000
0000
0000
0000
,  // measure 5
2000
0100
3001
0000
,  // measure 6
0002
0010
1003
0000
,  // measure 7
2000
0010
3001
0000
,  // measure 8
0002
0100
1003
0000
,  // measure 9
1000
0000
1000
0000
1000
0000
1000
1000
,  // measure 10
0001
0000
0001
0000
0001
0000
0001
0001
,  // measure 11
0010
0000
0010
0000
0010
0000
0010
0010
,  // measure 12
0100
0000
0100
0000
0100
0000
0100
0100
,  // measure 13
1000
0100
0010
1000
,  // measure 14
0100
0001
0010
0100
,  // measure 15
0001
0010
0100
1000
,  // measure 16
1000
0100
0010
0001
,  // measure 17
2002
0000
0000
0000
,  // measure 18
0000
0000
0000
3003
;

//---------------dance-single - Chewi----------------
#NOTES:
     dance-single:
     Chewi:
     Beginner:
     2:
     0.129,0.172,0.032,0.065,0.000:
0000
0000
0000
0000
,
0000
0000
0000
0000
,
0000
0000
0000
0000
,
0000
0000
0000
0000
,
1000
0000
0010
0000
,
0001
0000
0100
0000
,
0001
0000
0100
0000
,
1000
0000
0010
0000
,
0010
0000
0010
0000
,
0010
0000
0010
0000
,
0100
0000
0100
0000
,
0100
0000
0100
0000
,
1000
0000
1000
0000
,
0001
0000
0001
0000
,
1000
0000
1000
0000
,
0001
0000
0001
0000
,
2002
0000
0000
0000
,
0000
0000
0000
3003
;

//---------------dance-single - Chewi----------------
#NOTES:
     dance-single:
     Chewi:
     Easy:
     3:
     0.212,0.287,0.032,0.129,0.000:
0000
0000
0000
0000
,
0000
0000
0000
0000
,
0000
0000
0000
0000
,
0000
0000
0000
0000
,
2000
0000
0010
0000
,
0001
0000
0100
0000
,
3002
0000
0100
0000
,
1000
0000
0010
0000
,
0013
0010
0010
0010
,
0010
0010
0010
0010
,
0100
0100
0100
0100
,
0100
0100
0100
0100
,
1000
1000
1000
1000
,
0001
0001
0001
0001
,
1000
1000
1000
1000
,
0001
0001
0001
0001
,
2002
0000
0000
0000
,
0000
0000
0000
3003
;
