#TITLE:trust the doubt;
#SUBTITLE:;
#ARTIST:Syrufit feat. itori;
#TITLETRANSLIT:;
#SUBTITLETRANSLIT:;
#ARTISTTRANSLIT:;
#GENRE:;
#CREDIT:yamamoto_;
#MENUCOLOR:;
#METERTYPE:DDR X;
#BANNER:trust the doubt.png;
#BACKGROUND:trust the doubt-bg.png;
#LYRICSPATH:;
#CDTITLE:;
#MUSIC:trust the doubt.mp3;
#OFFSET:-0.525;
#SAMPLESTART:68.017;
#SAMPLELENGTH:15.000;
#SELECTABLE:YES;
#LISTSORT:;
#DISPLAYBPM:128.000;
#BPMS:0.000=128.000;
#STOPS:;
#BGCHANGES:;
#ATTACKS:;

//---------------dance-single - yamamoto_----------------
#NOTES:
     dance-single:
     yamamoto_:
     Beginner:
     1:
     0.117,0.122,0.038,0.000,0.000: // measure 1
0000
0000
0000
0000
,  // measure 2
0000
0000
0000
0000
,  // measure 3
0000
0000
0000
0000
,  // measure 4
0000
0000
0000
0000
,  // measure 5
1000
0000
0001
0000
,  // measure 6
1000
0000
0000
0000
,  // measure 7
0001
0000
1000
0000
,  // measure 8
0001
0000
0000
0000
,  // measure 9
0100
0000
0000
0000
,  // measure 10
0100
0000
0100
0000
,  // measure 11
0010
0000
0000
0000
,  // measure 12
0010
0000
0010
0000
,  // measure 13
1000
0000
0100
0000
,  // measure 14
0001
0000
0010
0000
,  // measure 15
1000
0000
0010
0000
,  // measure 16
0001
0000
0100
0000
,  // measure 17
1000
0000
0001
0000
,  // measure 18
0100
0000
0010
0000
,  // measure 19
0010
0000
0100
0000
,  // measure 20
0001
0000
0100
0000
,  // measure 21
1000
0000
0000
0000
,  // measure 22
1001
0000
0000
0000
,  // measure 23
0001
0000
0000
0000
,  // measure 24
1001
0000
0000
0000
,  // measure 25
0100
0000
0000
0000
,  // measure 26
0110
0000
0000
0000
,  // measure 27
0010
0000
0000
0000
,  // measure 28
0110
0000
0000
0000
,  // measure 29
1000
0000
0001
0000
,  // measure 30
1000
0000
1000
0000
,  // measure 31
0001
0000
0000
0000
,  // measure 32
0001
0000
0001
0000
,  // measure 33
0100
0000
0100
0000
,  // measure 34
0100
0000
0100
0000
,  // measure 35
0010
0000
0010
0000
,  // measure 36
0010
0000
0010
0000
,  // measure 37
0001
0000
0001
0000
,  // measure 38
0001
0000
0001
0000
,  // measure 39
1000
0000
1000
0000
,  // measure 40
1000
0000
1000
0000
,  // measure 41
0100
0000
0100
0000
,  // measure 42
0100
0000
0100
0000
,  // measure 43
0010
0000
0010
0000
,  // measure 44
0010
0000
0010
0000
,  // measure 45
0001
0000
0001
0000
,  // measure 46
0001
0000
0001
0000
,  // measure 47
1000
0000
1000
0000
,  // measure 48
1000
0000
1000
0000
,  // measure 49
0100
0000
0100
0000
,  // measure 50
0100
0000
0100
0000
,  // measure 51
0010
0000
0010
0000
,  // measure 52
0010
0000
0010
0000
;

//---------------dance-single - yamamoto_----------------
#NOTES:
     dance-single:
     yamamoto_:
     Easy:
     4:
     0.163,0.172,0.113,0.076,0.000: // measure 1
0000
0000
0000
0000
,  // measure 2
0000
0000
0000
0000
,  // measure 3
0000
0000
0000
0000
,  // measure 4
0000
0000
0000
0000
,  // measure 5
1000
0000
0001
0000
,  // measure 6
1000
0001
1000
0000
,  // measure 7
0001
0000
1000
0000
,  // measure 8
0001
1000
0001
0000
,  // measure 9
0100
0000
0010
0000
,  // measure 10
0100
0010
0100
0000
,  // measure 11
0010
0000
0100
0000
,  // measure 12
0010
0100
0010
0000
,  // measure 13
1000
0000
0100
0000
,  // measure 14
0001
0000
0010
0000
,  // measure 15
1000
0000
0010
0000
,  // measure 16
0001
0000
0100
0000
,  // measure 17
1000
0000
0001
0000
,  // measure 18
0100
0000
0010
0000
,  // measure 19
0010
0000
0100
0000
,  // measure 20
0001
0010
0100
1000
,  // measure 21
1000
0000
0000
0000
,  // measure 22
1001
0000
0000
0000
,  // measure 23
0001
0000
0000
0000
,  // measure 24
1001
0000
0000
0000
,  // measure 25
0100
0000
0000
0000
,  // measure 26
0110
0000
0000
0000
,  // measure 27
0010
0000
0000
0000
,  // measure 28
0110
0000
0000
0000
,  // measure 29
1000
0000
0001
0000
,  // measure 30
1000
0001
1000
0000
,  // measure 31
0001
0000
1000
0000
,  // measure 32
0001
1000
0001
0000
,  // measure 33
0100
0000
0100
0000
,  // measure 34
0100
0100
0100
0000
,  // measure 35
0010
0000
0010
0000
,  // measure 36
0010
0010
0010
0000
,  // measure 37
2000
0000
3001
0000
,  // measure 38
0001
0000
1001
0000
,  // measure 39
0002
0000
1003
0000
,  // measure 40
1000
0000
1001
0000
,  // measure 41
0200
0000
0310
0000
,  // measure 42
0110
0000
0020
0000
,  // measure 43
0030
0000
0100
0000
,  // measure 44
0110
0010
0100
0010
,  // measure 45
2000
0000
3001
0000
,  // measure 46
0001
0000
1001
0000
,  // measure 47
0002
0000
1003
0000
,  // measure 48
1000
0000
1001
0000
,  // measure 49
0200
0000
0310
0000
,  // measure 50
0110
0000
0020
0000
,  // measure 51
0030
0000
0100
0000
,  // measure 52
0110
0010
0100
0010
,  // measure 53
0100
0000
0000
0000
;

//---------------dance-single - yamamoto_----------------
#NOTES:
     dance-single:
     yamamoto_:
     Medium:
     8:
     0.271,0.295,0.104,0.000,0.038: // measure 1
0000
0000
0000
0000
,  // measure 2
0000
0000
0000
0000
,  // measure 3
0000
0000
0000
0000
,  // measure 4
0000
0000
0000
0000
,  // measure 5
1000
0000
0000
1000
0000
0000
0000
0000
1000
0000
0000
0000
0000
0000
0000
0000
,  // measure 6
0001
0000
0000
0001
0000
0000
0000
0000
0001
0000
0000
0000
0000
0000
0000
0000
,  // measure 7
0100
0000
0000
0100
0000
0000
0000
0000
0100
0000
0000
0000
0000
0000
0000
0000
,  // measure 8
0010
0000
0000
0010
0000
0000
0000
0000
0010
0000
0000
0000
0000
0000
0000
0000
,  // measure 9
1000
0000
0000
1000
0000
0000
0000
0000
1000
0000
0000
0000
0000
0000
0000
0000
,  // measure 10
0001
0000
0000
0001
0000
0000
0000
0000
0001
0000
0000
0000
0000
0000
0000
0000
,  // measure 11
0010
0000
0000
0010
0000
0000
0000
0000
0010
0000
0000
0000
0000
0000
0000
0000
,  // measure 12
0100
0000
0000
0100
0000
0000
0000
0000
0100
0000
0000
0000
0000
0000
0000
0000
,  // measure 13
0100
0010
0001
0010
,  // measure 14
0100
0000
1000
0000
0010
1000
0100
0000
,  // measure 15
1000
0010
0100
0001
,  // measure 16
0100
0000
0010
0000
0100
0001
0010
0000
,  // measure 17
0100
1000
0010
1000
,  // measure 18
0100
0000
0010
0000
0100
1000
0001
0000
,  // measure 19
0100
0010
0100
0001
,  // measure 20
0010
0000
0100
0000
1000
0001
1000
0000
,  // measure 21
1000
0000
0000
1000
0000
0000
1001
0000
,  // measure 22
0000
0001
1000
0010
,  // measure 23
0100
0000
0000
0010
0000
0000
0110
0000
,  // measure 24
0000
0000
0100
0100
,  // measure 25
0010
0000
0000
1000
0000
0000
1001
0000
,  // measure 26
1000
0001
1000
0100
,  // measure 27
0010
0000
0000
0010
0000
0000
0110
0000
,  // measure 28
0100
0100
0010
0010
,  // measure 29
0001
1000
0100
1000
,  // measure 30
0001
1000
0001
0000
1000
0000
0001
0000
,  // measure 31
1000
0010
0100
0001
,  // measure 32
0100
0001
0010
0000
0100
0000
1000
0000
,  // measure 33
0010
0100
0001
1000
,  // measure 34
1000
0100
0010
0000
0001
0000
0010
0000
,  // measure 35
0100
1000
0001
0100
,  // measure 36
0010
0000
0100
0000
0010
0100
0001
0000
,  // measure 37
1001
1000
0001
1000
,  // measure 38
0001
0000
0010
0000
0001
0010
0001
0000
,  // measure 39
0011
0010
0001
0001
,  // measure 40
0010
0100
1000
0010
,  // measure 41
1010
0010
1000
1000
,  // measure 42
0010
0000
0100
0000
0001
1000
0100
0000
,  // measure 43
0010
0000
0010
0010
0010
0000
0000
0000
,  // measure 44
0100
0000
0100
0100
0100
0000
0000
0000
,  // measure 45
1001
0001
1000
0001
,  // measure 46
1000
0000
0100
0000
1000
0100
1000
0000
,  // measure 47
1100
0100
1000
1000
,  // measure 48
0100
0010
0001
0100
,  // measure 49
0101
0100
0001
0001
,  // measure 50
0100
0000
0010
0000
1000
0001
0010
0000
,  // measure 51
0100
0000
0100
0100
0100
0000
0000
0000
,  // measure 52
0010
0000
0010
0010
0010
0000
0000
0000
,  // measure 53
0110
0000
0000
0000
;

//---------------dance-single - yamamoto_----------------
#NOTES:
     dance-single:
     yamamoto_:
     Hard:
     11:
     0.368,0.393,0.132,0.066,0.170: // measure 1
0000
0000
0000
0000
,  // measure 2
0000
0000
0000
0000
,  // measure 3
0000
0000
0000
0000
,  // measure 4
0000
0000
0000
0000
,  // measure 5
1000
0000
0000
1000
0000
0000
0000
0000
0100
0000
0000
0100
0000
0000
0000
0000
,  // measure 6
0010
0000
0000
0010
0000
0000
0000
0000
0001
0000
0000
0001
0000
0000
0001
0000
,  // measure 7
1000
0000
0000
1000
0000
0000
0000
0000
0001
0000
0000
0001
0000
0000
0000
0000
,  // measure 8
0100
0000
0000
0100
0000
0000
0000
0000
0010
0000
0000
0010
0000
0000
0010
0000
,  // measure 9
1000
0000
0000
1000
0000
0000
0000
0000
0001
0000
0000
0001
0000
0000
0000
0000
,  // measure 10
0010
0000
0000
0010
0000
0000
0000
0000
0100
0000
0000
0100
0000
0000
0100
0000
,  // measure 11
0010
0000
0000
0100
0000
0000
0000
0000
1000
0000
0000
0001
0000
0000
0000
0000
,  // measure 12
0100
0000
0000
0010
0000
0000
0000
0000
1000
0000
0000
0010
0000
0000
0100
0000
,  // measure 13
0001
1000
0001
0000
1000
0001
0010
0000
,  // measure 14
0001
0010
0100
1000
0010
0000
1010
0000
,  // measure 15
1000
0010
0100
0000
0001
0100
0010
0000
,  // measure 16
1000
0001
0010
0100
1000
0000
1100
0000
,  // measure 17
1000
0100
0001
0000
0010
1000
0100
0000
,  // measure 18
0010
0001
0100
0000
0010
0100
0101
0000
,  // measure 19
0100
0010
1000
0000
0001
0010
0100
0000
,  // measure 20
1000
0100
0010
0001
1000
0100
0010
0001
,  // measure 21
0010
0000
0000
0010
0000
0000
0100
0000
0000
0100
0000
0000
1000
0000
0000
0000
,  // measure 22
0000
1000
1000
0001
,  // measure 23
0001
0000
0000
0001
0000
0000
1000
0000
0000
1000
0000
0000
0010
0000
0000
0000
,  // measure 24
0000
0000
0000
0000
0000
0000
0000
0000
0100
0000
0000
0100
0000
0100
0000
0000
,  // measure 25
0010
0000
0000
1000
0000
0000
0010
0000
0000
0001
0000
0000
0010
0000
0000
0000
,  // measure 26
1000
0000
0000
0000
0100
0000
0000
0000
0010
0000
0000
0001
0000
0001
0000
0000
,  // measure 27
0010
0000
0000
0100
0000
0000
0010
0000
0000
0001
0000
0000
0010
0000
0000
0000
,  // measure 28
0001
1001
1000
1001
,  // measure 29
0001
0000
0000
0001
0100
0000
0000
0000
1000
0000
0000
1000
0100
0000
0000
0000
,  // measure 30
0010
0100
1000
0000
0010
0100
0001
0000
,  // measure 31
0100
0000
0000
0100
0010
0000
0000
0000
0010
0000
0000
0010
0100
0000
0000
0000
,  // measure 32
0001
0100
0010
0000
1000
0100
0010
0000
,  // measure 33
0001
0000
0000
0010
0100
0000
0000
0000
1000
0000
0000
0001
1000
0000
0000
0000
,  // measure 34
0100
0010
1000
0000
0010
0100
0001
0000
,  // measure 35
1000
0000
0000
0001
0010
0000
0000
0000
0001
0000
0000
1000
0001
0000
0000
0000
,  // measure 36
0100
0010
0100
0010
1000
0001
1000
0001
,  // measure 37
2100
0001
0010
3001
,  // measure 38
0010
0000
0100
0010
0001
0010
0001
0000
,  // measure 39
0012
0100
1000
0103
,  // measure 40
0010
0000
1000
0000
0100
0010
0001
0000
,  // measure 41
2001
0010
0001
3100
,  // measure 42
1000
0001
0100
0000
0001
0100
0001
0000
,  // measure 43
0102
0010
1000
0013
,  // measure 44
0010
0100
1000
0010
0100
0001
0100
0000
,  // measure 45
0120
0100
1000
0130
,  // measure 46
1000
0000
0100
0010
0001
0000
0010
0000
,  // measure 47
0102
0100
0010
0103
,  // measure 48
0010
0000
0100
1000
0010
1000
1000
0000
,  // measure 49
2001
0100
0001
3010
,  // measure 50
0010
0000
0100
0000
0001
0100
0001
0000
,  // measure 51
1001
0000
0001
1000
0100
0000
1000
0001
,  // measure 52
0100
0010
0100
0000
0010
0100
0010
0000
,  // measure 53
0110
0000
0000
0000
;
