#TITLE:traveling;
#SUBTITLE:;
#ARTIST:宇多田ヒカル;
#TITLETRANSLIT:;
#SUBTITLETRANSLIT:;
#ARTISTTRANSLIT:Utada Hikaru;
#GENRE:Pop;
#CREDIT:chewi;
#BANNER:traveling.png;
#BACKGROUND:traveling-bg.png;
#LYRICSPATH:;
#CDTITLE:cdtitle.png;
#MUSIC:traveling.ogg;
#OFFSET:0.000000;
#SAMPLESTART:65.640999;
#SAMPLELENGTH:15.000000;
#SELECTABLE:YES;
#BPMS:0.000000=117.000000
;
#STOPS:
;
#BGCHANGES:0.000=traveling.avi=1.000=1=0=1===CrossFade==,
191.000=traveling-bg.png=1.000=1=0=1===CrossFade==,
99999=-nosongbg-=1.000=0=0=0 // don't automatically add -songbackground-
;
#KEYSOUNDS:;
#ATTACKS:;

//---------------dance-single - ----------------
#NOTES:
     dance-single:
     :
     Hard:
     9:
     0.334799,0.357031,0.078120,0.146474,0.000000,240.000000,232.000000,8.000000,15.000000,0.000000,0.000000,0.334799,0.357031,0.078120,0.146474,0.000000,240.000000,232.000000,8.000000,15.000000,0.000000,0.000000:
0000
0000
0000
0000
,
0000
0000
0000
0000
,
0000
0000
0000
0000
,
0000
0000
0000
0000
,
0000
0010
1000
0100
0000
1000
0100
1000
,
0000
0100
0010
0100
0000
0010
0001
0010
,
0000
0010
0001
0100
0000
0001
0100
0001
,
0000
0100
0010
0100
0010
1000
0010
1000
,
0100
0000
1000
1000
0000
0010
0100
0001
,
1000
1000
0100
0100
0000
0000
0000
0000
,
0010
0000
0000
0100
0000
0000
1000
0000
,
0001
1100
0101
1100
,
1000
0000
0001
0010
0000
0100
1000
0010
,
0100
0100
0001
0001
0100
0100
0001
0001
,
0100
0000
0000
0010
0000
0000
1000
0000
,
0001
0000
0010
0000
0100
0010
0001
0100
,
0010
0000
1000
0100
0000
1000
0010
0100
,
0001
0001
0010
0010
0000
0000
0000
0000
,
0100
0000
0000
0100
0000
0000
0100
0000
,
1000
1100
0101
1100
,
1000
0000
0001
1000
0000
0010
0100
0001
,
0100
0100
0010
0010
0100
0100
0010
0010
,
1000
0000
0000
0010
0000
0000
1000
0000
,
0100
0010
0011
1100
,
0000
2000
0100
3010
0000
2000
0010
3100
,
0000
2000
0010
3001
0000
2000
0001
3010
,
0000
2000
0010
3100
0000
0020
0100
0031
,
0000
0020
1000
0031
0000
1000
1000
1000
,
0000
0002
0010
0103
0000
0002
0100
0013
,
0000
0002
0100
1003
0000
0002
1000
0103
,
0000
0002
0100
0013
0000
0200
0010
1300
,
0000
0200
0001
1300
0000
0001
0001
0001
,
0001
0010
0100
1000
0100
0000
1000
0000
,
0001
0010
0100
1000
0100
0000
1000
0000
,
1000
0010
0001
0100
,
1000
0010
0001
0010
,
0100
0010
1000
0001
1000
0000
0001
0000
,
0100
0010
1000
0001
1000
0000
0001
0000
,
0001
0100
1000
0010
,
0001
0100
1000
0010
,
1000
0100
0010
0001
1000
0000
0100
0000
,
1000
0100
0010
0001
1000
0000
0100
0000
,
1000
0010
0001
0100
,
1000
0010
0001
0010
,
0001
0010
0100
1000
0100
0000
1000
0000
,
0001
0010
0100
1000
0100
0000
1000
0000
,
1000
0010
0001
0100
,
1000
0010
0001
0100
,
2000
0000
0000
3000
;

//---------------dance-single - ----------------
#NOTES:
     dance-single:
     :
     Medium:
     6:
     0.255284,0.357031,0.019530,0.087885,0.000000,183.000000,181.000000,2.000000,9.000000,0.000000,0.000000,0.255284,0.357031,0.019530,0.087885,0.000000,183.000000,181.000000,2.000000,9.000000,0.000000,0.000000:
0000
0000
0000
0000
,
0000
0000
0000
0000
,
0000
0000
0000
0000
,
0000
0000
0000
0000
,
0000
1000
1000
1000
0000
0001
0001
0001
,
0000
0100
0100
0100
0000
0010
0010
0010
,
0000
0100
0100
0100
0000
0001
0001
0001
,
0000
1000
1000
1000
1001
0000
0110
0000
,
0001
1000
0001
0100
,
0010
0010
0010
0010
0000
0000
0000
0000
,
0010
0000
0000
1000
0000
0000
0001
0000
,
1000
0100
0010
0001
,
0010
0100
1000
0001
,
1000
1000
1000
1000
0000
0000
0000
0000
,
0001
0000
0000
0100
0000
0000
0010
0000
,
0100
0001
0001
0100
,
0010
1000
0100
0010
,
0100
0100
0100
0100
0000
0000
0000
0000
,
0100
0000
0000
1000
0000
0000
0001
0000
,
1000
0001
0100
0100
,
0010
1000
0001
1000
,
0001
0001
0001
0001
0000
0000
0000
0000
,
0001
0000
0000
1000
0000
0000
0100
0000
,
0010
0010
0010
0010
,
0000
0100
0100
0000
0000
1000
1000
0000
,
0000
0010
0010
0000
0000
0100
0100
0000
,
0000
0001
0001
0000
0000
1000
1000
0000
,
0000
0001
0001
0000
0000
1000
1000
1000
,
0000
0100
0100
0000
0000
0010
0010
0000
,
0000
0001
0001
0000
0000
0010
0010
0000
,
0000
0100
0100
0000
0000
1000
1000
0000
,
0001
0001
1000
1000
,
0002
0100
0010
0103
,
0020
0100
0001
0130
,
0001
0100
0010
1000
,
0001
0010
0100
1000
,
2000
0010
0100
3010
,
0020
0100
0001
0130
,
0100
0001
0010
0100
,
1000
0001
1000
0001
,
2000
0010
0100
3010
,
0200
0010
0001
0310
,
0001
0010
0100
1000
,
1000
0100
0010
0001
,
0002
0100
0010
0103
,
0200
0010
1000
0310
,
0010
1000
0100
0010
,
0001
1000
0001
1000
,
0002
0000
0000
0003
;

//---------------dance-single - ----------------
#NOTES:
     dance-single:
     :
     Easy:
     3:
     0.168794,0.190417,0.009765,0.195299,0.000000,121.000000,120.000000,1.000000,20.000000,0.000000,0.000000,0.168794,0.190417,0.009765,0.195299,0.000000,121.000000,120.000000,1.000000,20.000000,0.000000,0.000000:
// measure 0
0000
0000
0000
0000
,  // measure 1
0000
0000
0000
0000
,  // measure 2
0000
0000
0000
0000
,  // measure 3
0000
0000
0000
0000
,  // measure 4
2000
0010
0000
3010
,  // measure 5
0002
0010
0000
0013
,  // measure 6
2000
0010
0000
3010
,  // measure 7
0002
0010
0000
0013
,  // measure 8
0010
0000
0010
0000
,  // measure 9
0010
0100
1000
0000
,  // measure 10
0100
0000
0100
0000
,  // measure 11
0010
0001
0100
0000
,  // measure 12
0001
0000
0001
0000
,  // measure 13
0001
1000
0100
0000
,  // measure 14
0010
0000
0010
0000
,  // measure 15
0010
0001
1000
0000
,  // measure 16
1000
0000
0001
0000
,  // measure 17
1000
0001
0100
0000
,  // measure 18
0100
0000
0100
0000
,  // measure 19
0010
1000
0001
0000
,  // measure 20
1000
0000
1000
0000
,  // measure 21
0001
0010
0100
0000
,  // measure 22
1000
0000
1000
0000
,  // measure 23
0010
0100
0001
0100
,  // measure 24
0200
0000
0320
0000
,  // measure 25
2030
0000
3002
0000
,  // measure 26
0023
0000
0032
0000
,  // measure 27
2003
0000
0001
3001
,  // measure 28
0002
0000
2003
0000
,  // measure 29
3020
0000
0230
0000
,  // measure 30
0320
0000
2030
0000
,  // measure 31
3200
0000
1000
1300
,  // measure 32
1000
0100
1000
0000
,  // measure 33
0001
0100
0001
0000
,  // measure 34
1000
0010
1000
0000
,  // measure 35
0001
0010
0001
0000
,  // measure 36
0001
0010
0001
0000
,  // measure 37
1000
0010
1000
0000
,  // measure 38
1000
0100
1000
0000
,  // measure 39
0001
0100
0001
0000
,  // measure 40
0100
0010
0100
0000
,  // measure 41
0010
0100
0010
0000
,  // measure 42
1000
0001
1000
0000
,  // measure 43
0001
1000
0001
0000
,  // measure 44
1000
0100
1000
0000
,  // measure 45
0100
0010
0100
0000
,  // measure 46
0010
0001
0010
0000
,  // measure 47
0001
0010
0001
0000
,  // measure 48
2002
0000
0000
3003
;

//---------------dance-single - ----------------
#NOTES:
     dance-single:
     :
     Beginner:
     1:
     0.087885,0.140615,0.097650,0.039060,0.000000,63.000000,53.000000,10.000000,4.000000,0.000000,0.000000,0.087885,0.140615,0.097650,0.039060,0.000000,63.000000,53.000000,10.000000,4.000000,0.000000,0.000000:
0000
0000
0000
0000
,
0000
0000
0000
0000
,
0000
0000
0000
0000
,
0000
0000
0000
0000
,
0010
0000
0000
0000
,
0100
0000
0000
0000
,
0010
0000
0000
0000
,
0100
0000
0000
0000
,
1001
0000
0000
0000
,
1000
0000
0000
0000
,
0001
0000
0000
0000
,
1000
0000
0000
0000
,
0110
0000
0000
0000
,
0010
0000
0000
0000
,
0100
0000
0000
0000
,
0010
0000
0000
0000
,
1000
0000
0000
0000
,
0100
0000
0000
0000
,
0010
0000
0000
0000
,
0001
0000
0000
0000
,
0001
0000
0000
0000
,
0100
0000
0000
0000
,
0010
0000
0000
0000
,
1000
0000
0000
0000
,
2000
0000
0000
3000
,
1000
0000
0000
0000
,
0002
0000
0000
0003
,
0001
0000
0000
0000
,
0020
0000
0000
0030
,
0010
0000
0000
0000
,
0200
0000
0000
0300
,
0100
0000
0000
0000
,
0110
0000
0000
0000
,
0110
0000
0000
0000
,
0010
0000
0010
0000
,
0100
0000
0100
0000
,
1001
0000
0000
0000
,
1001
0000
0000
0000
,
0001
0000
0001
0000
,
1000
0000
1000
0000
,
0110
0000
0000
0000
,
0110
0000
0000
0000
,
0100
0000
0100
0000
,
0010
0000
0010
0000
,
1001
0000
0000
0000
,
1001
0000
0000
0000
,
1000
0000
1000
0000
,
0001
0000
0001
0000
,
0001
0000
0000
0000
;
