#TITLE:the Time is Now;
#SUBTITLE:;
#ARTIST:capsule;
#TITLETRANSLIT:;
#SUBTITLETRANSLIT:;
#ARTISTTRANSLIT:;
#GENRE:;
#CREDIT:Chewi☆;
#MENUCOLOR:;
#METERTYPE:DDR X;
#BANNER:the Time is Now.png;
#BACKGROUND:the Time is Now-bg.png;
#LYRICSPATH:;
#CDTITLE:;
#MUSIC:the Time is Now.mp3;
#OFFSET:-0.038;
#SAMPLESTART:82.534;
#SAMPLELENGTH:15.000;
#SELECTABLE:YES;
#LISTSORT:;
#DISPLAYBPM:128.000;
#BPMS:0.000=128.000;
#STOPS:;
#BGCHANGES:;
#ATTACKS:;

//---------------dance-single - Chewi----------------
#NOTES:
     dance-single:
     Chewi:
     Beginner:
     1:
     0.082,0.150,0.050,0.000,0.000: // measure 1
0000
0000
0000
0000
,  // measure 2
0000
0000
0000
0000
,  // measure 3
0000
0000
0000
0000
,  // measure 4
0000
0000
0000
0000
,  // measure 5
1000
0000
0000
0000
,  // measure 6
0001
0000
0000
0000
,  // measure 7
1000
0000
0000
0000
,  // measure 8
0001
0000
0000
0000
,  // measure 9
0100
0000
0000
0000
,  // measure 10
0010
0000
0000
0000
,  // measure 11
0100
0000
0000
0000
,  // measure 12
0010
0000
0000
0000
,  // measure 13
1001
0000
0000
0000
,  // measure 14
1000
0000
0000
0000
,  // measure 15
0100
0000
0000
0000
,  // measure 16
0010
0000
0000
0000
,  // measure 17
0001
0000
0000
0000
,  // measure 18
1000
0000
0000
0000
,  // measure 19
0010
0000
0000
0000
,  // measure 20
0100
0000
0000
0000
,  // measure 21
0001
0000
0000
0000
,  // measure 22
0001
0000
0000
0000
,  // measure 23
1000
0000
0000
0000
,  // measure 24
1000
0000
0000
0000
,  // measure 25
1001
0000
0000
0000
,  // measure 26
0100
0100
0000
0000
,  // measure 27
0110
0000
0000
0000
,  // measure 28
1000
1000
0000
0000
,  // measure 29
1001
0000
0000
0000
,  // measure 30
0000
0000
0000
0000
,  // measure 31
0100
0000
0000
0000
,  // measure 32
0000
0000
0000
0000
,  // measure 33
0010
0000
0000
0000
,  // measure 34
0000
0000
0000
0000
,  // measure 35
1000
0000
0000
0000
,  // measure 36
0000
0000
0000
0000
,  // measure 37
0001
0000
0000
0000
,  // measure 38
0001
0000
0000
0000
,  // measure 39
1000
0000
0000
0000
,  // measure 40
1000
0000
0000
0000
,  // measure 41
0001
0000
0000
0000
,  // measure 42
0010
0000
0000
0000
,  // measure 43
0100
0000
0000
0000
,  // measure 44
1001
0000
0000
0000
,  // measure 45
1000
1000
1000
0000
,  // measure 46
1000
0000
0000
0000
,  // measure 47
0001
0001
0001
0000
,  // measure 48
0001
0000
0000
0000
,  // measure 49
0010
0010
0010
0000
,  // measure 50
0010
0000
0000
0000
,  // measure 51
0100
0100
0100
0000
,  // measure 52
0100
0000
0000
0000
,  // measure 53
1000
0000
0000
0000
,  // measure 54
0100
0000
0000
0000
,  // measure 55
0001
0000
0000
0000
,  // measure 56
0010
0000
0000
0000
,  // measure 57
1000
0000
0000
0000
,  // measure 58
0010
0000
0000
0000
,  // measure 59
0001
0000
0000
0000
,  // measure 60
0100
0000
0000
0000
,  // measure 61
1001
0000
0000
0000
;

//---------------dance-single - Chewi----------------
#NOTES:
     dance-single:
     Chewi:
     Easy:
     4:
     0.176,0.250,0.050,0.158,0.000:
0000
0000
0000
0000
,
0000
0000
0000
0000
,
0000
0000
0000
0000
,
0000
0000
0000
0000
,
2000
0000
0000
3000
,
1000
0001
1000
0000
,
0002
0000
0000
0003
,
0001
1000
0001
0000
,
0200
0000
0000
0300
,
0010
0100
0010
0000
,
0020
0000
0000
0030
,
0010
0100
0010
0000
,
1001
0000
1000
0000
,
0100
0000
0001
0000
,
0100
0000
1000
0000
,
0010
0000
0001
0000
,
0010
0000
0100
0000
,
0010
0000
0100
0000
,
0001
0000
1000
0000
,
0010
0000
0100
0000
,
1001
0000
1000
1000
,
1000
0000
0001
0001
,
0001
0000
0100
0100
,
0100
0000
0010
0010
,
0010
0000
0010
0010
,
0010
0000
0100
0100
,
0100
0000
0001
0001
,
0001
0000
1000
1000
,
2000
0000
0000
3000
,
0200
0000
0000
0300
,
2000
0000
0000
3000
,
0200
0000
0000
0300
,
0002
0000
0000
0003
,
0200
0000
0000
0300
,
0002
0000
0000
0003
,
0200
0000
0000
0300
,
0020
0000
0000
0030
,
0200
0000
0000
0300
,
0002
0000
0000
0003
,
2000
0000
0000
3000
,
0200
0000
0000
0000
,
0000
0000
0000
0300
,
0020
0000
0000
0000
,
0000
0000
0000
0030
,
0001
0010
0001
0010
,
0001
0010
0001
0010
,
1000
0010
1000
0010
,
1000
0010
1000
0010
,
1000
0100
1000
0100
,
1000
0100
1000
0100
,
0001
0100
0001
0100
,
0001
0100
0001
0100
,
0110
0010
0010
0010
,
0010
0000
0000
0000
,
1001
0001
0001
0001
,
0001
0000
0000
0000
,
0110
0010
0010
0010
,
0010
0000
0000
0000
,
1001
1000
1000
1000
,
2000
0000
0000
3000
,
0001
0000
0000
0000
;

//---------------dance-single - Chewi----------------
#NOTES:
     dance-single:
     Chewi:
     Medium:
     8:
     0.292,0.325,0.158,0.133,0.000:
0000
0000
0000
0000
,
0000
0000
0000
0000
,
0000
0000
0000
0000
,
0000
0000
0000
0000
,
1000
0001
0100
0010
,
1000
0001
0010
0100
,
1000
0100
0001
0010
,
1000
0100
0001
0010
,
1000
0010
0100
0001
,
0001
0100
0010
1000
,
0001
1000
0100
0010
,
0001
0100
1000
0010
,
0200
0010
0001
0310
,
0010
1000
0010
0000
0100
0001
0100
0000
,
0200
0001
0010
0301
,
0010
0100
0010
0000
0010
0100
0010
0000
,
0020
1000
0100
1030
,
1000
0001
1000
0000
0001
0100
0001
0000
,
0200
0001
0010
0301
,
0010
0001
1000
0000
0010
1000
0001
0000
,
1001
0000
0100
0000
0010
0100
0010
0000
,
1001
0000
0100
0000
0010
0100
0010
0000
,
0001
0100
1000
0100
,
1000
0100
0001
0100
,
0010
1010
0010
0110
,
0010
0011
0010
0110
,
0100
1000
0001
0000
0100
0001
1000
0000
,
0010
0100
0001
1000
,
2002
0000
0000
3000
,
0200
0000
0000
0003
,
0020
0000
0000
0300
,
2000
0000
0000
0030
,
0002
0000
0000
3000
,
0020
0000
0000
0003
,
0200
0000
0000
0030
,
2000
0000
0000
0000
0000
0000
0000
3300
,
0001
1000
0001
1000
,
0010
0100
0010
0100
,
0001
1000
0001
0000
1000
0001
1000
0000
,
0100
0100
0100
0000
,
0010
0100
0010
0100
,
1000
0010
1000
0010
,
0001
0010
0001
0010
,
2002
0000
0000
3003
,
0100
0000
1000
0000
0100
0001
0010
0000
,
0100
0100
0100
0100
,
0010
0000
0001
0000
0010
1000
0100
0000
,
0010
0010
0010
0010
,
0100
0011
0100
1010
,
1000
0001
1000
0001
,
0010
0101
0010
1100
,
0002
0000
1000
0013
,
1000
1100
0001
0101
,
0100
0010
1000
0001
,
0010
1100
0010
0101
,
0100
0010
0100
0010
,
1000
1100
0001
0101
,
1000
0001
0010
0001
,
0100
0010
1000
0001
,
0000
1000
0000
1000
0001
0000
0000
0000
,
1001
0000
0000
0000
;

//---------------dance-single - Chewi----------------
#NOTES:
     dance-single:
     Chewi:
     Hard:
     12:
     0.439,0.424,0.050,0.250,0.058:
0000
0000
0000
0000
,
0000
0000
0000
0000
,
0000
0000
0000
0000
,
0000
0000
0000
0000
,
0010
0100
0010
0100
0010
0100
0010
0100
,
0001
1000
0001
1000
0001
1000
0001
1000
,
0100
0010
0100
0010
0100
0010
0100
0010
,
0001
1000
0001
1000
0001
1000
0001
1000
,
0001
0100
0010
1000
0001
0100
0010
1000
,
0001
0010
0100
1000
0001
0010
0100
1000
,
0010
1000
0100
0010
1000
0100
0010
0100
,
0001
0010
0100
0001
0010
0100
0001
0010
,
0100
2000
0000
0000
0000
3001
1000
0001
,
0010
0000
0100
1000
0010
0100
0001
0010
,
0100
0100
0100
0010
0001
0100
0010
0100
,
0001
1000
0001
0100
0010
1000
0001
0010
,
0100
0100
0010
0010
0001
1000
0001
1000
,
0010
0010
0100
0100
0001
1000
0001
1000
,
0001
0010
0001
0100
0001
0010
0001
0100
,
0010
1000
0100
1000
0010
1000
0100
1000
,
0020
0000
0130
0000
0001
1000
0001
1000
,
0002
0000
1003
0000
0100
1000
0100
1000
,
0200
0000
1300
0000
1000
0010
0100
0001
,
0200
0000
0310
0000
0100
0001
0010
0100
,
1000
0010
1000
0000
0001
0010
0001
0000
,
1000
0100
1000
0000
0001
0100
0001
0000
,
1010
0011
1010
0011
,
0010
1000
0100
0001
0100
1000
0001
0100
,
0020
1000
2000
0030
,
0001
0010
0002
3000
,
0010
0100
1000
0010
,
1000
1000
2000
0003
,
0010
0100
0002
3000
,
0100
0100
0020
0003
,
1000
0100
0001
0100
,
1000
0100
0200
0030
,
1000
0001
2000
0300
,
0010
0001
0200
3000
,
0001
1000
0001
0010
,
0001
0010
0020
0300
,
2030
0001
0010
3100
,
0002
0000
0010
0000
0100
0000
1003
1000
,
2000
0100
3200
0010
0320
0001
0032
0010
,
0023
0000
0000
0000
,
0230
0000
0000
0000
0302
0000
0000
0000
0013
0001
0000
0000
0001
0000
0000
0000
,
0001
0010
0100
1000
0001
0010
0100
1000
,
0020
0000
0000
0000
2030
0000
0000
0000
3100
0001
0000
0000
0010
0000
0000
0000
,
0100
0010
0100
0010
1000
0001
1000
0001
,
0020
0000
0000
0000
0032
0000
0000
0000
0103
1000
0000
0000
0010
0000
0000
0000
,
0100
0010
0100
0010
1000
0001
1000
0001
,
0020
0000
0000
0000
0230
0000
0000
0000
1300
0100
0000
0000
0100
0000
0000
0000
,
1000
0010
0001
0010
1000
0100
0001
0100
,
1000
0000
0000
0000
0010
0000
0000
0000
0001
0100
0000
0100
0001
0000
0000
0000
,
0010
0100
1000
0010
0100
1000
0010
0100
,
0001
0000
0000
0000
0010
0000
0000
0000
0010
0100
0000
0100
0010
0000
0000
0000
,
1000
0010
0100
0001
0100
0010
1000
0001
,
0010
0000
0000
0000
0001
0000
0000
0000
0001
0010
0000
0010
0001
0000
0000
0000
,
0001
0100
0010
0100
0001
0010
0100
1000
,
0010
0000
0000
0000
1000
0000
0000
0000
0100
0001
0000
0100
1000
0000
0000
0000
,
0000
0000
1000
0000
0000
1000
0000
1001
0000
0000
0000
0000
0000
0000
0000
0000
,
0110
0000
0000
0000
;

//---------------dance-double - Chewi----------------
#NOTES:
     dance-double:
     Chewi:
     Hard:
     12:
     0.476,0.449,0.133,0.042,0.033:
00000000
00000000
00000000
00000000
,
00000000
00000000
00000000
00000000
,
00000000
00000000
00000000
00000000
,
00000000
00000000
00000000
00000000
,
10000000
01000000
00100000
00010000
10000000
01000000
00100000
00010000
,
01000000
00100000
01000000
00100000
01000000
00100000
01000000
00100000
,
01000000
00010000
00100000
00001000
00010000
00000100
00001000
00000001
,
00000100
00000001
00000100
00000001
00000100
00000001
00000100
00000001
,
00000100
00000010
00001000
00000100
00000010
00000100
00001000
00000010
,
00001000
00000100
00010000
00001000
00100000
00010000
01000000
00010000
,
00100000
01000000
10000000
00100000
01000000
00010000
01000000
00100000
,
10000000
01000000
00100000
00010000
01000000
00010000
00100000
00001000
,
00010000
00022000
00000000
00000000
00033000
00010000
00001000
00000010
,
00001000
00000000
00000010
00001000
00000100
00000001
00000010
00001000
,
00000100
00000100
00010000
00001000
00010000
00001000
00100000
00010000
,
01000000
00010000
00100000
01000000
10000000
00100000
01000000
00010000
,
00100000
01000000
10000000
00010000
01000000
00100000
01000000
00010000
,
00100000
00001000
00010000
00000100
00001000
00000001
00000100
00000010
,
00001000
00000001
00000010
00000100
00001000
00000001
00000100
00000010
,
00001000
00000001
00001000
00000001
00000010
00000100
00000010
00000100
,
00000011
00000000
00000100
00000000
00000001
00001000
00000100
00010000
,
00001000
00000000
00001000
00000000
00001000
00010000
00100000
10000000
,
10010000
00000000
00100000
00000000
01000000
10000000
00100000
01000000
,
00010000
00000000
00100000
00000000
00010000
01000000
00100000
10000000
,
00010000
00100000
00001000
00000000
00100000
00001000
00010000
00000000
,
00010000
00001000
00010000
00000000
00010000
00001000
00000010
00000000
,
00000010
00001000
00000010
00000000
00001000
00000001
00001000
00000000
,
00000001
00000010
00000100
00001000
00000010
00000100
00000001
00000010
,
00000100
00001000
00000100
00010000
00001000
00000000
00000000
00000000
,
00001000
00010000
01000000
00010000
01000000
00000000
00000000
00000000
,
00010000
01000000
10000000
00100000
00010000
00100000
10000000
01000000
,
00100000
00100000
01000000
01000000
00100000
00000000
00000000
00000000
,
00100000
00010000
00001000
00000010
00001000
00000000
00000000
00000000
,
00000010
00001000
00010000
01000000
10000000
00000000
00000000
00000000
,
10000000
00100000
00010000
00100000
10000000
00100000
00010000
01000000
,
00010000
00100000
00001000
00010000
00000010
00001000
00000010
00000000
,
00001000
00000010
00000001
00000100
00001000
00000000
00000100
00000000
,
00001000
00000100
00010000
00001000
00100000
00000000
00100000
00000000
,
00100000
00010000
01000000
00010000
00100000
00010000
01000000
00100000
,
10000000
00010000
00100000
01000000
10000000
00000000
00000000
00000000
,
10000000
01000000
00100000
00010000
02000000
00000000
03100000
00000000
,
00010000
00100000
01000000
10000000
00200000
00000000
01300000
00000000
,
01000000
00010000
00100000
00001000
00010000
00000100
00001000
00000010
,
00000200
00000000
00000000
00000000
,
00000310
00000000
00000000
00000000
00001010
00000000
00000000
00000000
00001000
00000100
00000000
00000100
00001000
00000000
00000000
00000000
,
00000100
00010000
00001000
00100000
00010000
01000000
00100000
10000000
,
10100000
00000000
00000000
00000000
01010000
00000000
00000000
00000000
01000000
00010000
00000000
00010000
01000000
00000000
00000000
00000000
,
01000000
00100000
10000000
00010000
00100000
01000000
10000000
01000000
,
00110000
00000000
00000000
00000000
01010000
00000000
00000000
00000000
00110000
00000000
00000000
00010000
00100000
00000000
00000000
00000000
,
00100000
00010000
00001000
00010000
00001000
00000100
00001000
00000000
,
00001000
00000000
00000000
00000000
00001100
00000000
00000000
00000000
00000101
00000000
00000000
00000100
00000001
00000000
00000000
00000000
,
00000001
00000100
00000010
00001000
00000001
00000010
00000100
00000000
,
00001001
00001000
00000010
00000100
00000001
00000100
00001000
00000100
,
00000001
00000000
00000100
00000010
00001000
00000100
00010000
00001000
,
00100000
00010000
01000000
00010000
00100000
00001000
00010000
00001000
,
00010000
00000100
00010000
00001000
00000010
00001000
00000100
00001000
,
00000010
00000100
00000001
00000010
00000100
00001000
00000010
00001000
,
00000100
00010000
00001000
00100000
00010000
01000000
00100000
10000000
,
00010000
00100000
01000000
10000000
00010000
00100000
01000000
10000000
,
00000000
00000000
10010000
00000000
00000000
01010000
00000000
01010000
00000000
00000000
00000000
00000000
00000000
00000000
00000000
00000000
,
01100000
00000000
00000000
00000000
;

//---------------dance-double - Chewi----------------
#NOTES:
     dance-double:
     Chewi:
     Medium:
     9:
     0.326,0.350,0.208,0.033,0.000:
00000000
00000000
00000000
00000000
,
00000000
00000000
00000000
00000000
,
00000000
00000000
00000000
00000000
,
00000000
00000000
00000000
00000000
,
10000000
00000000
00010000
00000000
,
00100000
01000000
00100000
00000000
01000000
00100000
01000000
00000000
,
00100000
00000000
00001000
00000000
,
00001000
00010000
00001000
00000000
00010000
00001000
00010000
00000000
,
00001000
00000000
00000001
00000000
,
00000010
00000100
00000010
00000000
00000100
00000010
00000100
00000000
,
00001000
00000000
00000100
00000000
,
00001000
00000100
00001000
00000000
00000100
00001000
00000100
00000000
,
00000000
00011000
00000000
00000000
00000000
00001000
00010000
00000000
,
01000000
10000000
01000000
00010000
,
00100000
00100000
00100000
00000000
01000000
00000000
00100000
00000000
,
00010000
00010000
00010000
00000000
10000000
00000000
00100000
00000000
,
01000000
00010000
00100000
00001000
,
00010000
00000100
00001000
00000001
,
00000100
00000010
00001000
00000001
,
00000010
00000100
00001000
00000001
,
00000100
00000000
00000110
00000000
00000010
00000010
00000010
00000000
,
00001000
00000000
00000100
00000000
00010000
00001000
00010000
00000000
,
00001000
00000000
00010000
00000000
00100000
00100000
00100000
00000000
,
10000000
00000000
00010000
00000000
10000000
01000000
10000000
00000000
,
00010000
00110000
10000000
10100000
,
01000000
01010000
00100000
00110000
,
00100000
00101000
00010000
00011000
,
00010000
00010100
00000100
00000110
,
00000010
00000001
00002000
00003000
,
00000010
00000010
00000020
00000030
,
00000100
00000010
00000100
00000000
00000001
00001000
00000001
00000000
,
00001001
00001000
00000001
00000000
,
00001000
00010000
00001000
00000000
00010000
00000000
00000000
00000000
,
00010000
00001000
00010000
00000000
00001000
00000000
00000000
00000000
,
00011000
00010000
00011000
00010000
,
01000000
10000000
11000000
00000000
,
10000000
00000000
00100000
00000000
00100000
01000000
00010000
00000000
,
00100000
00000000
01000000
00000000
00100000
01000000
10000000
00000000
,
00100000
01000000
00010000
00100000
,
00001000
00100000
00001000
00010000
00001000
00000000
00000000
00000000
,
00010000
00001000
00000010
00001010
,
00000010
00001000
00010000
01010000
,
00010000
00001000
00010000
00000000
00001000
00010000
00001000
00000000
,
00022000
00000000
00000000
00033000
,
00010000
00001000
00000010
00000010
,
00001000
00000001
00001000
00000001
00001000
00000001
00001000
00000000
,
00000001
00000100
00001000
00001000
,
00001000
00000100
00001000
00000100
00001000
00000100
00001000
00000000
,
00000100
00010000
00001000
00010000
,
00001000
00010000
00001000
00010000
00001000
00010000
00001000
00000000
,
00001000
00100000
01000000
00100000
,
00010000
01000000
00100000
10000000
,
10010000
00000000
00100000
00000000
01000000
00100000
00010000
00000000
,
10000000
10000000
10000000
10000000
00100000
01000000
00100000
00000000
,
01000000
00010000
00110000
00010000
,
00100000
00100000
00100000
00100000
00010000
00100000
00010000
00000000
,
00100000
00001000
00010000
00011000
,
00010000
00000100
00001000
00001001
,
00000110
00001000
00001010
00000010
,
00000100
00000000
00000100
00000101
,
00001001
00000000
00000000
00000000
;

//---------------dance-double - Chewi----------------
#NOTES:
     dance-double:
     Chewi:
     Easy:
     5:
     0.226,0.250,0.075,0.117,0.000:
00000000
00000000
00000000
00000000
,
00000000
00000000
00000000
00000000
,
00000000
00000000
00000000
00000000
,
00000000
00000000
00000000
00000000
,
00100000
00000000
10000000
00000000
,
01000000
01000000
01000000
00000000
,
00100000
00000000
00010000
00000000
,
01000000
01000000
01000000
00000000
,
00010000
00000000
00011000
00000000
,
00010000
00001000
00010000
00000000
,
00001000
00000000
00001010
00000000
,
00000010
00001000
00000010
00000000
,
00000220
00000000
00000000
00000330
,
00000010
00001000
00000100
00000000
,
00000100
00001000
00000100
00000000
,
00001000
00010000
00001000
00000000
,
00010000
01000000
00010000
00000000
,
01000000
10000000
01000000
00000000
,
10000000
00100000
10000000
00000000
,
00010000
00100000
00010000
00000000
,
00100000
00001000
00010000
00000000
,
00010000
00001000
00010000
00000000
,
00010000
00000100
00000100
00000000
,
00001000
00000001
00001000
00000000
,
00000010
00000000
00000110
00000000
,
00000100
00000000
00000110
00000000
,
00001000
00000001
00001000
00000001
,
00001000
00001000
00001000
00001000
,
00002000
00000000
00000000
00003000
,
00001000
00010000
00002000
00000000
,
00013000
00001000
00020000
00000000
,
01030000
01000000
01000000
00000000
,
10000000
00010000
20000000
00000000
,
30010000
00100000
00200000
00000000
,
00310000
00001000
00020000
00000000
,
00031000
00001000
00002000
00000000
,
00003010
00001000
00000010
00000000
,
00000010
00000001
00000010
00000000
,
00000001
00000100
00001000
00000100
,
00000001
00001000
00001001
00000000
,
00002002
00000000
00000000
00003003
,
00000020
00000000
00000000
00000000
,
00002030
00000000
00000000
00000000
,
00023000
00000000
00000000
00030000
,
00010000
00001000
00010000
00010000
,
00010000
01000000
10000000
01000000
,
00010000
10000000
00010000
00010000
,
10000000
00100000
00010000
00100000
,
01000000
00100000
00010000
00001000
,
00000010
00000001
00000100
00001000
,
00000001
00000100
00001000
00000100
,
00000001
00001000
00000001
00001000
,
00000001
00000100
00001000
00010000
,
00100000
10000000
01000000
00010000
,
00100000
00100000
01000000
01000000
,
00100000
01000000
00100000
01000000
,
10000000
01000000
00100000
00010000
,
00001000
00000100
00000010
00000001
,
00001000
00000001
00000100
00000010
,
00000110
00000000
00000000
00000000
,
00011000
00000000
00000000
00000000
;
