#TITLE:starmine;
#SUBTITLE:;
#ARTIST:Ryu☆;
#TITLETRANSLIT:;
#SUBTITLETRANSLIT:;
#ARTISTTRANSLIT:;
#GENRE:;
#CREDIT:Chewi☆;
#MENUCOLOR:#FF99FF;
#METERTYPE:DDR X;
#BANNER:starmine.png;
#BACKGROUND:starmine-bg.png;
#LYRICSPATH:;
#CDTITLE:;
#MUSIC:starmine.mp3;
#OFFSET:-1.719;
#SAMPLESTART:33.372;
#SAMPLELENGTH:15.000;
#SELECTABLE:YES;
#LISTSORT:;
#DISPLAYBPM:182.000;
#BPMS:0.000=182.000;
#STOPS:;
#BGCHANGES:;
#ATTACKS:;

//---------------dance-single - Chewi----------------
#NOTES:
     dance-single:
     Chewi:
     Beginner:
     2:
     0.101,0.177,0.028,0.000,0.000: // measure 1
0000
0000
0000
0000
,  // measure 2
0000
0000
0000
0000
,  // measure 3
0000
0000
0000
0000
,  // measure 4
0000
0000
0000
0000
,  // measure 5
1000
0000
0000
0000
,  // measure 6
0001
0000
0000
0000
,  // measure 7
0100
0000
0000
0000
,  // measure 8
0010
0000
0000
0000
,  // measure 9
1000
0000
0000
0000
,  // measure 10
0001
0000
0000
0000
,  // measure 11
0010
0000
0000
0000
,  // measure 12
0100
0000
0000
0000
,  // measure 13
0010
0000
0000
0000
,  // measure 14
0001
0000
0000
0000
,  // measure 15
1000
0000
0000
0000
,  // measure 16
0010
0000
0000
0000
,  // measure 17
0100
0000
0000
0000
,  // measure 18
0010
0000
0000
0000
,  // measure 19
1000
0000
0000
0000
,  // measure 20
0001
0000
0000
0000
,  // measure 21
1000
0000
0000
0000
,  // measure 22
0100
0000
0000
0000
,  // measure 23
0010
0000
0000
0000
,  // measure 24
0001
0000
0000
0000
,  // measure 25
1000
0000
0000
0000
,  // measure 26
1000
0000
0000
0000
,  // measure 27
0001
0000
0000
0000
,  // measure 28
0001
0000
0000
0000
,  // measure 29
1000
0000
0000
0000
,  // measure 30
1000
0000
0000
0000
,  // measure 31
0010
0000
0000
0000
,  // measure 32
0010
0000
0000
0000
,  // measure 33
1000
0000
0000
0000
,  // measure 34
1000
0000
0000
0000
,  // measure 35
0001
0000
0000
0000
,  // measure 36
0001
0000
0000
0000
,  // measure 37
1000
0000
0000
0000
,  // measure 38
1000
0000
0000
0000
,  // measure 39
0001
0000
0000
0000
,  // measure 40
0001
0000
0000
0000
,  // measure 41
0001
0000
0000
0000
,  // measure 42
1000
0000
0000
0000
,  // measure 43
0010
0000
0000
0000
,  // measure 44
0100
0000
0000
0000
,  // measure 45
0010
0000
0000
0000
,  // measure 46
1000
0000
0000
0000
,  // measure 47
0100
0000
0000
0000
,  // measure 48
0001
0000
0000
0000
,  // measure 49
0010
0000
0000
0000
,  // measure 50
0100
0000
0000
0000
,  // measure 51
0010
0000
0000
0000
,  // measure 52
0001
0000
0000
0000
,  // measure 53
0001
0000
0000
0000
,  // measure 54
0001
0000
0000
0000
,  // measure 55
1001
0000
0000
0000
,  // measure 56
0110
0000
0000
0000
,  // measure 57
1000
0000
0000
0000
,  // measure 58
0100
0000
0000
0000
,  // measure 59
1000
0000
0000
0000
,  // measure 60
0010
0000
0000
0000
,  // measure 61
0100
0000
0000
0000
,  // measure 62
0001
0000
0000
0000
,  // measure 63
1000
0000
0000
0000
,  // measure 64
1000
0000
0000
0000
,  // measure 65
1000
0000
0000
0000
,  // measure 66
1000
0000
0000
0000
,  // measure 67
0001
0000
0000
0000
,  // measure 68
0001
0000
0000
0000
,  // measure 69
0001
0000
0000
0000
,  // measure 70
0001
0000
0000
0000
,  // measure 71
1000
0000
0000
0000
,  // measure 72
1000
0000
0000
0000
,  // measure 73
0001
0000
0000
0000
,  // measure 74
0001
0000
0000
0000
,  // measure 75
0100
0000
0000
0000
,  // measure 76
0100
0000
0000
0000
,  // measure 77
0110
0000
0000
0000
;

//---------------dance-single - Chewi----------------
#NOTES:
     dance-single:
     Chewi:
     Easy:
     6:
     0.293,0.359,0.047,0.168,0.000: // measure 1
0000
0000
0000
0000
,  // measure 2
0000
0000
0000
0000
,  // measure 3
0000
0000
0000
0000
,  // measure 4
0000
0000
0000
0000
,  // measure 5
1000
1000
1000
0000
,  // measure 6
0001
0001
0001
0000
,  // measure 7
0100
0100
0100
0000
,  // measure 8
0010
0010
0010
0000
,  // measure 9
2000
0000
0000
3000
,  // measure 10
0002
0000
0000
0003
,  // measure 11
0020
0000
0000
0030
,  // measure 12
0200
0000
0000
0300
,  // measure 13
0020
0000
0000
0030
,  // measure 14
0002
0000
0000
0003
,  // measure 15
2000
0000
0000
3000
,  // measure 16
0020
0000
0000
0030
,  // measure 17
0100
0100
0100
0000
,  // measure 18
0010
0010
0010
0000
,  // measure 19
1000
1000
1000
0000
,  // measure 20
0001
0001
0001
0000
,  // measure 21
1000
1000
1000
0000
,  // measure 22
0100
0100
0100
0000
,  // measure 23
0010
0010
0010
0000
,  // measure 24
0001
0001
0001
0000
,  // measure 25
1000
0100
0001
0100
,  // measure 26
1000
0100
0001
0000
,  // measure 27
0001
0010
1000
0010
,  // measure 28
0001
0010
1000
0000
,  // measure 29
1000
0001
1000
0001
,  // measure 30
1000
0001
1000
0000
,  // measure 31
0010
0100
0010
0100
,  // measure 32
0010
0100
0010
0000
,  // measure 33
1000
0010
0001
0010
,  // measure 34
1000
0010
0001
0000
,  // measure 35
0001
0100
1000
0100
,  // measure 36
0001
0100
1000
0000
,  // measure 37
1000
0100
1000
0100
,  // measure 38
1000
0100
1000
0000
,  // measure 39
0001
0010
0001
0010
,  // measure 40
0001
0010
0001
0000
,  // measure 41
0002
0000
0000
0003
,  // measure 42
2000
0000
0000
3000
,  // measure 43
0020
0000
0000
0030
,  // measure 44
0200
0000
0000
0300
,  // measure 45
0010
0010
0010
0000
,  // measure 46
1000
1000
1000
0000
,  // measure 47
0100
0100
0100
0000
,  // measure 48
0001
0001
0001
0000
,  // measure 49
0010
0010
0010
0000
,  // measure 50
0100
0100
0100
0000
,  // measure 51
0010
0010
0010
0000
,  // measure 52
0001
0001
0001
0000
,  // measure 53
0001
0001
1000
1000
,  // measure 54
0001
0001
1000
1000
,  // measure 55
1001
0000
0110
0000
,  // measure 56
0110
0000
1001
0000
,  // measure 57
2000
0000
0000
3000
,  // measure 58
0200
0000
0000
0300
,  // measure 59
2000
0000
0000
3000
,  // measure 60
0020
0000
0000
0030
,  // measure 61
0100
0100
0100
0000
,  // measure 62
0001
0100
0001
0000
,  // measure 63
1000
1000
1000
0000
,  // measure 64
1000
0100
1000
0000
,  // measure 65
1000
1000
1000
0000
,  // measure 66
1000
0001
1000
0000
,  // measure 67
0001
0001
0001
0000
,  // measure 68
0001
0100
0001
0000
,  // measure 69
0001
0100
1000
0100
,  // measure 70
0001
0100
1000
0000
,  // measure 71
1000
0010
0001
0010
,  // measure 72
1000
0010
0001
0000
,  // measure 73
0001
1000
0001
1000
,  // measure 74
0001
1000
0001
0000
,  // measure 75
0100
0010
0100
0010
,  // measure 76
0100
0010
0100
0000
,  // measure 77
0220
0000
0000
0000
,  // measure 78
0330
0000
0000
0000
;

//---------------dance-single - Chewi----------------
#NOTES:
     dance-single:
     Chewi:
     Medium:
     9:
     0.406,0.502,0.363,0.121,0.000: // measure 1
0000
0000
0000
0000
,  // measure 2
0000
0000
0000
0000
,  // measure 3
0000
0000
0000
0000
,  // measure 4
0000
0000
0000
0000
,  // measure 5
1000
1000
1000
1000
,  // measure 6
0001
0001
0001
0001
,  // measure 7
0100
0100
0100
0100
,  // measure 8
0010
0010
0010
0010
,  // measure 9
2010
0000
0000
0000
,  // measure 10
3002
0000
0000
0000
,  // measure 11
0023
0000
0000
0000
,  // measure 12
0230
0000
0000
0000
,  // measure 13
2300
0000
0000
0000
,  // measure 14
0002
3000
0000
0000
0000
0000
0000
0000
,  // measure 15
0203
0000
0000
0000
,  // measure 16
0320
0000
0000
0000
,  // measure 17
1030
0000
0001
0000
1000
0000
0000
0001
,  // measure 18
0000
1000
0000
0001
1000
0000
0001
0000
,  // measure 19
0010
0000
0100
0000
0010
0000
0000
0100
,  // measure 20
0000
0010
0000
0100
0010
0000
0100
0000
,  // measure 21
1000
0000
0100
0000
1000
0000
0000
0100
,  // measure 22
0000
1000
0000
0100
1000
0000
0100
0000
,  // measure 23
1001
1001
1001
0000
,  // measure 24
0110
0110
0110
0000
,  // measure 25
0010
1000
0100
0001
,  // measure 26
0010
1000
0100
1100
,  // measure 27
1000
0010
0001
0100
,  // measure 28
1000
0010
0001
0011
,  // measure 29
0001
0010
1000
0100
,  // measure 30
0001
0010
0001
0011
,  // measure 31
0001
0100
1000
0010
,  // measure 32
0001
0100
1000
1010
,  // measure 33
1000
0001
1000
0100
,  // measure 34
1000
0001
0010
0100
,  // measure 35
1000
0001
1000
0010
,  // measure 36
1000
0010
0100
0001
,  // measure 37
1000
0100
0001
0100
,  // measure 38
1000
0010
0001
0010
,  // measure 39
0100
0000
0010
0000
0100
0000
0000
0010
,  // measure 40
0000
0100
0000
0010
0001
0010
0001
0000
,  // measure 41
0011
1100
0000
1001
,  // measure 42
0000
0100
0000
0010
,  // measure 43
0000
1010
0000
0101
,  // measure 44
1000
1000
0001
0001
,  // measure 45
1000
0010
1000
0010
,  // measure 46
0100
0001
0100
0001
,  // measure 47
1000
0100
1000
0100
,  // measure 48
0010
0001
0010
0001
,  // measure 49
0010
0100
1000
0001
,  // measure 50
0100
0010
1000
0001
,  // measure 51
1000
0010
0100
0001
,  // measure 52
1000
1000
0100
0100
,  // measure 53
0010
0001
0010
0100
,  // measure 54
1000
0010
0100
0010
,  // measure 55
1000
0100
0010
0001
,  // measure 56
0011
1100
0101
1010
,  // measure 57
2002
0000
0000
3000
,  // measure 58
0200
0000
0000
0303
,  // measure 59
0101
0000
0100
0000
0100
0000
0000
0010
,  // measure 60
0000
0010
0000
0010
1000
0010
1000
0000
,  // measure 61
1000
0100
0010
0100
,  // measure 62
1000
0010
1000
1100
,  // measure 63
0010
0001
0100
0110
,  // measure 64
0100
0001
0010
0011
,  // measure 65
0001
0010
0100
1001
,  // measure 66
0001
1000
0010
1010
,  // measure 67
1001
1001
1001
0000
,  // measure 68
0110
0110
0110
0000
,  // measure 69
1000
0100
0010
0100
,  // measure 70
1000
0010
1000
1100
,  // measure 71
1000
0010
0100
0011
,  // measure 72
0010
0100
0010
0001
,  // measure 73
0011
0100
0010
1001
,  // measure 74
0001
0010
0100
1001
,  // measure 75
1000
0000
0001
0000
1000
0000
0000
0001
,  // measure 76
0000
1000
0000
0001
1000
0001
1000
0000
,  // measure 77
2002
0000
0000
0000
,  // measure 78
3003
0000
0000
0000
;

//---------------dance-single - Chewi----------------
#NOTES:
     dance-single:
     Chewi:
     Hard:
     12:
     0.651,0.645,0.494,0.372,0.121:
0000
0000
0000
0000
,
0000
0000
0000
0000
,
0000
0000
0000
0000
,
0000
0000
0000
0000
,
1000
0000
0000
1000
0100
0000
0000
0100
0010
0000
0000
0010
0001
0000
0000
0001
,
0100
0000
0000
0100
0010
0000
0000
0010
1000
0000
0000
1000
0001
0000
0000
0001
,
1000
0000
0000
1000
0001
0000
0000
0001
0010
0000
0000
0010
0100
0000
0000
0100
,
1000
1000
0100
0100
0010
0010
0001
0001
,
0000
0000
0001
0000
0000
0001
0000
0000
0001
0000
0000
0001
0000
0000
0001
0000
,
0000
0000
1000
0000
0000
1000
0000
0000
1000
0000
0000
1000
0000
0000
1000
0000
,
0000
0000
0010
0000
0000
0010
0000
0000
0010
0000
0000
0010
0000
0000
0010
0000
,
0000
0000
0100
0000
0000
0100
0000
0000
0100
0000
0000
0100
0000
0000
0100
0000
,
0000
0000
0001
0000
0000
0100
0000
0000
0010
0000
0000
1000
0000
0000
0001
0000
,
0000
0000
1000
0000
0000
0100
0000
0000
0010
0000
0000
0001
0000
0000
0010
0000
,
0000
0000
0100
0000
0000
0010
0000
0000
0001
0000
0000
1000
0000
0000
0010
0000
,
0100
0001
0000
0100
0001
0010
0100
1000
,
0020
0000
2030
0000
3200
0000
0310
0001
,
0000
0100
0000
0010
0100
0000
0001
0000
,
0020
0000
0230
0000
2300
0000
3010
1000
,
0000
0100
0000
0010
0100
1000
0010
0100
,
0002
0000
0203
0000
0320
0000
1030
0001
,
0000
1000
0000
0100
0010
0000
0001
0000
,
0011
0000
1001
0000
1100
0000
0000
1001
,
0000
0101
0000
0110
0010
1000
0001
0010
,
0100
1000
0010
0000
1000
0100
1000
0000
,
1000
0100
0010
0001
0100
0000
0101
0000
,
0001
0100
0010
0000
0100
0001
0010
0000
,
0001
0010
0100
1000
0010
0000
1010
0000
,
1000
0001
0010
0000
0001
1000
0010
0000
,
1000
0010
0100
0010
1000
0000
1100
0000
,
1001
0000
0101
0000
1001
0000
0000
1010
,
0000
1001
0000
1001
1000
0100
0010
0001
,
0010
0100
1000
0010
0100
0001
0100
0000
,
0010
1000
0001
0010
0001
0000
0011
0000
,
0001
0010
0100
1000
0010
1000
0100
0000
,
1000
0100
0010
0100
1000
0000
1010
0000
,
1000
0001
0100
0010
1000
0001
0010
0000
,
0001
0010
0100
0010
0001
0000
0101
0000
,
1010
0000
0101
0000
0011
0000
0000
1001
,
0000
1100
0000
1001
1000
0010
0100
0001
,
0010
0100
1000
0000
0010
1000
0100
0000
,
1000
0010
0100
0000
0001
0010
0100
0000
,
0010
0001
0100
0000
0010
0100
0001
0000
,
1000
1000
0001
0001
0010
0010
0100
0100
,
0010
0001
0100
0010
1000
0100
0010
0000
,
0001
0100
0010
1000
0001
0100
0010
0000
,
1000
0100
0010
0100
1000
0010
0100
0000
,
0100
0010
1000
0001
0010
0100
1000
0000
,
0001
1000
0010
0100
0001
1000
0100
0000
,
0010
0100
1000
0001
0100
0010
1000
0000
,
0001
0010
0100
1000
0001
0010
0100
0000
,
1000
0010
0100
0010
1000
0100
0010
0100
,
2200
0000
3300
0202
0000
0303
0000
0000
,
2002
0000
3003
0220
0000
0330
1000
0010
,
0000
0000
1100
0000
0000
1000
0100
0010
,
0011
0101
1100
1010
,
2002
0000
0000
3003
,
0220
0000
0000
0330
,
0110
0000
0011
0000
0110
0000
0000
1100
,
0000
1010
0000
1100
0010
0100
1000
0010
,
0200
0000
0302
0000
0023
0000
0130
1000
,
0000
0010
0000
1000
0100
0010
0001
0000
,
0200
0000
0320
0000
0230
0000
0301
0010
,
0000
0100
0000
1000
0010
1000
0100
0000
,
0020
0000
0032
0000
0203
0000
0310
0100
,
0000
0001
0000
1000
0100
0000
0010
0000
,
1100
0000
1001
0000
0101
0000
0000
0101
,
0000
1010
0000
1010
1000
0100
0010
0001
,
0020
0000
0230
0000
2300
0000
3010
1000
,
0000
0100
0000
0010
0001
0000
0100
0000
,
0020
0000
0230
0000
0302
0000
1003
0100
,
0000
0010
0000
0100
1000
0001
0100
0010
,
0200
0000
0302
0000
0203
0000
0310
1000
,
0000
0001
0000
0010
0100
0000
1000
0000
,
1010
0000
0101
0000
1001
0000
0000
1100
,
0000
0110
0000
0011
0010
0100
1000
0010
,
0200
0000
0000
0000
,
0300
0000
0000
0000
;
