#TITLE:rottel-the-Mercury;
#SUBTITLE:;
#ARTIST:sampling masters MEGA;
#TITLETRANSLIT:;
#SUBTITLETRANSLIT:;
#ARTISTTRANSLIT:;
#CREDIT:Chewi☆;
#BANNER:rottel-the-Mercury.png;
#BACKGROUND:rottel-the-Mercury-bg.png;
#LYRICSPATH:;
#CDTITLE:;
#MUSIC:rottel-the-Mercury.mp3;
#OFFSET:-0.431;
#SAMPLESTART:38.837;
#SAMPLELENGTH:15.000;
#SELECTABLE:YES;
#DISPLAYBPM:200.000;
#BPMS:0.000=200.000;
#STOPS:;
#BGCHANGES:;

//---------------dance-single - Chewi----------------
#NOTES:
     dance-single:
     Chewi:
     Hard:
     12:
     0.760,0.727,0.486,0.000,0.018: // measure 1
0000
0000
0000
0000
,  // measure 2
0000
0000
0000
0000
,  // measure 3
0000
0000
0000
0000
,  // measure 4
0000
0000
0000
0000
,  // measure 5
1000
0000
0001
1000
0000
0001
1000
0001
,  // measure 6
1000
0000
0010
0100
0000
0001
0100
0010
,  // measure 7
0100
0000
0001
0010
0000
0100
1000
0010
,  // measure 8
1100
0011
0101
1010
,  // measure 9
0001
0000
1000
0010
0100
0001
1000
0010
,  // measure 10
0100
0000
0001
0010
0000
0001
0010
0100
,  // measure 11
1000
0000
0001
1000
0100
0010
0001
1000
,  // measure 12
0000
1001
0000
1001
0000
1000
1010
0000
,  // measure 13
1000
0010
0100
0001
0000
0100
0010
0000
,  // measure 14
0100
0001
0010
0100
1000
0010
1000
0100
,  // measure 15
0000
0010
0001
0000
0010
0100
1000
0001
,  // measure 16
1000
0010
0100
0001
0100
0010
1000
0001
,  // measure 17
1000
0010
0000
1000
0100
0000
1000
0001
,  // measure 18
1000
0010
0100
0001
0010
0100
0010
0001
,  // measure 19
0011
0000
1100
0000
0101
0000
0000
0110
,  // measure 20
0000
1001
0000
1100
1001
0000
0000
0000
,  // measure 21
1000
0100
0010
0000
0001
0100
0010
0000
,  // measure 22
1000
0001
1000
0000
0001
1000
0001
0000
,  // measure 23
1000
0010
0100
0000
0001
0100
0010
0000
,  // measure 24
1000
0001
1000
0000
0001
1000
0001
0000
,  // measure 25
1001
1001
0101
0101
,  // measure 26
1001
1001
1010
1010
,  // measure 27
1000
1000
0010
0010
0100
0100
0001
0001
,  // measure 28
0100
0010
1000
0001
0010
0100
1000
0001
,  // measure 29
1000
0100
0000
1000
0001
1000
0000
1000
,  // measure 30
0010
0100
0001
0100
0000
0010
0010
0010
,  // measure 31
0000
0100
0001
0000
0010
0100
1000
0010
,  // measure 32
0110
0000
1001
0000
,  // measure 33
0001
1000
0001
1000
0001
1000
0001
1000
,  // measure 34
0010
0100
0010
0100
0010
0100
0010
0100
,  // measure 35
0001
0100
0001
0100
0001
0100
0001
0100
,  // measure 36
0010
1000
0010
1000
0010
1000
0010
1000
,  // measure 37
0001
0010
0100
1000
0001
0010
0100
1000
,  // measure 38
0001
0100
0010
1000
0001
0100
0010
1000
,  // measure 39
0001
0001
1000
0000
1000
1000
0001
0000
,  // measure 40
1000
0001
0100
0000
1010
0000
0011
0000
,  // measure 41
0001
0010
0100
1000
0001
1000
0100
1000
,  // measure 42
0100
1000
0010
0010
0100
0001
0100
0010
,  // measure 43
0100
0010
0100
0001
0001
0010
0100
1000
,  // measure 44
0010
1000
0100
1000
0010
0100
0001
0100
,  // measure 45
0010
1000
0010
1000
0001
0001
0010
0100
,  // measure 46
1000
0100
1000
0100
0010
1000
0100
0010
,  // measure 47
0001
0100
0010
0100
0010
0100
0001
1000
,  // measure 48
1100
1000
0000
0000
0101
0001
0000
0000
,  // measure 49
1000
1000
0001
0001
1000
0000
0000
0001
,  // measure 50
0010
0100
1000
0100
1000
0100
0001
0000
,  // measure 51
1000
1000
0001
0001
1000
1000
0000
1000
,  // measure 52
0010
0100
0001
0100
0010
0100
0001
0000
,  // measure 53
0001
0001
0100
0100
0010
0010
0000
0010
,  // measure 54
0100
0001
1000
0100
0010
0001
1000
0000
,  // measure 55
0001
0001
1000
0000
1000
1000
0001
0000
,  // measure 56
1000
1000
0100
0010
0001
1000
0100
0000
,  // measure 57
0001
0000
0000
0100
0000
0000
0010
0000
1000
0000
0000
0000
1001
0000
0000
0000
,  // measure 58
1000
0001
1000
0001
1000
0100
1000
0100
,  // measure 59
1000
0000
0000
0001
0000
0000
1000
0000
0010
0000
0000
0000
0101
0000
0000
0000
,  // measure 60
0001
0100
0100
0001
0010
0100
1000
0010
,  // measure 61
1000
0000
0000
0100
0000
0000
0010
0000
0100
0000
0000
0000
1100
0000
0000
0000
,  // measure 62
1000
0100
0001
0100
1000
0010
0001
0010
,  // measure 63
0100
0000
0000
0001
0000
0000
0010
0000
0100
0000
0000
0000
0110
0000
0000
0000
,  // measure 64
0100
0010
0001
1000
0010
0000
0001
1000
,  // measure 65
0010
0010
1000
0001
0010
0000
0100
0000
,  // measure 66
0100
0100
1000
0001
0100
0000
0010
0000
,  // measure 67
0100
0100
0001
0010
0100
1000
0001
0000
,  // measure 68
1100
0101
0000
0000
,  // measure 69
0010
0100
0001
0100
0010
0000
0110
0000
,  // measure 70
0010
1000
0100
1000
0010
0000
1010
0000
,  // measure 71
1000
0001
0100
0001
1000
0100
1000
0000
,  // measure 72
1001
0110
0000
0000
,  // measure 73
0000
1100
0000
0101
,  // measure 74
0000
1100
0011
0101
,  // measure 75
1010
1001
0000
0110
,  // measure 76
0000
1010
0110
0101
,  // measure 77
0100
0010
1000
0010
0100
0010
1000
0010
,  // measure 78
0100
0001
0010
0001
0100
0001
0010
0001
,  // measure 79
0101
0101
1100
1100
,  // measure 80
0001
1000
0010
1000
0001
0010
0100
0000
,  // measure 81
0010
0001
0100
0001
0010
0100
0000
1000
,  // measure 82
0010
0100
0010
0000
1000
1000
1000
0000
,  // measure 83
1000
0010
0100
0001
0010
0100
0000
0001
,  // measure 84
0010
0100
1000
0000
0001
0001
0001
0000
,  // measure 85
1000
0001
0100
0010
1000
0001
0000
1000
,  // measure 86
0010
0100
0001
0000
0010
0100
0010
0000
,  // measure 87
0100
0010
0001
0100
0010
0100
0001
0010
,  // measure 88
0100
1000
0010
1000
0100
1000
0010
0100
,  // measure 89
0001
1000
0100
0001
0100
1000
0010
0001
,  // measure 90
0010
1000
0001
0010
0100
0000
1001
0000
;

//---------------dance-single - Chewi----------------
#NOTES:
     dance-single:
     Chewi:
     Medium:
     9:
     0.575,0.727,0.765,0.018,0.000: // measure 1
0000
0000
0000
0000
,  // measure 2
0000
0000
0000
0000
,  // measure 3
0000
0000
0000
0000
,  // measure 4
0000
0000
0000
0000
,  // measure 5
1000
0000
0001
0000
1000
0001
1000
0000
,  // measure 6
0001
0000
1000
0000
0001
1000
0001
0000
,  // measure 7
1000
0000
0010
0000
1000
0010
1000
0000
,  // measure 8
1010
1010
0101
0101
,  // measure 9
1000
0000
1000
0000
0100
1000
0100
0000
,  // measure 10
0010
0000
0010
0000
0001
0010
0001
0000
,  // measure 11
0010
0000
0100
0000
1000
0001
1000
0000
,  // measure 12
0000
0001
0000
0001
0000
1000
0001
0000
,  // measure 13
1000
0010
0100
0001
,  // measure 14
1000
0010
0100
0001
,  // measure 15
1000
0100
0010
0001
,  // measure 16
1000
0100
0010
0001
,  // measure 17
1000
0001
1000
0000
0001
0000
1000
0000
,  // measure 18
0001
1000
0001
0000
1000
0000
0001
0000
,  // measure 19
1001
1001
1001
0000
,  // measure 20
0101
0101
0101
0000
,  // measure 21
0100
0010
0000
0000
0100
0010
0000
0000
,  // measure 22
0100
0010
0000
0000
1000
0000
0010
0000
,  // measure 23
1000
0010
0000
0000
1000
0001
0000
0000
,  // measure 24
1000
0100
0000
0000
0010
0000
0100
0000
,  // measure 25
1000
1100
0001
0101
,  // measure 26
1000
1001
0001
1001
,  // measure 27
0010
0100
0010
0100
,  // measure 28
0001
1000
0001
1000
0001
1000
0001
0000
,  // measure 29
1000
0100
0000
0000
0001
0100
0000
0000
,  // measure 30
0010
0100
0001
1000
,  // measure 31
0001
0010
0000
0000
1000
0010
0000
0000
,  // measure 32
1001
0000
0110
0000
,  // measure 33
0001
0000
0001
0000
0001
0010
0100
0000
,  // measure 34
1000
0000
1000
0000
1000
0010
0100
0000
,  // measure 35
0001
0000
0001
0000
0001
1000
0001
0000
,  // measure 36
1000
0001
1000
1001
,  // measure 37
1000
0000
1000
0000
1000
0001
0010
0000
,  // measure 38
0100
0000
0100
0000
0100
0010
0001
0000
,  // measure 39
1000
0100
0010
0001
,  // measure 40
1100
0101
1100
0101
,  // measure 41
0000
0010
0000
0000
0010
0000
0000
0100
,  // measure 42
0000
0100
0000
0000
0010
0000
0000
1000
,  // measure 43
0000
0010
0000
0000
0100
0000
0000
0001
,  // measure 44
0000
0010
0000
0000
0100
0000
1000
0000
,  // measure 45
0010
1000
0000
0000
0001
0000
0000
0010
,  // measure 46
0000
0100
0000
0000
1000
0000
0010
0000
,  // measure 47
0100
0001
0100
0000
0010
1000
0010
0000
,  // measure 48
1001
0000
1001
0000
,  // measure 49
1100
0101
1100
0000
,  // measure 50
0001
1000
0010
0000
1000
0001
0010
0000
,  // measure 51
1001
1001
1001
0000
,  // measure 52
0010
0100
0010
0000
0100
0010
0100
0000
,  // measure 53
0101
0101
0101
0000
,  // measure 54
0001
1000
0001
0000
1000
0001
1000
0000
,  // measure 55
0002
0013
2000
3010
,  // measure 56
1001
0000
0000
0110
,  // measure 57
0001
0000
1100
1001
,  // measure 58
1000
0010
0100
0001
0100
0000
0000
0000
,  // measure 59
0101
0000
1010
1001
,  // measure 60
1000
0100
0010
0100
1000
0000
0010
0000
,  // measure 61
0010
0000
0110
0110
,  // measure 62
0010
0100
0010
0100
0001
0100
0001
0000
,  // measure 63
0101
0000
1100
1001
,  // measure 64
1000
0011
0001
1010
,  // measure 65
0001
0110
1001
0000
,  // measure 66
1000
0110
1001
0000
,  // measure 67
0001
1100
0101
0000
,  // measure 68
1000
0001
1000
0001
1000
0001
1000
0000
,  // measure 69
1001
0110
1001
0110
,  // measure 70
1001
0110
1001
0110
,  // measure 71
0011
0011
1100
1100
,  // measure 72
0001
1000
0001
1000
0001
1000
0001
0000
,  // measure 73
1100
0000
0011
0000
,  // measure 74
0001
0010
0100
1000
,  // measure 75
0101
0000
1010
0000
,  // measure 76
1000
0010
0100
0001
,  // measure 77
0100
0000
0010
0000
0100
0010
0100
0000
,  // measure 78
0010
0000
0100
0000
0010
0100
0010
0000
,  // measure 79
1001
1001
1100
1100
,  // measure 80
1001
1001
1001
0000
,  // measure 81
1000
0001
1000
0001
,  // measure 82
1000
0010
1000
0000
0001
1000
0001
0000
,  // measure 83
1000
0001
0010
0100
,  // measure 84
0010
0001
0010
0000
0001
0100
0001
0000
,  // measure 85
0100
0010
0100
0001
,  // measure 86
0100
0001
0100
0000
0010
1000
0010
0000
,  // measure 87
1001
1000
1001
0001
,  // measure 88
1001
1000
1001
0001
,  // measure 89
0011
0010
1100
0100
,  // measure 90
1001
0110
1001
0110
;

//---------------dance-single - Chewi----------------
#NOTES:
     dance-single:
     Chewi:
     Easy:
     7:
     0.468,0.687,0.396,0.000,0.000: // measure 1
0000
0000
0000
0000
,  // measure 2
0000
0000
0000
0000
,  // measure 3
0000
0000
0000
0000
,  // measure 4
0000
0000
0000
0000
,  // measure 5
1000
0100
1000
0100
,  // measure 6
0010
0001
0010
0001
,  // measure 7
1000
0001
1000
0001
,  // measure 8
1001
1001
1001
1001
,  // measure 9
0001
0100
0001
0100
,  // measure 10
0010
1000
0010
1000
,  // measure 11
0001
1000
0001
1000
,  // measure 12
1001
0001
1001
1001
,  // measure 13
1000
0100
0010
0001
,  // measure 14
1000
0100
0010
0001
,  // measure 15
1000
0010
0100
0001
,  // measure 16
1000
0010
0100
0001
,  // measure 17
1000
0100
0001
0010
,  // measure 18
1000
0100
0001
0010
,  // measure 19
0100
0100
0010
0010
,  // measure 20
0100
0010
0110
0000
,  // measure 21
1001
0000
1001
0000
,  // measure 22
1000
0001
1000
0001
,  // measure 23
0110
0000
0110
0000
,  // measure 24
0010
0100
0010
0100
,  // measure 25
0010
0001
0100
1000
,  // measure 26
0010
0001
0100
1000
,  // measure 27
0010
0100
0010
0100
,  // measure 28
0100
0010
0100
0010
,  // measure 29
0001
0010
0100
1000
,  // measure 30
0001
0010
0100
1000
,  // measure 31
0001
0100
0010
1000
,  // measure 32
1010
0000
1001
0000
,  // measure 33
1000
1000
1000
1000
,  // measure 34
0100
0100
0100
0100
,  // measure 35
0010
0010
0010
0010
,  // measure 36
0001
0001
0001
0001
,  // measure 37
0001
0100
1000
0010
,  // measure 38
0001
0100
1000
0010
,  // measure 39
0001
0010
0100
1000
,  // measure 40
0001
0010
0100
1000
,  // measure 41
0001
1000
0001
1000
,  // measure 42
0010
0100
0010
0100
,  // measure 43
0001
0100
0001
0100
,  // measure 44
0010
1000
0010
1000
,  // measure 45
0001
1000
0100
1000
,  // measure 46
0001
1000
0001
0100
,  // measure 47
0010
0100
0001
1000
,  // measure 48
1001
0000
1001
0000
,  // measure 49
1000
0100
0010
0001
,  // measure 50
1000
1000
0100
0100
,  // measure 51
0001
0100
0010
1000
,  // measure 52
0001
0001
0010
0010
,  // measure 53
1000
0010
0100
0001
,  // measure 54
0100
0100
0010
0010
,  // measure 55
1001
0000
0110
0000
,  // measure 56
1001
0000
0110
0000
,  // measure 57
1000
1000
1000
1000
,  // measure 58
0001
0010
0100
1000
,  // measure 59
0001
0001
0001
0001
,  // measure 60
1000
0010
0100
0001
,  // measure 61
0100
0100
0100
0100
,  // measure 62
0010
0100
0001
1000
,  // measure 63
0100
0100
0100
0100
,  // measure 64
0010
0100
1000
0001
,  // measure 65
1000
1100
1001
0000
,  // measure 66
0001
0101
1001
0000
,  // measure 67
1000
1001
1001
0000
,  // measure 68
0110
0000
0000
0000
,  // measure 69
0001
1001
1001
0000
,  // measure 70
1000
1001
1001
0000
,  // measure 71
0010
1010
1010
0000
,  // measure 72
1001
1001
0000
0000
,  // measure 73
1000
0100
0010
0001
,  // measure 74
1000
0100
1000
0100
,  // measure 75
0001
0010
0100
0001
,  // measure 76
0010
0100
0010
0100
,  // measure 77
0010
0001
1000
0010
,  // measure 78
0100
0001
0100
0010
,  // measure 79
0110
0110
0110
0110
,  // measure 80
1001
1001
1001
1001
,  // measure 81
1000
0100
0010
0001
,  // measure 82
1000
0100
0001
0100
,  // measure 83
0001
0100
0010
1000
,  // measure 84
0001
0010
1000
0010
,  // measure 85
0100
0010
1000
0001
,  // measure 86
0010
0100
0010
0001
,  // measure 87
1000
0100
0001
0100
,  // measure 88
0010
0100
0100
0010
,  // measure 89
0010
1000
0100
0001
,  // measure 90
0010
1000
0001
1001
;

//---------------dance-single - Chewi----------------
#NOTES:
     dance-single:
     Chewi:
     Beginner:
     4:
     0.273,0.363,0.036,0.054,0.000: // measure 1
0000
0000
0000
0000
,  // measure 2
0000
0000
0000
0000
,  // measure 3
0000
0000
0000
0000
,  // measure 4
0000
0000
0000
0000
,  // measure 5
0010
0000
0010
0000
,  // measure 6
0100
0000
0100
0000
,  // measure 7
0001
0000
0001
0000
,  // measure 8
1000
0000
1000
0000
,  // measure 9
0001
0000
0001
0000
,  // measure 10
0100
0000
0000
0000
,  // measure 11
0010
0000
0010
0000
,  // measure 12
1000
0000
1000
0000
,  // measure 13
2000
0000
0000
3000
,  // measure 14
1000
0000
1000
0000
,  // measure 15
0002
0000
0000
0003
,  // measure 16
0001
0000
0001
0000
,  // measure 17
0200
0000
0000
0300
,  // measure 18
0100
0000
0100
0000
,  // measure 19
0020
0000
0000
0030
,  // measure 20
0010
0000
0010
0000
,  // measure 21
1000
0000
0001
0000
,  // measure 22
1000
0000
0001
0000
,  // measure 23
0100
0000
0010
0000
,  // measure 24
0100
0000
0010
0000
,  // measure 25
0100
0100
0100
0100
,  // measure 26
0100
0100
0100
0100
,  // measure 27
0010
0010
0010
0010
,  // measure 28
0010
0010
0010
0010
,  // measure 29
2000
0000
0000
3000
,  // measure 30
1000
0000
1000
0000
,  // measure 31
0002
0000
0000
0003
,  // measure 32
0001
0000
0001
0000
,  // measure 33
0001
0001
0001
0000
,  // measure 34
0001
0001
0001
0000
,  // measure 35
1000
1000
1000
0000
,  // measure 36
1000
1000
1000
0000
,  // measure 37
0010
0010
0010
0000
,  // measure 38
0010
0010
0010
0000
,  // measure 39
0100
0100
0100
0000
,  // measure 40
0100
0100
0100
0000
,  // measure 41
1000
0000
0100
0000
,  // measure 42
0010
0000
0001
0000
,  // measure 43
1000
0000
0001
0000
,  // measure 44
0100
0000
0010
0000
,  // measure 45
0001
0000
0100
0000
,  // measure 46
0010
0000
1000
0000
,  // measure 47
0001
0000
1000
0000
,  // measure 48
0010
0000
0100
0000
,  // measure 49
0010
0010
0010
0000
,  // measure 50
0010
0010
0010
0000
,  // measure 51
0100
0100
0100
0000
,  // measure 52
0100
0100
0100
0000
,  // measure 53
1000
1000
1000
0000
,  // measure 54
0001
0001
0001
0000
,  // measure 55
1001
0000
1001
0000
,  // measure 56
0110
0000
0110
0000
,  // measure 57
0010
0010
0010
0010
,  // measure 58
0000
0000
0000
0000
,  // measure 59
0100
0100
0100
0100
,  // measure 60
0000
0000
0000
0000
,  // measure 61
1000
0001
1000
0001
,  // measure 62
0000
0000
0000
0000
,  // measure 63
0001
1000
0001
1000
,  // measure 64
0000
0000
0000
0000
,  // measure 65
1000
1000
1000
1000
,  // measure 66
1000
1000
1000
1000
,  // measure 67
1000
1000
1000
1000
,  // measure 68
1000
0000
0000
0000
,  // measure 69
0001
0001
0001
0001
,  // measure 70
0001
0001
0001
0001
,  // measure 71
0001
0001
0001
0001
,  // measure 72
0001
0000
0000
0000
,  // measure 73
0000
0001
0000
0001
,  // measure 74
0000
0000
0000
0000
,  // measure 75
0000
1000
0000
1000
,  // measure 76
0000
0000
0000
0000
,  // measure 77
0000
0010
0000
0010
,  // measure 78
0000
0100
0000
0100
,  // measure 79
0100
0100
0010
0010
,  // measure 80
0100
0010
0100
0000
,  // measure 81
1000
1000
1000
0000
,  // measure 82
1000
1000
1000
0000
,  // measure 83
0001
0001
0001
0000
,  // measure 84
0001
0001
0001
0000
,  // measure 85
0010
0010
0010
0000
,  // measure 86
0010
0010
0010
0000
,  // measure 87
1000
0000
0100
0000
,  // measure 88
0001
0000
0010
0000
,  // measure 89
1000
0000
0100
0000
,  // measure 90
0001
0000
0000
0010
;
