#TITLE:rePrayer;
#SUBTITLE:;
#ARTIST:Ym1024 feat. lamie*;
#TITLETRANSLIT:;
#SUBTITLETRANSLIT:;
#ARTISTTRANSLIT:;
#GENRE:;
#CREDIT:Chewi☆;
#MENUCOLOR:;
#METERTYPE:DDR X;
#BANNER:rePrayer.png;
#BACKGROUND:rePrayer-bg.png;
#LYRICSPATH:;
#CDTITLE:;
#MUSIC:rePrayer.mp3;
#OFFSET:-0.525;
#SAMPLESTART:52.463;
#SAMPLELENGTH:15.000;
#SELECTABLE:YES;
#LISTSORT:;
#DISPLAYBPM:134.000;
#BPMS:0.000=134.000;
#STOPS:;
#BGCHANGES:;
#ATTACKS:;

//---------------dance-single - Chewi----------------
#NOTES:
     dance-single:
     Chewi:
     Beginner:
     1:
     0.088,0.130,0.011,0.066,0.000: // measure 1
0000
0000
0000
0000
,  // measure 2
0000
0000
0000
0000
,  // measure 3
0000
0000
0000
0000
,  // measure 4
0000
0000
0000
0000
,  // measure 5
1000
0000
0000
0000
,  // measure 6
0000
0000
0000
0000
,  // measure 7
0001
0000
0000
0000
,  // measure 8
0000
0000
0000
0000
,  // measure 9
0100
0000
0000
0000
,  // measure 10
0000
0000
0000
0000
,  // measure 11
0010
0000
0000
0000
,  // measure 12
0000
0000
0000
0000
,  // measure 13
2000
0000
0000
3000
,  // measure 14
1000
0000
0000
0000
,  // measure 15
0002
0000
0000
0003
,  // measure 16
0001
0000
0000
0000
,  // measure 17
0020
0000
0000
0030
,  // measure 18
0010
0000
0000
0000
,  // measure 19
0200
0000
0000
0300
,  // measure 20
0100
0000
0000
0000
,  // measure 21
1000
0000
0000
0000
,  // measure 22
0010
0000
0000
0000
,  // measure 23
0001
0000
0000
0000
,  // measure 24
0010
0000
0000
0000
,  // measure 25
1000
0000
0000
0000
,  // measure 26
0001
0000
0000
0000
,  // measure 27
0010
0000
0000
0000
,  // measure 28
0100
0000
0000
0000
,  // measure 29
0110
0000
0000
0000
,  // measure 30
0010
0000
0010
0000
,  // measure 31
0010
0000
0010
0000
,  // measure 32
0001
0000
0000
0000
,  // measure 33
0001
0000
1000
0000
,  // measure 34
0100
0000
0100
0000
,  // measure 35
0100
0000
0100
0000
,  // measure 36
1000
0000
0000
0000
,  // measure 37
0010
0000
1000
0000
,  // measure 38
1000
0000
1000
0000
,  // measure 39
1000
0000
1000
0000
,  // measure 40
0001
0000
0000
0000
,  // measure 41
1000
0000
1000
0000
,  // measure 42
0100
0000
0100
0000
,  // measure 43
0100
0000
0200
0000
,  // measure 44
0000
0000
0000
0300
,  // measure 45
0100
0000
0010
0000
,  // measure 46
0002
0000
0000
0000
,  // measure 47
0000
0000
0000
0000
,  // measure 48
0003
0000
0000
0000
;

//---------------dance-single - Chewi----------------
#NOTES:
     dance-single:
     Chewi:
     Easy:
     4:
     0.164,0.208,0.066,0.088,0.000: // measure 1
0000
0000
0000
0000
,  // measure 2
0000
0000
0000
0000
,  // measure 3
0000
0000
0000
0000
,  // measure 4
0000
0000
0000
0000
,  // measure 5
1000
1000
1000
0000
,  // measure 6
0000
0000
0000
0000
,  // measure 7
0001
0001
0001
0000
,  // measure 8
0000
0000
0000
0000
,  // measure 9
0100
0100
0100
0000
,  // measure 10
0000
0000
0000
0000
,  // measure 11
0010
0010
0010
0000
,  // measure 12
0000
0000
0000
0000
,  // measure 13
2000
0000
0000
3000
,  // measure 14
0001
1000
0001
0000
,  // measure 15
0002
0000
0000
0003
,  // measure 16
1000
0001
1000
0000
,  // measure 17
0020
0000
0000
0030
,  // measure 18
0100
0010
0100
0000
,  // measure 19
0200
0000
0000
0300
,  // measure 20
0010
0100
0010
0000
,  // measure 21
1000
0000
0100
0000
,  // measure 22
0010
0000
0010
0000
,  // measure 23
0001
0000
0100
0000
,  // measure 24
0010
0000
0010
0000
,  // measure 25
1000
0000
0100
0000
,  // measure 26
0001
0000
0001
0000
,  // measure 27
0010
0000
0001
0000
,  // measure 28
0100
0000
0100
0000
,  // measure 29
0110
0000
0000
0000
,  // measure 30
0010
0100
0010
0100
,  // measure 31
0010
0000
0110
0000
,  // measure 32
0001
0000
1000
0000
,  // measure 33
0001
1000
0010
0000
,  // measure 34
0100
0010
0100
0010
,  // measure 35
0100
0000
0110
0000
,  // measure 36
1000
0000
0001
0000
,  // measure 37
0010
0100
1000
0000
,  // measure 38
1000
0100
0001
0100
,  // measure 39
1000
0000
1001
0000
,  // measure 40
0001
1000
0001
0000
,  // measure 41
1000
0001
1000
0000
,  // measure 42
0010
0001
0010
1000
,  // measure 43
0010
0000
0220
0000
,  // measure 44
0000
0000
0000
0330
,  // measure 45
0100
0010
1000
0001
,  // measure 46
2002
0000
0000
0000
,  // measure 47
0000
0000
0000
0000
,  // measure 48
3003
0000
0000
0000
;

//---------------dance-single - Chewi----------------
#NOTES:
     dance-single:
     Chewi:
     Medium:
     7:
     0.295,0.312,0.254,0.088,0.011: // measure 1
0000
0000
0000
0000
,  // measure 2
0000
0000
0000
0000
,  // measure 3
0000
0000
0000
0000
,  // measure 4
0000
0000
0000
0000
,  // measure 5
1000
0000
0001
1000
0000
0000
0000
0000
,  // measure 6
0001
0000
1000
0001
0000
0000
0000
0000
,  // measure 7
0100
0000
0010
0100
0000
0000
0000
0000
,  // measure 8
0010
0000
0100
0010
0000
0000
0000
0000
,  // measure 9
0010
0000
1000
0010
0000
0000
0000
0000
,  // measure 10
1000
0000
0100
1000
0000
0000
0000
0000
,  // measure 11
0001
0000
0100
0001
0000
0000
0000
0000
,  // measure 12
0100
0000
0000
0100
0000
0000
0100
0000
0100
0000
0000
0000
0000
0000
0000
0000
,  // measure 13
0010
0000
1000
0010
1000
0000
0000
0000
,  // measure 14
0000
0000
1000
0100
,  // measure 15
0010
0000
0001
0010
0001
0000
0000
0000
,  // measure 16
0001
0010
0100
1000
,  // measure 17
0001
0000
1000
0001
1000
0000
0000
0000
,  // measure 18
1000
0000
0001
1000
0001
0000
0000
0000
,  // measure 19
1000
0000
0010
0100
0001
0000
0000
0000
,  // measure 20
0001
0100
0001
0000
1000
0100
1000
0000
,  // measure 21
0001
1001
0100
1000
,  // measure 22
0001
0101
1000
1100
,  // measure 23
1000
0011
0100
0001
,  // measure 24
1000
1010
0001
0011
,  // measure 25
0010
1100
1000
0001
,  // measure 26
1000
1100
0001
0101
,  // measure 27
0100
1010
1000
0001
,  // measure 28
1000
1100
0010
0011
,  // measure 29
0100
0000
0000
0100
0000
0000
0100
0000
0100
0000
0000
0000
0000
0000
0000
0000
,  // measure 30
1010
1000
1010
0010
,  // measure 31
1000
0100
0010
0001
0010
0000
0000
0000
,  // measure 32
0002
1003
2000
3001
,  // measure 33
0100
0010
0110
0000
,  // measure 34
0110
1000
0110
0001
,  // measure 35
1000
0100
0010
0001
0010
0000
0000
0000
,  // measure 36
0002
0103
2000
3100
,  // measure 37
0001
0010
0011
0000
,  // measure 38
0101
0001
0101
0100
,  // measure 39
0001
0010
0100
1000
0100
0000
0000
0000
,  // measure 40
2000
3001
0002
1003
,  // measure 41
0010
0100
0110
0000
,  // measure 42
0110
0001
0110
1000
,  // measure 43
0001
0010
0100
1000
0200
0000
0000
0000
,  // measure 44
0000
0000
0000
0300
,  // measure 45
1000
0000
0001
0000
0100
0010
0100
0000
,  // measure 46
0020
0000
0000
0000
,  // measure 47
0000
0000
0000
0000
,  // measure 48
0030
0000
0000
0000
;

//---------------dance-single - Chewi----------------
#NOTES:
     dance-single:
     Chewi:
     Hard:
     10:
     0.370,0.442,0.100,0.199,0.011:
0000
0000
0000
0000
,
0000
0000
0000
0000
,
0000
0000
0000
0000
,
0000
0000
0000
0000
,
1000
0100
0001
0010
0000
0000
0000
0000
,
1000
0100
0010
0100
0000
1000
0100
0000
,
1000
0001
0100
0010
0000
0000
0000
0000
,
1000
0010
0001
0100
0000
0000
0000
0000
,
1000
0010
1000
0100
0000
0000
0000
0000
,
1000
0001
0100
0010
0000
1000
0100
0000
,
0010
0001
0100
0001
0000
0000
0000
0000
,
1000
0010
0100
0001
1000
0000
0000
0000
,
0001
0010
0100
1000
0000
0000
1100
0000
,
0101
0100
0010
1000
0000
0100
1000
0000
,
0010
0100
0001
0100
0000
0110
0000
0000
,
1000
1000
0100
0100
0010
0000
0000
0000
,
0001
0100
0001
0010
0000
0011
0000
0000
,
0001
0100
1000
0100
0000
0001
0010
0000
,
1100
1000
0010
0100
0000
0001
0100
0000
,
1000
0000
0000
0010
0000
0000
0001
0000
0100
0000
0000
0000
0000
0000
0000
0000
,
0010
0000
0010
0000
0010
0000
0010
1000
,
0100
0000
0100
0000
0100
0000
0100
0001
,
0010
0000
0010
0000
0010
0000
0010
0100
,
0001
0100
0001
0000
0100
0001
0100
0000
,
0100
0000
0100
0000
0100
0000
0100
0010
,
1000
0000
1000
0000
1000
0000
1000
0100
,
0001
0000
0001
0000
0001
0000
0001
0010
,
1000
0100
0010
0001
,
1000
0000
0000
1000
0000
0000
0001
0000
0001
0000
0000
0000
0000
0000
0000
0000
,
2100
3002
0203
0320
,
1030
0010
0100
0001
0100
0000
0000
0000
,
1000
0001
1000
0000
0001
1000
0001
0000
,
1000
0100
0001
0010
1000
0100
0010
0000
,
0012
0203
0302
0023
,
0031
0010
0100
1000
0010
0000
0000
0000
,
1000
0100
0001
0000
1000
0100
0001
0000
,
0010
1000
0100
0010
0001
0100
0010
0000
,
2010
3020
0230
0302
,
1003
0100
0010
0100
1000
0000
0000
0000
,
0010
0001
0100
0000
1000
0010
0001
0000
,
0100
1000
0010
0100
0001
0010
0100
0000
,
2100
3020
2030
3200
,
1300
0100
0010
0001
0200
0000
0000
0000
,
0000
0000
0000
0300
,
0010
1000
0100
1000
0010
0100
0001
0100
,
0020
0000
0000
0000
,
0000
0000
0000
0000
,
0030
0000
0000
0000
;
