#TITLE:plan A;
#SUBTITLE:;
#ARTIST:Ryu☆;
#TITLETRANSLIT:;
#SUBTITLETRANSLIT:;
#ARTISTTRANSLIT:Ryu;
#CREDIT:Chewi☆;
#BANNER:plan A.png;
#BACKGROUND:plan A-bg.png;
#LYRICSPATH:;
#CDTITLE:;
#MUSIC:plan A.mp3;
#OFFSET:-0.300;
#SAMPLESTART:56.785;
#SAMPLELENGTH:15.000;
#SELECTABLE:YES;
#BPMS:0.000=85.000,16.000=170.000,80.000=85.000,96.000=170.000;
#STOPS:;
#BGCHANGES:;

//---------------dance-single - Chewi----------------
#NOTES:
     dance-single:
     Chewi:
     Easy:
     6:
     0.322,0.323,0.125,0.057,0.000: // measure 1
0000
0000
0000
0000
,  // measure 2
0000
0000
0000
0000
,  // measure 3
1000
2000
3000
0000
,  // measure 4
0001
0002
1003
1001
,  // measure 5
0001
0010
0100
1000
,  // measure 6
0001
0010
0100
1000
,  // measure 7
0001
0100
0010
1000
,  // measure 8
0001
0100
0010
1000
,  // measure 9
0001
1000
0001
1000
,  // measure 10
0100
0010
0100
0010
,  // measure 11
0001
0010
0100
1000
,  // measure 12
0001
0010
0100
1000
,  // measure 13
0001
0100
1000
0100
,  // measure 14
0001
0100
1000
0100
,  // measure 15
0001
0010
1000
0010
,  // measure 16
0001
0010
1000
0010
,  // measure 17
0010
0010
0100
0100
,  // measure 18
1000
1000
0001
0001
,  // measure 19
0100
0100
0010
0010
,  // measure 20
1000
1001
0001
1001
,  // measure 21
1000
0100
0020
0001
,  // measure 22
0100
1000
0130
0100
,  // measure 23
0010
0001
2000
0100
,  // measure 24
0001
0010
3100
0100
,  // measure 25
1000
0100
0010
0001
,  // measure 26
1000
1100
0001
0101
,  // measure 27
1000
0010
0100
0001
,  // measure 28
1000
1010
0001
0011
,  // measure 29
0010
0010
0100
0100
,  // measure 30
1000
1000
0001
0001
,  // measure 31
0100
0100
0010
0010
,  // measure 32
1000
1000
0001
0001
,  // measure 33
1000
0100
1000
1100
,  // measure 34
1000
0001
0100
0010
,  // measure 35
1000
0001
1000
1001
,  // measure 36
1000
0100
0010
0001
,  // measure 37
0010
0100
0010
0100
,  // measure 38
0110
0010
0100
0010
,  // measure 39
0001
0010
0001
0011
,  // measure 40
1000
0100
0001
0100
,  // measure 41
1000
1000
0010
0010
,  // measure 42
0001
0001
0100
0100
,  // measure 43
1000
1000
0010
0010
,  // measure 44
0001
0001
0010
0010
,  // measure 45
0100
0100
0001
0001
,  // measure 46
0010
0010
1000
1000
,  // measure 47
0100
0100
0001
0001
,  // measure 48
0010
0010
0100
0100
,  // measure 49
0200
0000
0000
0000
,  // measure 50
0000
0000
0000
0000
,  // measure 51
0000
0000
0000
0000
,  // measure 52
0000
0000
0000
0300
;

//---------------dance-single - Chewi----------------
#NOTES:
     dance-single:
     Chewi:
     Hard:
     13:
     0.683,0.968,0.340,0.181,0.555: // measure 1
0000
0000
0000
0000
,  // measure 2
0000
0000
0000
0000
,  // measure 3
1000
0100
0010
0001
0020
0000
0000
0000
0000
0000
0000
0000
0030
0000
0000
0000
,  // measure 4
0001
0010
0100
1000
0100
1000
0001
0010
0001
0010
0100
1000
0001
0010
0100
1000
,  // measure 5
0001
0010
0001
0010
0001
0100
0001
0100
,  // measure 6
0001
0010
0100
1000
0001
0010
0100
1000
,  // measure 7
0010
1000
0010
1000
0010
0100
0010
0100
,  // measure 8
0010
1000
0100
0010
0001
1000
0100
0010
,  // measure 9
0001
0010
0001
0010
0001
0100
0001
0100
,  // measure 10
0001
0010
0100
1000
0001
0010
0100
1000
,  // measure 11
0010
0001
0010
0001
0010
0100
0010
0100
,  // measure 12
0001
0010
0100
1000
0010
0100
0001
1000
,  // measure 13
0010
0100
0001
0100
0010
0100
0001
0100
,  // measure 14
0010
1000
0100
1000
0010
1000
0100
1000
,  // measure 15
0010
0100
0001
1000
0010
0100
0001
1000
,  // measure 16
0100
0010
0001
1000
0100
0010
0100
1000
,  // measure 17
0100
0100
1000
1000
0001
0001
0100
0100
,  // measure 18
0010
0010
1000
1000
0100
0100
1000
1000
,  // measure 19
0100
0001
0100
1000
0100
0001
0100
1000
,  // measure 20
0010
0001
0010
1000
0010
0001
0010
1000
,  // measure 21
1000
0100
0010
0001
1000
0100
0010
0001
0200
0000
0320
0000
2030
0000
3002
0000
,  // measure 22
1003
0001
0100
0010
0100
0001
1000
0100
2000
0000
3200
0000
0320
0000
0032
0000
,  // measure 23
1003
0001
0010
0001
1000
0010
1000
0010
0200
0000
0302
0000
2003
0000
3020
0000
,  // measure 24
0130
0001
0010
0001
0100
0001
0010
0100
1000
0100
0010
0001
0100
0001
0010
0100
,  // measure 25
0010
0000
0000
0000
0011
0000
0000
0000
0010
0001
0000
0010
0000
0001
0010
0001
,  // measure 26
0010
0000
0000
0100
0000
0000
1000
0000
0010
0000
0000
1010
0000
0000
0101
0000
,  // measure 27
0100
0000
0000
0000
0110
0000
0000
0000
0100
0010
0000
0100
0000
0010
0100
0010
,  // measure 28
0100
0000
0000
0010
0000
0000
0100
0000
0001
0000
0000
0011
0000
0000
1100
0000
,  // measure 29
0001
0001
1000
1000
0010
0010
0100
0100
,  // measure 30
0001
0001
1000
1000
0100
0100
0010
0010
,  // measure 31
0001
0010
0001
0010
0001
0010
0001
0010
0100
1000
0100
1000
0100
1000
0100
1000
,  // measure 32
0002
0000
0000
1003
,  // measure 33
0100
0000
0000
0000
1100
0000
0000
0000
0100
1000
0000
0100
0000
1000
0100
1000
,  // measure 34
0100
0000
0000
0010
0000
0000
0001
0000
0100
0000
0000
0101
0000
0000
1010
0000
,  // measure 35
0010
0000
0000
0000
0110
0000
0000
0000
0010
0100
0000
0010
0000
0100
0010
0100
,  // measure 36
0010
0000
0000
0100
0000
0000
0010
0000
1000
0000
0000
1100
0000
0000
0011
0000
,  // measure 37
0001
0000
0000
0000
0101
0000
0000
0000
0001
0100
0000
0001
0000
0100
0001
0100
,  // measure 38
0001
0000
0000
1000
0000
0000
0010
0000
1000
0000
0000
1100
0000
0000
0011
0000
,  // measure 39
0001
0000
0000
0000
1001
0000
0000
0000
1000
0001
0000
1000
0000
0001
1000
0001
,  // measure 40
1000
0000
0000
0001
0000
0000
1000
0000
1100
0000
0000
0011
0000
0000
1000
0000
,  // measure 41
1000
0000
0000
0000
1010
0000
0000
0000
1000
0010
0000
1000
0000
0010
1000
0010
,  // measure 42
1000
0000
0000
0001
0000
0000
0100
0000
1000
0000
0000
1010
0000
0000
0101
0000
,  // measure 43
0001
0000
0000
0000
1001
0000
0000
0000
0001
1000
0000
0001
0000
1000
0001
1000
,  // measure 44
0001
0000
0000
1000
0000
0000
0001
0000
0010
0000
0000
0011
0000
0000
1100
0000
,  // measure 45
0100
0000
0000
0000
0011
0000
0000
0000
0010
0001
0000
0010
0000
0001
0010
0001
,  // measure 46
0010
0000
0000
0100
0000
0000
1000
0000
0100
0000
0000
0101
0000
0000
1010
0000
,  // measure 47
0010
0000
0000
0000
1001
0000
0000
0000
1000
0001
0000
1000
0000
0001
0010
0100
,  // measure 48
1000
0000
0000
0010
0000
0000
1000
0000
1100
0000
0000
0011
0000
0000
2000
0000
,  // measure 49
0002
0000
0000
0000
,  // measure 50
0000
0000
0000
0000
,  // measure 51
0000
0000
0000
0000
,  // measure 52
0000
0000
0000
3003
;

//---------------dance-single - Chewi----------------
#NOTES:
     dance-single:
     Chewi:
     Medium:
     9:
     0.442,0.498,0.102,0.170,0.034: // measure 1
0000
0000
0000
0000
,  // measure 2
0000
0000
0000
0000
,  // measure 3
0010
1000
0002
0000
0000
0000
0003
0000
,  // measure 4
1000
0100
0010
0001
0010
0010
0010
0000
,  // measure 5
0001
0010
0100
0000
1000
0000
0001
0000
,  // measure 6
0010
0100
1000
0000
0001
0000
0010
0000
,  // measure 7
0100
1000
0001
0000
0010
0000
0100
0000
,  // measure 8
1000
0001
0010
0000
0100
0000
1000
0000
,  // measure 9
0001
0100
0010
0000
1000
0000
0001
0000
,  // measure 10
0100
0010
1000
0000
0001
0000
0100
0000
,  // measure 11
0010
1000
0001
0000
0100
0000
0010
0000
,  // measure 12
1000
0001
0100
0000
0010
0000
1000
0000
,  // measure 13
0001
1000
0001
0000
1000
0001
1000
0000
,  // measure 14
0001
0010
0100
0000
1000
0010
0100
0000
,  // measure 15
0001
1000
0001
0000
1000
0001
1000
0000
,  // measure 16
1000
0100
0010
0000
0001
0010
0100
0000
,  // measure 17
1000
0001
0100
1000
,  // measure 18
0010
0001
0100
1000
,  // measure 19
0010
0100
1000
0000
0010
0100
0001
0000
,  // measure 20
0100
0010
1000
0000
0001
0100
0010
0000
,  // measure 21
0100
0010
1000
0001
2000
0000
3002
0000
,  // measure 22
1003
0100
0010
0001
0020
0000
0032
0000
,  // measure 23
0013
0100
1000
0001
2000
0000
3002
0000
,  // measure 24
1003
0010
0100
0001
0200
0000
0320
0000
,  // measure 25
0130
0000
0000
0000
0010
0000
0000
0000
1000
0000
0000
1000
0000
0000
1000
0000
,  // measure 26
0001
1000
1100
0101
,  // measure 27
1000
0000
0000
0000
0001
0000
0000
0000
1000
0000
0000
1000
0000
0000
1000
0000
,  // measure 28
0001
0010
1100
0011
,  // measure 29
0010
0100
1000
0000
0010
0100
0001
0000
,  // measure 30
1000
0010
0100
0000
0001
0100
0010
0000
,  // measure 31
1000
0001
1000
0001
1000
0001
1000
0001
,  // measure 32
2000
3200
0320
0032
,  // measure 33
0013
0000
0000
0000
0001
0000
0000
0000
0010
0000
0000
0010
0000
0000
0010
0000
,  // measure 34
0001
0010
0100
0000
1000
0100
0010
0000
,  // measure 35
0001
0000
0000
0000
1000
0000
0000
0000
0001
0000
0000
0001
0000
0000
0001
0000
,  // measure 36
1000
0001
0100
0000
0001
1000
0100
0000
,  // measure 37
1000
0000
0000
0000
0010
0000
0000
0000
0100
0000
0000
0100
0000
0000
0100
0000
,  // measure 38
0010
1000
0010
0000
1000
0010
1000
0000
,  // measure 39
0001
0000
0000
0000
0100
0000
0000
0000
0010
0000
0000
0010
0000
0000
0010
0000
,  // measure 40
0100
0001
0100
0000
0001
0100
0001
0000
,  // measure 41
1000
0100
1000
0000
0001
1000
0001
0000
,  // measure 42
0010
0001
0010
0000
0001
1000
0001
0000
,  // measure 43
1000
0100
1000
0000
0001
1000
0001
0000
,  // measure 44
0100
0010
0100
0000
0010
0100
0010
0000
,  // measure 45
0100
0000
0010
0000
1000
0001
1000
0000
,  // measure 46
0100
0000
0010
0000
0001
1000
0001
0000
,  // measure 47
1000
0100
1000
0000
0001
0010
0001
0000
,  // measure 48
0011
1100
0101
1010
,  // measure 49
2002
0000
0000
0000
,  // measure 50
0000
0000
0000
0000
,  // measure 51
0000
0000
0000
0000
,  // measure 52
0000
0000
0000
3003
;

//---------------dance-single - Chewi----------------
#NOTES:
     dance-single:
     Chewi:
     Beginner:
     4:
     0.220,0.264,0.011,0.091,0.000: // measure 1
0000
0000
0000
0000
,  // measure 2
0000
0000
0000
0000
,  // measure 3
2000
0000
3000
0000
,  // measure 4
0002
0000
0003
0000
,  // measure 5
1000
0000
1000
0000
,  // measure 6
0001
0000
0001
0000
,  // measure 7
0100
0000
0100
0000
,  // measure 8
0010
0000
0010
0000
,  // measure 9
1000
0000
1000
0000
,  // measure 10
0100
0000
0100
0000
,  // measure 11
0010
0000
0010
0000
,  // measure 12
0001
0000
0001
0000
,  // measure 13
0001
0001
0001
0001
,  // measure 14
0001
0001
0001
0001
,  // measure 15
1000
1000
1000
1000
,  // measure 16
1000
1000
1000
1000
,  // measure 17
0010
0010
0010
0010
,  // measure 18
0010
0010
0010
0010
,  // measure 19
0100
0100
0100
0100
,  // measure 20
0100
0100
0100
0100
,  // measure 21
0200
0000
0000
0300
,  // measure 22
0020
0000
0000
0030
,  // measure 23
2000
0000
0000
3000
,  // measure 24
0002
0000
0000
0003
,  // measure 25
1000
0000
0001
0000
,  // measure 26
1000
0001
1000
0000
,  // measure 27
0001
0000
1000
0000
,  // measure 28
0001
1000
0001
0000
,  // measure 29
0100
0000
0010
0000
,  // measure 30
0100
0010
0100
0000
,  // measure 31
0010
0000
0100
0000
,  // measure 32
0010
0100
0010
0000
,  // measure 33
0010
0010
0010
0010
,  // measure 34
0010
0010
0010
0010
,  // measure 35
0100
0100
0100
0100
,  // measure 36
0100
0100
0100
0100
,  // measure 37
0001
0001
0001
0001
,  // measure 38
0001
0001
0001
0001
,  // measure 39
1000
1000
1000
1000
,  // measure 40
1000
1000
1000
1000
,  // measure 41
1000
0000
0001
0000
,  // measure 42
1000
0001
1000
0000
,  // measure 43
0001
0000
1000
0000
,  // measure 44
0001
1000
0001
0000
,  // measure 45
0100
0000
0010
0000
,  // measure 46
0100
0010
0100
0000
,  // measure 47
0010
0000
0100
0000
,  // measure 48
0010
0100
0010
0000
,  // measure 49
0220
0000
0000
0000
,  // measure 50
0000
0000
0000
0000
,  // measure 51
0000
0000
0000
0000
,  // measure 52
0000
0000
0000
0330
;
