#TITLE:passionate fate;
#SUBTITLE:;
#ARTIST:Ryu☆;
#TITLETRANSLIT:;
#SUBTITLETRANSLIT:;
#ARTISTTRANSLIT:;
#GENRE:;
#CREDIT:Chewi☆;
#MENUCOLOR:#FFFFFF;
#METERTYPE:DDR X;
#BANNER:passionate fate.png;
#BACKGROUND:passionate fate-bg.png;
#LYRICSPATH:;
#CDTITLE:./CDTITLES/DanceDanceRevolution skyMIX2 -FREEDOM-.png;
#MUSIC:passionate fate.mp3;
#OFFSET:-3.570;
#SAMPLESTART:43.826;
#SAMPLELENGTH:15.000;
#SELECTABLE:YES;
#LISTSORT:;
#DISPLAYBPM:149.000;
#BPMS:0.000=149.000;
#STOPS:;
#BGCHANGES:;
#ATTACKS:;

//---------------dance-single - Chewi----------------
#NOTES:
     dance-single:
     Chewi:
     Hard:
     12:
     0.457,0.520,0.102,0.060,0.196:
0000
0000
0000
0000
,
0000
0000
0000
0000
,
0000
0000
0000
0000
,
0000
0000
0000
0000
,
1000
0000
0000
1000
0000
0000
0000
0000
0100
0000
0000
0100
0000
0000
0000
0000
,
1000
0100
0010
0000
0001
0000
0000
0000
,
0001
0000
0000
0001
0000
0000
0000
0000
1000
0000
0000
1000
0000
0000
0000
0000
,
0001
0010
0100
0000
1000
0000
0100
0000
,
2002
0000
0000
3003
,
0010
0010
1001
0000
,
0100
1000
0010
0000
0001
0000
0000
0000
,
0010
0010
1001
0000
,
0100
1000
0010
0000
0001
0000
0000
0000
,
1000
0000
0000
0100
0000
0000
0010
0000
0001
0000
0000
1000
0000
0000
0100
0000
,
0010
0001
0000
0100
0010
0100
0010
0100
,
0110
0000
0000
0000
0000
0000
0010
0000
1000
0000
0000
0001
0000
0000
0010
0000
,
0100
0010
0000
0100
0010
0100
0010
0100
,
0010
0000
0000
0001
0000
0000
0010
0000
0100
0000
0000
1000
0000
0000
0100
0000
,
1000
0001
0000
0100
0010
1000
0001
0010
,
0100
0000
0000
0000
0000
0000
0100
0000
0010
0000
0000
0001
0000
0000
0010
0000
,
0000
0000
0000
0001
0010
0100
1000
0010
,
0100
0000
0000
0100
0000
0000
0010
0000
1000
0000
0000
1000
0000
0000
0001
0000
,
0010
0100
0000
1000
0100
0010
0001
1000
,
0010
0000
0000
0010
0000
0000
0100
0010
0100
0000
0000
0010
0000
0000
2000
0000
,
0000
0000
0000
3000
,
0001
0010
0100
1000
0000
1000
0100
0010
,
0001
0000
0100
0000
1000
0000
0100
0000
0001
0000
0000
0000
1000
0001
1000
0001
,
1000
0010
0100
0001
0000
0100
0010
1000
,
0001
0001
1000
1000
0011
1010
0011
0000
,
1000
0100
0010
0001
0000
1000
0010
0001
,
0010
0000
1000
0000
0100
0000
0001
0000
0100
0000
0010
0000
1000
0010
1000
0010
,
1000
0001
0010
0100
0000
1000
0100
0010
,
0001
1000
0001
1000
0010
0100
0010
0100
,
0220
0000
0000
0330
,
0010
0000
0000
0010
0000
0000
1000
0000
0001
0000
0000
0001
0000
0000
0010
0000
,
0100
1000
0000
0010
1000
0100
0010
0001
,
0100
0000
0100
0010
1000
0001
0010
0100
,
1100
0000
1010
0000
1000
0001
0010
0100
,
1000
0000
0000
1000
0000
0000
0001
0000
0100
0000
0000
0100
0000
0000
0010
0000
,
1000
0001
0000
0010
0010
0100
0010
0100
,
0010
0000
0000
1000
0000
0100
0000
0001
,
0000
0010
0000
0100
0001
1000
0001
0000
,
0100
0000
0000
0010
0000
0000
0001
0000
0010
0000
0000
1000
0000
0000
0010
0000
,
0100
0010
0100
0010
1000
0001
1000
0001
,
1000
0000
0000
0100
0000
0000
0010
0000
0001
0000
0000
0010
0000
0000
0100
0000
,
1000
0000
0001
0000
0100
0000
0010
0000
0100
0000
0000
0100
0000
0000
0100
0000
,
0010
0000
0000
1000
0000
0000
0001
0000
0010
0000
0000
0100
0000
0000
1000
0000
,
0001
0000
1000
0000
0100
0000
0010
0000
0001
0000
0000
0001
0000
0000
0001
0000
,
0010
0000
0000
0100
0000
0000
1000
0000
0010
0000
0000
0100
0000
0000
0001
0000
,
0100
0010
0000
1000
0001
0010
0100
1000
,
0100
0000
0000
0100
0000
0000
0000
0000
0010
0000
0000
0010
0000
0000
0000
0000
,
0001
1000
0000
0000
0010
0100
0010
0000
,
0100
0000
0000
0100
0000
0000
0000
0000
0010
0000
0000
0010
0000
0000
0000
0000
,
1000
0010
0000
0000
0001
0010
0001
0000
,
1000
0100
0010
0001
1000
0100
1000
0000
,
0001
0010
0100
1000
0100
1000
0100
0000
,
1001
0000
0000
0100
0100
0010
0100
0010
,
0010
0000
0000
0000
1000
0010
0100
0001
,
0010
0000
0000
0010
0000
0000
0001
0000
0010
0000
0000
0010
0000
0000
0100
0000
,
1000
0010
0000
0100
0100
0010
1000
0001
,
0010
0000
0000
0100
0010
0001
1000
0010
,
0010
0000
0000
0000
0000
0000
0000
0000
0000
0000
0000
0000
1000
0000
0001
0000
1000
0000
0001
0000
0000
0010
0000
0000
,
0100
0000
0000
1000
0000
0000
0010
0000
1000
0000
0000
0100
0000
0000
0010
0000
,
0001
0010
0000
0100
1000
0001
1000
0010
,
0100
0000
0000
0000
0000
0000
0100
0000
0010
0000
0000
1000
0000
0000
0001
0000
,
0010
0000
0000
0010
0000
0000
0100
0000
0000
0010
0000
0000
0001
0000
0010
0000
,
0220
0000
0000
0000
,
0000
0000
0000
0000
,
0330
0000
0000
0000
;

//---------------dance-single - Chewi----------------
#NOTES:
     dance-single:
     Chewi:
     Beginner:
     2:
     0.080,0.116,0.026,0.009,0.000: // measure 1
0000
0000
0000
0000
,  // measure 2
0000
0000
0000
0000
,  // measure 3
0000
0000
0000
0000
,  // measure 4
0000
0000
0000
0000
,  // measure 5
1000
0000
0000
0000
,  // measure 6
0001
0000
0000
0000
,  // measure 7
1000
0000
0000
0000
,  // measure 8
0001
0000
0000
0000
,  // measure 9
0000
0000
0000
0000
,  // measure 10
0100
0000
0000
0000
,  // measure 11
0010
0000
0000
0000
,  // measure 12
0010
0000
0000
0000
,  // measure 13
0010
0000
0000
0000
,  // measure 14
1000
0000
0000
0000
,  // measure 15
1000
0000
0000
0000
,  // measure 16
1000
0000
0000
0000
,  // measure 17
1001
0000
0000
0000
,  // measure 18
0100
0000
0000
0000
,  // measure 19
0010
0000
0000
0000
,  // measure 20
1000
0000
0000
0000
,  // measure 21
0001
0000
0000
0000
,  // measure 22
0100
0000
0000
0000
,  // measure 23
0010
0000
0000
0000
,  // measure 24
0001
0000
0000
0000
,  // measure 25
1000
0000
0000
0000
,  // measure 26
1000
0000
0000
0000
,  // measure 27
0001
0000
0000
0000
,  // measure 28
0001
0000
0000
0000
,  // measure 29
1000
0000
0000
0000
,  // measure 30
0010
0000
0000
0000
,  // measure 31
1000
0000
0000
0000
,  // measure 32
0100
0000
0000
0000
,  // measure 33
0001
0000
0000
0000
,  // measure 34
1001
0000
0000
0000
,  // measure 35
0001
0000
0000
0000
,  // measure 36
0001
0000
0000
0000
,  // measure 37
0001
0000
0000
0000
,  // measure 38
0110
0000
0000
0000
,  // measure 39
1000
0000
0000
0000
,  // measure 40
1000
0000
0000
0000
,  // measure 41
0010
0000
0000
0000
,  // measure 42
0100
0000
0000
0000
,  // measure 43
1000
0000
0000
0000
,  // measure 44
0100
0000
0000
0000
,  // measure 45
0001
0000
0000
0000
,  // measure 46
0010
0000
0000
0000
,  // measure 47
1000
0000
0000
0000
,  // measure 48
0010
0000
0000
0000
,  // measure 49
0010
0000
0000
0000
,  // measure 50
1000
0000
0000
0000
,  // measure 51
1000
0000
0000
0000
,  // measure 52
0100
0000
0000
0000
,  // measure 53
0001
0000
0000
0000
,  // measure 54
0100
0000
0000
0000
,  // measure 55
1000
0000
0000
0000
,  // measure 56
1000
0000
0000
0000
,  // measure 57
0100
0000
0000
0000
,  // measure 58
0100
0000
0000
0000
,  // measure 59
0001
0000
0000
0000
,  // measure 60
0100
0000
0000
0000
,  // measure 61
1000
0000
0000
0000
,  // measure 62
0100
0000
0000
0000
,  // measure 63
1000
0000
0000
0000
,  // measure 64
0100
0000
0000
0000
,  // measure 65
0001
0000
0000
0000
,  // measure 66
0001
0000
0000
0000
,  // measure 67
0020
0000
0000
0000
,  // measure 68
0000
0000
0000
0000
,  // measure 69
0030
0000
0000
0000
;

//---------------dance-single - Chewi----------------
#NOTES:
     dance-single:
     Chewi:
     Easy:
     5:
     0.296,0.318,0.051,0.179,0.000: // measure 1
0000
0000
0000
0000
,  // measure 2
0000
0000
0000
0000
,  // measure 3
0000
0000
0000
0000
,  // measure 4
0000
0000
0000
0000
,  // measure 5
2000
0000
0010
0000
,  // measure 6
3002
0000
0010
0000
,  // measure 7
2003
0000
0100
0000
,  // measure 8
3002
0000
0100
0000
,  // measure 9
0003
0000
0000
0000
,  // measure 10
0100
0010
0100
0000
,  // measure 11
0010
1000
0100
0000
,  // measure 12
0010
0100
0010
0000
,  // measure 13
0010
0001
0100
0000
,  // measure 14
1000
0100
0001
0100
,  // measure 15
1000
0010
0001
0010
,  // measure 16
1000
0000
0001
0000
,  // measure 17
1001
0000
0000
0000
,  // measure 18
0100
0100
0100
0100
,  // measure 19
0010
0100
0010
0100
,  // measure 20
1000
1000
1000
1000
,  // measure 21
0001
1000
0001
1000
,  // measure 22
0100
0100
0100
0100
,  // measure 23
0010
0100
0010
0100
,  // measure 24
0001
0001
0001
0001
,  // measure 25
1000
0001
1000
0001
,  // measure 26
2000
3010
0002
0103
,  // measure 27
0001
1000
0001
1000
,  // measure 28
0002
0103
2000
3010
,  // measure 29
1000
0001
1000
0001
,  // measure 30
0020
0130
2000
3001
,  // measure 31
1000
0100
0010
0001
,  // measure 32
0200
0310
2000
3001
,  // measure 33
0001
0010
0100
1000
,  // measure 34
2002
0000
0000
3003
,  // measure 35
0001
0100
1000
0100
,  // measure 36
0001
0010
1000
0010
,  // measure 37
0001
1000
0100
0010
,  // measure 38
0110
0000
0100
0100
,  // measure 39
1000
0010
0001
0010
,  // measure 40
1000
0100
0001
0100
,  // measure 41
0010
0100
0010
1000
,  // measure 42
0100
0001
0010
0100
,  // measure 43
1000
1000
1000
1000
,  // measure 44
0100
0010
0001
0010
,  // measure 45
0001
0001
0001
0001
,  // measure 46
0010
0100
1000
0100
,  // measure 47
1000
1000
1000
1000
,  // measure 48
0010
0100
0001
0100
,  // measure 49
0010
0010
0010
0010
,  // measure 50
1000
0001
0010
0100
,  // measure 51
2000
0000
3020
0000
,  // measure 52
0230
0000
0001
0001
,  // measure 53
0302
0000
2003
0000
,  // measure 54
3200
0000
1000
1000
,  // measure 55
1300
0001
1000
0100
,  // measure 56
1000
0001
1000
0001
,  // measure 57
0100
0001
0100
1000
,  // measure 58
0100
1000
0100
1000
,  // measure 59
0001
1001
1000
0010
,  // measure 60
0100
0001
0010
0100
,  // measure 61
1000
0010
0100
0001
,  // measure 62
0100
0010
0110
0000
,  // measure 63
1000
1001
0010
0001
,  // measure 64
0100
1000
0010
0100
,  // measure 65
0001
1000
0100
0010
,  // measure 66
0001
1000
0100
0010
,  // measure 67
0020
0000
0000
0000
,  // measure 68
0000
0000
0000
0000
,  // measure 69
0030
0000
0000
0000
;

//---------------dance-single - Chewi----------------
#NOTES:
     dance-single:
     Chewi:
     Medium:
     7:
     0.338,0.376,0.085,0.102,0.064: // measure 1
0000
0000
0000
0000
,  // measure 2
0000
0000
0000
0000
,  // measure 3
0000
0000
0000
0000
,  // measure 4
0000
0000
0000
0000
,  // measure 5
1000
0000
0000
1000
0000
0000
0000
0000
1000
0000
0000
1000
0000
0000
0000
0000
,  // measure 6
0010
0100
0001
1000
,  // measure 7
0001
0000
0000
0001
0000
0000
0000
0000
0001
0000
0000
0001
0000
0000
0000
0000
,  // measure 8
0001
1000
0100
0010
,  // measure 9
0110
0000
0000
0000
,  // measure 10
0010
1000
0100
0010
,  // measure 11
0001
0100
0010
1000
,  // measure 12
0001
1000
0001
0000
1000
0001
1000
0000
,  // measure 13
1001
0100
0000
0000
,  // measure 14
0100
1000
0010
0100
,  // measure 15
0001
0010
0100
0010
,  // measure 16
0001
1000
0001
0000
1000
0001
1000
0000
,  // measure 17
1001
0010
0000
0000
,  // measure 18
1000
0000
0000
1000
0000
0000
0000
0000
1000
0000
0000
1000
0000
0000
0000
0000
,  // measure 19
0010
0100
0000
0000
0100
0000
0100
0000
,  // measure 20
0001
0000
0001
0000
1000
0100
0010
0001
,  // measure 21
0010
0000
0100
0100
,  // measure 22
0001
0000
0000
0001
0000
0000
0000
0000
0001
0000
0000
0001
0000
0000
0000
0000
,  // measure 23
1000
0001
0000
0000
1000
0000
0010
0000
,  // measure 24
0001
0000
0100
0000
0010
1000
0100
1000
,  // measure 25
0010
0000
0000
0000
,  // measure 26
1000
0100
1000
0100
1000
0000
0010
0000
,  // measure 27
0001
0010
1000
0010
,  // measure 28
0100
0001
0100
0001
0100
0000
0010
0000
,  // measure 29
1000
0001
0010
0100
,  // measure 30
0010
0001
0010
0001
0010
0000
0100
0000
,  // measure 31
1000
0001
0100
0010
,  // measure 32
0100
0010
0100
0010
0100
0000
0001
0000
,  // measure 33
0010
0100
1000
0001
,  // measure 34
2002
0000
0000
3003
,  // measure 35
0001
0000
0000
0001
0000
0000
0000
0000
1000
0000
0000
1000
0000
0000
0000
0000
,  // measure 36
0010
0000
0000
0010
0000
0000
0000
0000
0100
0000
0000
0000
0010
0000
0000
0000
,  // measure 37
0100
0001
1000
0100
,  // measure 38
0010
0000
0001
0000
0010
0100
0010
0000
,  // measure 39
0001
0000
0000
0001
0000
0000
0000
0000
0100
0000
0000
0100
0000
0000
0000
0000
,  // measure 40
0010
0000
0000
0010
0000
0000
0000
0000
1000
0000
0000
1000
0000
0000
0000
0000
,  // measure 41
0010
0100
0001
1000
,  // measure 42
0100
0010
0001
0010
,  // measure 43
0100
1000
0100
0000
1000
0010
1000
0000
,  // measure 44
0010
0001
0100
1000
,  // measure 45
0010
0100
0010
0000
1000
0001
1000
0000
,  // measure 46
0100
1000
0010
0001
,  // measure 47
0100
0010
0100
0000
0001
0010
0001
0000
,  // measure 48
0010
1000
0100
0001
,  // measure 49
0010
0100
0010
0000
0001
1000
0001
0000
,  // measure 50
0100
1000
0010
0001
,  // measure 51
0200
0000
2300
0000
,  // measure 52
3020
0000
0230
0000
,  // measure 53
0320
0000
0032
0000
,  // measure 54
0203
0000
2300
0000
,  // measure 55
3010
0000
0010
0000
0010
0010
0010
0000
,  // measure 56
0100
0000
0100
0000
0100
0100
0100
0000
,  // measure 57
1000
0000
0100
0000
1000
0001
0100
0000
,  // measure 58
0001
1000
0001
0100
,  // measure 59
0001
0100
1000
0010
,  // measure 60
1000
0000
0100
0000
0001
1000
0010
0000
,  // measure 61
0100
0010
0001
1000
,  // measure 62
0010
0100
0001
0101
,  // measure 63
0100
0010
1000
0001
,  // measure 64
0010
0000
0100
0000
1000
0010
0001
0000
,  // measure 65
0110
0000
1010
0101
,  // measure 66
0011
0001
1000
0100
,  // measure 67
2002
0000
0000
0000
,  // measure 68
0000
0000
0000
0000
,  // measure 69
3003
0000
0000
0000
;
