#TITLE:only my railgun (DJ A.Q. REMIX);
#SUBTITLE:;
#ARTIST:fripSide;
#TITLETRANSLIT:;
#SUBTITLETRANSLIT:;
#ARTISTTRANSLIT:;
#CREDIT:Chewi☆;
#MENUCOLOR:;
#METERTYPE:DDR X;
#BANNER:only my railgun (DJ A.Q. REMIX).png;
#BACKGROUND:only my railgun (DJ A.Q. REMIX)-bg.png;
#LYRICSPATH:;
#CDTITLE:;
#MUSIC:only my railgun (DJ A.Q. REMIX).mp3;
#OFFSET:-0.772;
#SAMPLESTART:30.665;
#SAMPLELENGTH:15.000;
#SELECTABLE:YES;
#DISPLAYBPM:128.000;
#BPMS:0.000=128.080;
#STOPS:;
#BGCHANGES:;

//---------------dance-single - Chewi----------------
#NOTES:
     dance-single:
     Chewi:
     Challenge:
     9:
     0.425,0.494,0.219,0.100,0.000:
0000
0000
0000
0000
,
0000
0000
0000
0000
,
0000
0000
0000
0000
,
0000
0000
0000
0000
,
0010
0010
0010
0010
,
1000
1000
1000
1000
,
0100
0100
0100
0100
,
0001
0001
0001
0001
,
0001
1000
0010
0100
,
0220
0000
0000
0300
,
2000
0000
0000
0030
,
0002
0000
0000
3000
,
0020
0000
0000
0003
,
0200
0000
0000
0030
,
2000
0000
0000
0300
,
0002
0000
0000
3003
,
0001
0010
0100
0000
1000
0010
0100
0000
,
0001
1000
0100
0000
1000
0001
0010
0000
,
0100
1000
0010
0000
0100
0001
0010
0000
,
0001
0010
0100
0010
0001
0010
0100
1000
,
0010
0100
1000
0000
0010
0100
0001
0000
,
1000
0100
0001
0000
1000
0010
0001
0000
,
1000
0010
1000
0000
0100
0001
0100
0000
,
0001
0010
0001
0000
0100
1000
0100
0000
,
1000
0010
0100
0001
0010
0100
1000
0000
,
0001
0100
0010
1000
0001
0010
0100
0000
,
1000
0100
0010
0001
1000
0010
0100
0000
,
1001
0110
1001
0110
,
0001
0100
0010
0100
0001
0010
0100
0000
,
0010
0100
1000
0100
0010
0100
1000
0000
,
1000
0010
0100
0001
0100
0010
1000
0000
,
1001
0010
0100
0010
0011
0100
1000
0010
,
0001
0010
0100
0000
1000
0100
0010
0001
,
0010
0100
1000
0000
0001
0100
1000
0100
,
0001
0001
1000
1000
0100
0010
0001
0010
,
0110
1000
1001
0110
,
0100
0001
0100
0010
1000
0001
1000
0000
,
1000
0001
0010
0100
1000
0001
1000
0000
,
1000
0001
0100
0010
1000
0001
0010
0100
,
0010
0010
0100
0100
0001
0010
0100
0001
,
0010
0100
1000
0001
0010
0100
1000
0000
,
1000
0100
0010
0001
1000
0010
0100
0000
,
0010
0100
0001
0010
0100
1000
0001
0000
,
1000
0001
1000
0001
0010
0100
0010
0100
,
0010
0001
0100
1000
0100
0001
0010
0000
,
0010
0100
1000
0001
0100
0010
1000
0000
,
0001
0010
0100
1000
0010
0100
0001
0000
,
0110
1000
0110
0000
0110
0001
0110
0000
,
2002
0000
0000
3003
,
0001
0010
0100
1000
0010
0000
0101
0000
,
1000
1001
0001
1001
,
1000
0100
0010
0001
0100
0000
0110
0000
,
0020
1000
0001
1030
,
0010
0100
0001
0010
0100
1000
1010
0000
,
1000
1100
0001
0101
,
0010
1000
0100
0010
0001
0010
0100
0000
,
0011
1000
0010
0100
0001
0100
0010
1000
,
1001
0000
0000
0000
;

//---------------dance-double - Chewi----------------
#NOTES:
     dance-double:
     Chewi:
     Challenge:
     9:
     0.445,0.442,0.110,0.018,0.000: // measure 1
00000000
00000000
00000000
00000000
,  // measure 2
00000000
00000000
00000000
00000000
,  // measure 3
00000000
00000000
00000000
00000000
,  // measure 4
00000000
00000000
00000000
00000000
,  // measure 5
10000000
10000000
10000000
10000000
,  // measure 6
00010000
00010000
00010000
00010000
,  // measure 7
00100000
00100000
00100000
00100000
,  // measure 8
00001000
00001000
00001000
00001000
,  // measure 9
00000010
00000010
00000010
00000010
,  // measure 10
00000100
00000100
00000100
00000100
,  // measure 11
00000010
00001000
00000001
00000010
,  // measure 12
00000100
00001000
00010000
01000000
,  // measure 13
10000000
00100000
00010000
00100000
,  // measure 14
01000000
00000000
00100000
00000000
01000000
00100000
01000000
00000000
,  // measure 15
00010000
00000000
10000000
00000000
00010000
10000000
00010000
00000000
,  // measure 16
00100000
00010000
00001000
00001010
,  // measure 17
00001000
00000010
00000100
00000001
00000010
00000000
00001100
00000000
,  // measure 18
00000001
00000010
00000100
00001000
00000010
00000000
00000110
00000000
,  // measure 19
00000010
00001000
00000100
00010000
00001000
00000000
00001000
00000000
,  // measure 20
00100000
00010000
01000000
00000000
00100000
10000000
01000000
00000000
,  // measure 21
10000000
01000000
00100000
00010000
01000000
00000000
01100000
00000000
,  // measure 22
01000000
00010000
00100000
00001000
00010000
00000000
00010100
00000000
,  // measure 23
00000100
00001000
00000010
00000100
00000001
00000000
00000010
00000000
,  // measure 24
00000001
00000010
00000100
00001000
00000001
00000010
00000100
00001000
,  // measure 25
00000001
00001000
00000010
00000100
00000001
00000100
00000010
00000000
,  // measure 26
00001000
00000100
00010000
00001000
00100000
00010000
01000000
00000000
,  // measure 27
00100000
10000000
00010000
00100000
00100000
00010000
10000000
00000000
,  // measure 28
00100000
10000000
00010000
00100000
01000000
10000000
00100000
01000000
,  // measure 29
00010000
00100000
00001000
00010000
00000100
00001000
00000001
00000000
,  // measure 30
00000100
00000010
00001000
00000001
00000010
00000000
00000011
00000000
,  // measure 31
00000001
00000010
00000100
00001000
00000010
00000100
00000110
00000000
,  // measure 32
00000010
00001000
00000010
00001000
00000100
00001000
00000100
00001000
,  // measure 33
00000100
00010000
00001000
00000000
00001000
00010000
01000000
00000000
,  // measure 34
01000000
10000000
00100000
00000000
10000000
00100000
00010000
00100000
,  // measure 35
01000000
00100000
01000000
00000000
01000000
10000000
01010000
00000000
,  // measure 36
01000000
00010000
01000000
10000000
00100000
00010000
00100000
10000000
,  // measure 37
00100000
01000000
00100000
00010000
00100000
00001000
00010000
00000000
,  // measure 38
00010000
00000100
00001000
00000000
00000001
00000100
00000110
00000000
,  // measure 39
00000010
00001000
00000001
00000010
00000100
00001000
00000010
00000000
,  // measure 40
00000010
00001000
00000010
00001000
00000010
00000001
00000010
00000001
,  // measure 41
00000010
00001000
00000100
00000000
00000100
00010000
00001000
00100000
,  // measure 42
00010000
01000000
00100000
00000000
00100000
10000000
01000000
00100000
,  // measure 43
00010000
00100000
01000000
10000000
00100000
01000000
01010000
00000000
,  // measure 44
01000000
00100000
10000000
00010000
00100000
01000000
10000000
00010000
,  // measure 45
10000000
01000000
00100000
00000000
00010000
00100000
00001000
00000000
,  // measure 46
00000010
00000001
00000100
00000000
00001000
00000010
00000100
00000000
,  // measure 47
00000010
00001000
00000100
00000010
00000001
00000100
00000010
00001000
,  // measure 48
00000001
00001000
00000001
00000000
00001000
00000001
00001000
00000000
,  // measure 49
00002002
00000000
00000000
00003003
,  // measure 50
00000001
00001000
00000100
00010000
00001000
00100000
00010000
00000000
,  // measure 51
00010000
10000000
00010000
10000000
00100000
10000000
00100000
10000000
,  // measure 52
00100000
01000000
00010000
00100000
01000000
10000000
00100000
00000000
,  // measure 53
01000000
00010000
01000000
00000000
00001000
00100000
00001000
00000000
,  // measure 54
00100000
00001000
00000010
00000001
00000100
00001000
00000010
00000100
,  // measure 55
00000001
00000100
00000001
00000000
00001000
00000100
00001000
00000000
,  // measure 56
00000001
00001000
00000010
00000100
00000001
00001000
00000100
00000010
,  // measure 57
00000001
00000001
00001000
00001000
00000100
00000100
00010000
00010000
,  // measure 58
00011000
00000000
00000000
00000000
;
