#TITLE:nyc EVOLVED (ver. B);
#SUBTITLE:;
#ARTIST:xRGTMx Underground;
#TITLETRANSLIT:;
#SUBTITLETRANSLIT:;
#ARTISTTRANSLIT:;
#GENRE:;
#CREDIT:Chewphoria~ & xRGTMx;
#MENUCOLOR:;
#METERTYPE:DDR;
#BANNER:nyc EVOLVED (ver. B).png;
#BACKGROUND:nyc EVOLVED (ver. B)-bg.png;
#LYRICSPATH:;
#CDTITLE:;
#MUSIC:nyc EVOLVED (ver. B).mp3;
#OFFSET:-0.040;
#SAMPLESTART:37.540;
#SAMPLELENGTH:15.000;
#SELECTABLE:YES;
#LISTSORT:;
#BPMS:0.000=160.000,128.000=80.000,160.000=160.000,164.000=320.000;
#STOPS:228.000=0.375
,260.000=0.375
,276.000=0.375
;
#BGCHANGES:;
#ATTACKS:;

//---------------dance-single - xRGTMx----------------
#NOTES:
     dance-single:
     xRGTMx:
     Hard:
     16:
     0.756,1.000,0.314,0.118,0.367: // measure 1
0000
0000
0000
0000
,  // measure 2
0000
0000
0000
0000
,  // measure 3
0000
0000
0000
0000
,  // measure 4
0000
0000
0000
0000
,  // measure 5
2000
0000
0000
0000
,  // measure 6
3000
0000
0000
0000
,  // measure 7
0002
0000
0000
0000
,  // measure 8
0203
0000
0320
0000
,  // measure 9
1030
0000
1000
0000
0001
0100
0001
0000
,  // measure 10
1000
0000
1000
0000
0001
0010
0001
0000
,  // measure 11
0100
0100
0010
0000
1000
1000
0001
0000
,  // measure 12
0010
0010
0100
0100
1000
1000
0001
0001
,  // measure 13
1001
1000
0100
0010
0001
0100
0010
1000
,  // measure 14
1001
0001
0100
0010
1000
0100
0010
0001
,  // measure 15
1001
1000
0100
0010
1001
0001
0100
0010
,  // measure 16
1000
0010
1000
0010
1000
0001
1000
0001
0010
0001
0010
0001
1000
0001
1000
0001
,  // measure 17
1000
0000
0100
0000
0010
0000
0001
0000
0100
0010
0000
0010
0100
0000
0001
0000
,  // measure 18
0100
0000
0010
0000
1000
0000
0001
0000
0010
0100
0000
0100
0010
0000
0100
0000
,  // measure 19
1000
0000
0010
0000
1000
0000
0001
0000
0010
0100
0000
0010
0001
0000
1000
0000
,  // measure 20
0001
0000
0100
0000
0001
0000
1000
0000
0100
0010
0000
0100
1000
0000
0001
0000
,  // measure 21
1000
0000
0001
0000
0100
0000
0010
0000
1000
0100
0000
0001
0100
0000
1000
0000
,  // measure 22
0001
0000
0100
0000
0010
0000
1000
0000
0001
0100
0000
1000
0100
0000
0001
0000
,  // measure 23
1000
0100
0010
0100
1000
0010
0100
0010
,  // measure 24
1001
0000
1000
0000
0001
0000
0100
0000
0010
1000
0010
1000
0001
0000
1000
0000
,  // measure 25
0001
0000
0001
0000
1000
0100
1000
0000
,  // measure 26
0001
0000
0001
0000
1000
0010
1000
0000
,  // measure 27
0010
0000
0010
0000
0100
0010
0100
0000
,  // measure 28
0010
0000
0010
0000
0100
0010
0100
0000
,  // measure 29
2002
0000
0000
0000
,  // measure 30
0000
0000
0003
0000
,  // measure 31
3200
0000
0000
0000
,  // measure 32
0320
0000
0000
0000
,  // measure 33
0031
0000
0100
0010
1010
0000
0100
0000
0010
1000
0100
0010
0011
0000
0100
1000
,  // measure 34
0001
0000
0100
0010
1001
0000
0010
0000
0100
0001
1000
0100
0011
0010
0100
1000
,  // measure 35
0001
0000
0010
0100
1100
0000
0010
0000
0100
1000
0010
0100
0101
0000
0010
1000
,  // measure 36
0001
0000
0000
0000
0010
0000
0100
0000
1001
0000
0000
0000
0100
0000
0000
0000
0010
0000
0001
0000
1000
0000
0100
0010
0100
0000
0000
0000
1001
0000
0000
0000
,  // measure 37
1000
0100
0001
0100
1000
0010
0001
0010
1000
0100
0001
1000
0001
0100
1000
0001
,  // measure 38
1000
0010
0001
0010
1000
0100
0001
0100
1000
0010
0001
1000
0001
0010
1000
0001
,  // measure 39
1000
0100
0010
0100
1000
0100
0010
0001
0100
0010
0100
0001
0010
0100
1000
0001
,  // measure 40
0100
0010
1000
0100
0010
0100
1000
0010
0100
0001
1000
0100
0011
0100
1010
0100
,  // measure 41
2002
0000
0000
0000
0000
0000
3000
0000
1003
0100
1000
0100
0010
0100
0010
0100
,  // measure 42
0010
0000
0001
0000
0011
0000
0001
0100
,  // measure 43
0010
1000
0001
0000
1001
0000
0001
1000
,  // measure 44
0010
0000
1000
0000
1010
0000
1000
0100
,  // measure 45
0010
0001
1000
0000
1001
0000
1000
0001
,  // measure 46
0100
0000
0010
0000
0110
0000
0100
0001
,  // measure 47
0010
0100
1000
0000
1001
0000
1000
0001
,  // measure 48
0100
0000
0001
0000
1001
0000
1000
0100
,  // measure 49
0010
0100
0010
0100
1000
0100
1000
0100
,  // measure 50
0010
0000
0001
0000
0101
0000
0001
0010
,  // measure 51
0100
1000
0001
0000
1001
0000
0001
1000
,  // measure 52
0100
0000
1000
0000
1100
0000
1000
0010
,  // measure 53
0100
0001
1000
0000
1001
0000
1000
0001
,  // measure 54
0010
0000
0100
0000
0110
0000
0010
0001
,  // measure 55
0100
0010
1000
0000
1001
0000
1000
0001
,  // measure 56
0010
0000
0001
0000
1001
0000
1000
0010
,  // measure 57
0100
0010
0100
0010
1000
0010
1000
0010
,  // measure 58
1000
0000
0001
0000
1000
0100
0010
0001
,  // measure 59
1000
0010
1000
0010
0100
0010
0100
0010
,  // measure 60
1000
0000
0001
0000
1000
0010
0100
0001
,  // measure 61
1000
0100
1000
0100
0010
0100
0010
0100
,  // measure 62
1000
0000
0001
0000
1000
0100
0010
0001
,  // measure 63
0100
0010
0100
0010
1000
0001
1000
0001
,  // measure 64
1000
0000
0001
0000
1000
0010
0100
0001
,  // measure 65
0010
0100
0010
0100
1000
0000
0001
0000
,  // measure 66
1000
0100
1000
0100
0010
0100
0010
0100
,  // measure 67
0010
0001
0010
0001
1000
0001
1000
0001
,  // measure 68
1000
0010
1000
0010
0100
0010
0100
0010
,  // measure 69
0100
0001
0100
0001
1000
0001
1000
0001
,  // measure 70
1000
0100
0010
0001
0100
0010
1000
0100
,  // measure 71
0010
0001
0100
0010
1000
0100
0010
0001
,  // measure 72
1000
0100
1000
0001
0100
0001
1000
0010
,  // measure 73
1000
0001
0010
0001
1000
0100
0010
0001
,  // measure 74
2002
0000
0000
0000
,  // measure 75
0000
0000
0000
0000
,  // measure 76
3003
0000
0000
0000
;

//---------------dance-single - Chewphoria~----------------
#NOTES:
     dance-single:
     Chewphoria~:
     Beginner:
     6:
     0.235,0.331,0.029,0.059,0.000: // measure 1
0000
0000
0000
0000
,  // measure 2
0000
0000
0000
0000
,  // measure 3
0000
0000
0000
0000
,  // measure 4
0000
0000
0000
0000
,  // measure 5
1000
0000
1000
0000
,  // measure 6
0001
0000
0001
0000
,  // measure 7
0010
0000
0010
0000
,  // measure 8
0100
0000
0100
0000
,  // measure 9
0001
0001
1000
1000
,  // measure 10
0010
0010
0010
0000
,  // measure 11
0100
0100
0010
0010
,  // measure 12
1000
1000
1000
0000
,  // measure 13
0001
0001
1000
1000
,  // measure 14
0100
0100
0100
0000
,  // measure 15
0020
0000
0000
0030
,  // measure 16
0002
0000
0000
0003
,  // measure 17
1000
1000
1000
1000
,  // measure 18
0001
0001
0001
0000
,  // measure 19
0001
0001
0001
0001
,  // measure 20
1000
1000
1000
0000
,  // measure 21
1000
0010
1000
0010
,  // measure 22
0020
0000
0000
0030
,  // measure 23
0001
0010
0001
0010
,  // measure 24
0020
0000
0000
0030
,  // measure 25
1000
1000
0010
1000
,  // measure 26
0010
0010
1000
0010
,  // measure 27
0001
0001
0010
0001
,  // measure 28
0010
0010
0001
0010
,  // measure 29
1000
0001
1000
0001
,  // measure 30
0010
0100
0010
0100
,  // measure 31
0001
0100
0001
0100
,  // measure 32
1000
0100
1000
0100
,  // measure 33
0100
0010
0000
0010
,  // measure 34
0001
0010
0000
0001
,  // measure 35
0001
0100
0000
0100
,  // measure 36
0010
0100
0000
0010
,  // measure 37
1000
0010
0000
1000
,  // measure 38
0100
0001
0000
0100
,  // measure 39
0001
0010
0000
0110
,  // measure 40
0010
1000
0000
0010
,  // measure 41
0001
0001
0001
1001
,  // measure 42
1000
0000
1000
0000
,  // measure 43
1000
0000
0000
0000
,  // measure 44
0010
0000
0010
0000
,  // measure 45
0010
0000
0000
0000
,  // measure 46
0100
0000
0100
0000
,  // measure 47
0100
0000
0000
0000
,  // measure 48
0001
0000
0001
0000
,  // measure 49
0001
0000
0000
0000
,  // measure 50
0010
0000
0010
0000
,  // measure 51
0010
0000
0000
0000
,  // measure 52
0100
0000
0100
0000
,  // measure 53
0100
0000
0000
0000
,  // measure 54
1000
0000
1000
0000
,  // measure 55
1000
0000
0000
0000
,  // measure 56
0001
0000
0001
0000
,  // measure 57
0001
0000
0000
0000
,  // measure 58
0000
0000
0001
0000
,  // measure 59
0000
0000
1000
0000
,  // measure 60
0000
0000
0001
0000
,  // measure 61
0000
0000
1000
0000
,  // measure 62
0000
0000
0010
0000
,  // measure 63
0000
0000
0100
0000
,  // measure 64
0000
0000
0010
0000
,  // measure 65
0000
0000
0100
0000
,  // measure 66
0000
0000
0001
0000
,  // measure 67
0000
0000
0010
0000
,  // measure 68
0000
0000
1000
0000
,  // measure 69
0000
0000
0100
0000
,  // measure 70
0000
0000
1000
0000
,  // measure 71
0001
0000
1000
0000
,  // measure 72
0010
0000
0010
0000
,  // measure 73
0010
0000
0010
0000
,  // measure 74
2002
0000
0000
0000
,  // measure 75
0000
0000
0000
0000
,  // measure 76
3003
0000
0000
0000
;

//---------------dance-single - Chewphoria~----------------
#NOTES:
     dance-single:
     Chewphoria~:
     Easy:
     8:
     0.418,0.514,0.284,0.098,0.000: // measure 1
0000
0000
0000
0000
,  // measure 2
0000
0000
0000
0000
,  // measure 3
0000
0000
0000
0000
,  // measure 4
0000
0000
0000
0000
,  // measure 5
1000
0010
0001
0100
,  // measure 6
1000
0100
0001
0010
,  // measure 7
1000
1000
0001
0001
,  // measure 8
0220
0000
0000
0330
,  // measure 9
0010
1000
0010
1000
,  // measure 10
0010
0001
0010
0001
,  // measure 11
0010
0100
0010
0100
,  // measure 12
1000
0001
1000
0001
,  // measure 13
0200
0010
0010
0310
,  // measure 14
0020
0100
0100
0130
,  // measure 15
2000
0001
0001
3001
,  // measure 16
0002
1000
1000
1003
,  // measure 17
0010
0100
0010
0000
1000
0000
0100
0000
,  // measure 18
0001
0100
1000
0010
,  // measure 19
0001
0010
0001
0000
0010
0000
1000
0000
,  // measure 20
0100
0001
0100
1000
,  // measure 21
0010
0100
0010
0000
1000
0000
0100
0000
,  // measure 22
0010
0001
0100
0010
,  // measure 23
1000
0010
1000
0000
0001
0000
0010
0000
,  // measure 24
0100
1000
1000
1100
,  // measure 25
0010
0001
0010
0000
0001
0000
0100
0000
,  // measure 26
0010
0000
1000
0000
0001
1000
0001
0000
,  // measure 27
0010
0110
0010
0011
,  // measure 28
0100
0101
0100
1100
,  // measure 29
1000
0010
1000
0000
0010
0000
0010
0000
,  // measure 30
0100
0001
0100
0000
0100
0000
0100
0000
,  // measure 31
0010
1000
0001
0000
0100
1000
0001
0000
,  // measure 32
0010
0001
1000
0000
0010
0100
0010
0000
,  // measure 33
1000
0000
0001
0000
0011
0010
0010
0000
,  // measure 34
0001
0000
1100
0000
0100
0100
0100
0000
,  // measure 35
1000
0001
0001
0000
0001
0000
0101
0000
,  // measure 36
0001
0100
0010
0000
0010
0000
1010
0000
,  // measure 37
1000
0100
1000
0100
0001
0000
0001
0000
,  // measure 38
0001
0100
0001
0100
1000
0000
1000
0000
,  // measure 39
0010
0100
0010
0100
1000
0000
1000
0000
,  // measure 40
1000
0001
1000
0001
0010
0000
0100
0000
,  // measure 41
2002
0000
0000
3003
,  // measure 42
1000
0010
1000
0010
,  // measure 43
1000
0000
1100
0000
,  // measure 44
0001
0100
0001
0100
,  // measure 45
0001
0000
0101
0000
,  // measure 46
1000
0100
0010
0001
,  // measure 47
0010
0000
0110
0000
,  // measure 48
0001
0010
0100
1000
,  // measure 49
0100
0000
1001
0000
,  // measure 50
1000
0001
0010
0001
,  // measure 51
1000
0010
1000
0000
,  // measure 52
1000
0010
1000
0001
,  // measure 53
0010
0001
0010
0000
,  // measure 54
0100
1000
0100
0001
,  // measure 55
0100
0010
0110
0000
,  // measure 56
1000
0001
1000
0010
,  // measure 57
1000
0001
0010
0000
,  // measure 58
0000
0000
1100
0000
,  // measure 59
0101
0000
0010
0100
,  // measure 60
0010
0000
1010
0000
,  // measure 61
0011
0000
0010
0100
,  // measure 62
0010
0000
1001
0000
,  // measure 63
1100
0000
1000
0100
,  // measure 64
1000
0000
1001
0000
,  // measure 65
0011
0000
1000
0100
,  // measure 66
0000
0000
1000
0100
,  // measure 67
1000
0100
1000
0000
,  // measure 68
0000
0000
0001
0010
,  // measure 69
0001
0010
0001
0000
,  // measure 70
0000
1001
0000
1010
,  // measure 71
0000
1001
0000
0011
,  // measure 72
0010
0100
1000
0001
,  // measure 73
0100
0010
1000
0001
,  // measure 74
2002
0000
0000
0000
,  // measure 75
0000
0000
0000
0000
,  // measure 76
3003
0000
0000
0000
;

//---------------dance-single - Chewphoria~----------------
#NOTES:
     dance-single:
     Chewphoria~:
     Medium:
     11:
     0.530,0.698,0.059,0.118,0.034: // measure 1
0000
0000
0000
0000
,  // measure 2
0000
0000
0000
0000
,  // measure 3
0000
0000
0000
0000
,  // measure 4
0000
0000
0000
0000
,  // measure 5
2000
0001
0002
0000
0000
0000
3003
0000
,  // measure 6
0000
0000
0000
0000
,  // measure 7
0002
1000
2000
0000
0000
0000
3003
0000
,  // measure 8
0200
0010
0020
0000
0000
0000
0330
0000
,  // measure 9
1000
0010
0001
0000
0100
0000
1000
0000
,  // measure 10
0100
0001
0100
1000
,  // measure 11
1000
0100
0001
0000
0010
0000
1000
0000
,  // measure 12
0010
0001
0010
1000
,  // measure 13
1000
0100
0010
0000
1000
0000
0100
0000
,  // measure 14
0001
0100
0010
0000
0001
0000
0100
0000
,  // measure 15
0010
1000
0100
0000
0010
0001
0100
1000
,  // measure 16
0001
0000
0010
0000
0010
0000
0100
0000
1000
0000
0001
1000
0001
0000
0000
0000
,  // measure 17
1000
0010
0100
0001
0100
0010
1000
0000
,  // measure 18
0001
0000
0000
0000
1100
0000
0000
0000
0011
0000
0001
0010
0001
0000
0000
0000
,  // measure 19
0001
0100
0010
1000
0001
0010
0100
1000
,  // measure 20
0100
0000
1100
0000
0011
1000
1010
0000
,  // measure 21
1000
0010
0100
0001
0100
0010
1000
0001
,  // measure 22
0010
0000
0100
0000
1000
0000
0001
0000
1000
0000
1000
0100
1000
0000
0000
0000
,  // measure 23
1000
0010
0001
0010
1000
0000
0100
0000
,  // measure 24
1000
0100
0001
0100
1000
0100
1000
0000
,  // measure 25
1000
0001
0010
0100
1000
0001
0100
0100
,  // measure 26
0001
0100
0010
1000
0001
0010
0100
1000
,  // measure 27
1000
0100
0010
0001
1000
0010
0100
0001
,  // measure 28
0001
0100
0010
1000
0001
0100
0010
1000
,  // measure 29
1000
0010
1000
0010
1000
0010
1000
0010
,  // measure 30
1000
0001
1000
0001
1000
0001
1000
0001
,  // measure 31
1000
0100
0010
0001
1000
0100
0010
0001
,  // measure 32
0001
0010
0100
1000
0010
0100
0001
0100
,  // measure 33
0010
0000
0000
1000
0010
0000
0000
0000
1000
0000
0100
0000
0010
0000
0001
0000
,  // measure 34
0010
0000
0000
0001
0010
0000
0000
0000
0100
0000
1000
0000
0010
0000
0001
0000
,  // measure 35
0100
0000
0000
0100
1000
0000
0000
0000
1000
0000
0010
0000
1010
0000
0100
0000
,  // measure 36
0001
0000
0000
0001
0100
0000
0010
0000
0100
0000
0001
0000
1000
0000
0100
0000
,  // measure 37
0010
0010
0100
0100
1000
1000
0001
0001
,  // measure 38
0200
0010
0001
0010
0320
1000
0100
1000
,  // measure 39
1030
0100
0010
0001
1000
0100
0010
0001
,  // measure 40
2000
0010
0001
0100
3020
0100
0001
0100
,  // measure 41
2030
0000
0000
0000
3001
0010
0001
0010
,  // measure 42
0000
0010
0100
1000
,  // measure 43
0010
0100
0001
0100
,  // measure 44
0010
1000
0001
1000
,  // measure 45
0100
0100
0100
0100
,  // measure 46
1000
0001
0010
0100
,  // measure 47
1000
0001
0100
0010
,  // measure 48
0100
0001
0100
0010
,  // measure 49
0100
0100
0100
0100
,  // measure 50
0010
1000
0100
0010
,  // measure 51
0100
1000
0010
1000
,  // measure 52
0100
1000
0010
1000
,  // measure 53
0100
0100
0100
0100
,  // measure 54
0010
0001
0100
0001
,  // measure 55
0010
0001
0100
0001
,  // measure 56
0010
0001
0100
0010
,  // measure 57
0100
0100
0100
0100
,  // measure 58
0000
0010
1000
0100
,  // measure 59
1000
0010
1000
0100
,  // measure 60
1000
0010
0010
0100
,  // measure 61
0010
0100
0010
0100
,  // measure 62
0010
0010
0001
0100
,  // measure 63
0001
0010
0001
0100
,  // measure 64
0001
0010
0100
1000
,  // measure 65
0010
0010
0010
0010
,  // measure 66
0000
0000
0100
0001
,  // measure 67
0100
0010
1000
0001
,  // measure 68
0010
0100
1000
0001
,  // measure 69
1000
0010
0100
0001
,  // measure 70
0000
1000
1000
0001
,  // measure 71
0001
0100
0010
0010
,  // measure 72
0100
1000
0001
1000
,  // measure 73
0010
0100
0001
0100
,  // measure 74
0020
0000
0000
0000
,  // measure 75
0000
0000
0000
0000
,  // measure 76
0000
0030
0000
0000
0000
0000
0000
0000
0000
0000
0000
0000
0000
0000
0000
0000
0000
0000
0000
0000
0000
0000
0000
0000
0000
0000
0000
0000
0000
0000
0000
0000
0000
0000
0000
0000
0000
0000
0000
0000
0000
0000
0000
0000
0000
0000
0000
0000
0000
0000
0000
0000
0000
0000
0000
0000
0000
0000
0000
0000
0000
0000
0000
0000
0000
0000
0000
0000
0000
0000
0000
0000
0000
0000
0000
0000
0000
0000
0000
0000
0000
0000
0000
0000
0000
0000
0000
0000
0000
0000
0000
0000
0000
0000
0000
0000
0000
0000
0000
0000
0000
0000
0000
0000
0000
0000
0000
0000
0000
0000
0000
0000
0000
0000
0000
0000
0000
0000
0000
0000
0000
0000
0000
0000
0000
0000
0000
0000
0000
0000
0000
0000
0000
0000
0000
0000
0000
0000
0000
0000
0000
0000
0000
0000
0000
0000
0000
0000
0000
0000
0000
0000
0000
0000
0000
0000
0000
0000
0000
0000
0000
0000
0000
0000
0000
0000
0000
0000
0000
0000
0000
0000
0000
0000
0000
0000
0000
0000
0000
0000
0000
0000
0000
0000
0000
0000
0000
0000
0000
0000
0000
0000
;
