#TITLE:not eternity;
#SUBTITLE:;
#ARTIST:猫叉Master;
#TITLETRANSLIT:;
#SUBTITLETRANSLIT:;
#ARTISTTRANSLIT:Nekomata Master;
#CREDIT:Chewi☆;
#BANNER:not eternity.png;
#BACKGROUND:not eternity-bg.png;
#LYRICSPATH:;
#CDTITLE:;
#MUSIC:not eternity.mp3;
#OFFSET:-5.639;
#SAMPLESTART:59.116;
#SAMPLELENGTH:15.000;
#SELECTABLE:YES;
#BPMS:0.000=92.000;
#STOPS:;
#BGCHANGES:;

//---------------dance-single - Chewi----------------
#NOTES:
     dance-single:
     Chewi:
     Easy:
     3:
     0.128,0.136,0.027,0.188,0.000: // measure 1
0000
0000
0000
0000
,  // measure 2
0000
0000
0000
0000
,  // measure 3
0000
0000
0000
0000
,  // measure 4
0000
0000
0000
0000
,  // measure 5
2000
0000
3002
0000
,  // measure 6
0203
0000
0000
0300
,  // measure 7
0002
0000
2003
0000
,  // measure 8
3020
0000
0000
0030
,  // measure 9
0110
0000
0000
0000
,  // measure 10
1000
0000
0100
0000
,  // measure 11
0001
0000
0010
0000
,  // measure 12
1000
0000
0010
0000
,  // measure 13
0001
0000
0100
0000
,  // measure 14
1000
1000
1000
1000
,  // measure 15
1000
0000
0000
0000
,  // measure 16
0001
0001
0001
0001
,  // measure 17
0001
0000
0000
0000
,  // measure 18
0010
0010
0010
0010
,  // measure 19
0010
0000
0000
0000
,  // measure 20
0100
0100
0100
0100
,  // measure 21
0100
0000
0110
0000
,  // measure 22
0002
0000
2003
0000
,  // measure 23
3200
0000
0000
0300
,  // measure 24
2000
0000
3002
0000
,  // measure 25
0023
0000
0000
0030
,  // measure 26
0020
0000
0230
0000
,  // measure 27
2300
0000
0000
3000
,  // measure 28
0020
0000
0230
0000
,  // measure 29
0302
0000
0000
1003
,  // measure 30
1000
1000
1000
1000
,  // measure 31
2000
0000
0000
3001
,  // measure 32
0001
0001
0001
0001
,  // measure 33
0200
0000
0000
0310
,  // measure 34
0010
0010
0010
0010
,  // measure 35
0020
0000
0000
1030
,  // measure 36
1000
1000
1000
1000
,  // measure 37
0001
1000
0000
1000
,  // measure 38
0001
0000
0000
0000
,  // measure 39
1001
0000
0000
0000
;

//---------------dance-single - Chewi----------------
#NOTES:
     dance-single:
     Chewi:
     Hard:
     9:
     0.301,0.289,0.036,0.493,0.018: // measure 1
0000
0000
0000
0000
,  // measure 2
0000
0000
0000
0000
,  // measure 3
0000
0000
0000
0000
,  // measure 4
0000
0000
0000
0000
,  // measure 5
0020
0000
2030
0000
3002
0000
1003
0100
,  // measure 6
0200
0300
0001
0010
0020
0030
0101
0000
,  // measure 7
2000
0000
3002
0000
0023
0000
0031
0010
,  // measure 8
0100
1000
0100
0001
0200
0000
0000
0000
,  // measure 9
0300
0000
0000
0000
,  // measure 10
1000
0100
0001
0000
0100
0001
0010
0000
,  // measure 11
0001
0010
1000
0000
0010
1000
0100
0000
,  // measure 12
1000
0100
0010
0000
0100
0001
0010
0000
,  // measure 13
0001
0010
1000
0000
0010
1000
0001
0000
,  // measure 14
0020
0000
0230
0000
2300
0000
3001
0010
,  // measure 15
0022
0000
0000
0000
0033
0000
1000
0001
,  // measure 16
0200
0000
0320
0000
2030
0000
3010
1000
,  // measure 17
0001
0100
2000
0000
0000
0000
3002
0000
,  // measure 18
0023
0000
0000
0000
0230
0000
0000
0000
2300
0000
0000
0000
3000
0000
0001
1000
,  // measure 19
0002
0000
0000
0000
0003
0000
0001
1000
,  // measure 20
0020
0230
0302
2003
,  // measure 21
3002
0000
2003
3002
,  // measure 22
1003
0100
0010
1000
0100
0010
1000
0100
,  // measure 23
0010
0000
0001
0010
0002
0000
0000
0000
0003
0000
0000
0000
0001
0000
0010
0000
,  // measure 24
0001
0010
0100
0001
0010
0100
0001
0010
,  // measure 25
0100
0000
1000
0100
1000
0000
0000
0000
2000
0000
0000
0000
3002
0000
0000
0000
,  // measure 26
1003
0010
0100
1000
0010
0100
1000
0010
,  // measure 27
0100
0000
0001
1000
0002
0000
0000
0000
0003
0000
0000
0000
1000
0000
1000
0000
,  // measure 28
0001
0100
0010
0001
0100
0010
0001
0100
,  // measure 29
0020
0000
2030
0000
3002
0000
1003
0100
,  // measure 30
0200
0300
0001
0010
0020
0030
0101
0000
,  // measure 31
2000
0000
3002
0000
0023
0000
0031
0010
,  // measure 32
0100
1000
0100
0001
0200
0000
0000
0000
,  // measure 33
2300
0000
3200
0000
0320
0000
0130
0001
,  // measure 34
0002
0003
0010
1000
2000
3000
1010
0000
,  // measure 35
0200
0000
0320
0000
2030
0000
3010
1000
,  // measure 36
0001
0100
0001
0010
0002
0000
0000
1000
,  // measure 37
1003
0100
2000
0000
0000
0000
3002
0000
,  // measure 38
0203
0010
0010
0010
,  // measure 39
0310
0000
0000
0000
;

//---------------dance-single - Chewi----------------
#NOTES:
     dance-single:
     Chewi:
     Medium:
     6:
     0.221,0.255,0.197,0.063,0.000: // measure 1
0000
0000
0000
0000
,  // measure 2
0000
0000
0000
0000
,  // measure 3
0000
0000
0000
0000
,  // measure 4
0000
0000
0000
0000
,  // measure 5
2000
0000
3002
0000
0203
0000
0310
0010
,  // measure 6
0010
0000
0100
0100
0100
0000
0100
0000
,  // measure 7
0020
2030
3002
2003
,  // measure 8
3001
1000
0001
1000
0001
0000
0000
0000
,  // measure 9
1001
0000
0000
0000
,  // measure 10
0000
1000
0000
1000
0000
0001
0000
0001
,  // measure 11
0000
0100
0000
0100
0000
0010
0000
0010
,  // measure 12
0000
1000
0000
1000
0000
0001
0000
0001
,  // measure 13
0000
0010
0000
0010
0000
0100
0000
0100
,  // measure 14
0000
0010
0000
0010
0000
0001
0000
1000
,  // measure 15
0000
0010
0000
0010
0000
0100
0000
0001
,  // measure 16
0000
0010
0000
0010
0000
0100
0000
1000
,  // measure 17
0000
0100
0000
0100
0000
1000
0000
0001
,  // measure 18
1000
0000
0001
0000
1000
0000
0001
1000
,  // measure 19
0100
0010
0100
0010
,  // measure 20
0100
1000
0010
0001
,  // measure 21
0100
1000
0010
0010
,  // measure 22
0100
0100
0100
0100
0100
0000
0100
0000
,  // measure 23
0110
1001
0000
0000
,  // measure 24
0001
0001
0001
0001
0001
0000
1000
0000
,  // measure 25
1001
0000
1100
0101
,  // measure 26
0100
0100
0100
0100
0100
0000
0100
0000
,  // measure 27
0110
0000
0000
1001
,  // measure 28
0011
1100
0101
1010
,  // measure 29
1001
0000
0100
0000
0010
0000
0100
0010
,  // measure 30
0100
0000
0010
0100
0010
0000
0110
0000
,  // measure 31
1010
0100
0101
0100
,  // measure 32
0001
0010
0100
1000
0100
0000
0000
0000
,  // measure 33
1100
0001
0101
1000
,  // measure 34
0010
0100
0010
0000
0100
0010
0100
0000
,  // measure 35
1010
0001
0011
1000
,  // measure 36
0001
0010
1000
0010
0001
0000
0000
0000
,  // measure 37
1001
0100
0000
1001
,  // measure 38
0010
0010
0100
0100
,  // measure 39
0010
0000
0000
0000
;

//---------------dance-single - Chewi----------------
#NOTES:
     dance-single:
     Chewi:
     Beginner:
     1:
     0.070,0.085,0.018,0.036,0.000: // measure 1
0000
0000
0000
0000
,  // measure 2
0000
0000
0000
0000
,  // measure 3
0000
0000
0000
0000
,  // measure 4
0000
0000
0000
0000
,  // measure 5
1000
0000
0001
0000
,  // measure 6
0100
0000
0000
0000
,  // measure 7
0001
0000
1000
0000
,  // measure 8
0010
0000
0000
0000
,  // measure 9
0110
0000
0000
0000
,  // measure 10
1000
0000
0000
0000
,  // measure 11
0001
0000
0000
0000
,  // measure 12
1000
0000
0000
0000
,  // measure 13
0001
0000
0000
0000
,  // measure 14
1000
0000
1000
0000
,  // measure 15
1000
0000
0000
0000
,  // measure 16
0001
0000
0001
0000
,  // measure 17
0001
0000
0000
0000
,  // measure 18
0010
0000
0010
0000
,  // measure 19
0010
0000
0000
0000
,  // measure 20
0100
0000
0100
0000
,  // measure 21
0100
0000
0000
0000
,  // measure 22
0001
0000
1000
0000
,  // measure 23
0100
0000
0000
0000
,  // measure 24
1000
0000
0001
0000
,  // measure 25
0010
0000
0000
0000
,  // measure 26
0010
0000
0100
0000
,  // measure 27
1000
0000
0000
0000
,  // measure 28
0010
0000
0100
0000
,  // measure 29
0001
0000
0000
0000
,  // measure 30
1000
0000
1000
0000
,  // measure 31
2000
0000
0000
3000
,  // measure 32
0001
0000
0001
0000
,  // measure 33
0002
0000
0000
0003
,  // measure 34
0010
0000
0010
0000
,  // measure 35
0020
0000
0000
0030
,  // measure 36
0100
0000
0100
0000
,  // measure 37
0200
0000
0000
0300
,  // measure 38
0100
0000
0000
0000
,  // measure 39
1001
0000
0000
0000
;
