#VERSION:0.81;
#TITLE:nice & slow;
#SUBTITLE:;
#ARTIST:BENI;
#TITLETRANSLIT:;
#SUBTITLETRANSLIT:;
#ARTISTTRANSLIT:;
#GENRE:;
#ORIGIN:;
#CREDIT:chewi;
#BANNER:nice & slow.png;
#BACKGROUND:nice & slow-bg.png;
#PREVIEWVID:;
#JACKET:nice & slow-jacket.png;
#CDIMAGE:;
#DISCIMAGE:;
#LYRICSPATH:;
#CDTITLE:cdtitle.png;
#MUSIC:nice & slow.mp3;
#OFFSET:-0.510000;
#SAMPLESTART:41.790001;
#SAMPLELENGTH:15.000000;
#SELECTABLE:YES;
#BPMS:0.000=69.000;
#STOPS:;
#DELAYS:;
#WARPS:;
#TIMESIGNATURES:0.000=4=4;
#TICKCOUNTS:0.000=4;
#COMBOS:0.000=1;
#SPEEDS:0.000=1.000=0.000=0;
#SCROLLS:0.000=1.000;
#FAKES:;
#LABELS:0.000=Song Start;
#BGCHANGES:;
#KEYSOUNDS:;
#ATTACKS:
;

//---------------dance-single - ----------------
#NOTEDATA:;
#CHARTNAME:;
#STEPSTYPE:dance-single;
#DESCRIPTION:;
#CHARTSTYLE:;
#DIFFICULTY:Easy;
#METER:3;
#RADARVALUES:0.125551,0.138391,0.011414,0.091310,0.000000,68.000000,1.000000,8.000000,0.000000,0.000000,0.000000,0.000000,0.000000,0.125551,0.138391,0.011414,0.091310,0.000000,68.000000,1.000000,8.000000,0.000000,0.000000,0.000000,0.000000,0.000000;
#CREDIT:;
#NOTES:
0000
0000
0000
0000
,
0000
0000
0000
0000
,
1000
0000
1000
1000
,
1000
0000
0001
0001
,
0001
0000
0100
0000
,
0010
0000
1000
0000
,
1000
0000
0100
0000
,
0010
0000
0001
0000
,
0001
0000
1000
0000
,
0010
0000
0100
0000
,
0001
0000
1000
0000
,
0100
0000
0010
0000
,
0002
1000
0010
1003
,
2000
0001
0010
3001
,
0200
0010
0001
0310
,
0020
1000
0100
1030
,
2000
0100
0010
3001
,
0002
0100
0010
1003
,
0020
0100
1000
0130
,
0200
0001
0010
0301
,
1001
0000
1000
1000
,
1000
0000
0100
0100
,
0100
0000
0010
0010
,
0010
0000
0001
0001
,
0001
0001
0000
0000
;

//---------------dance-single - ----------------
#NOTEDATA:;
#CHARTNAME:;
#STEPSTYPE:dance-single;
#DESCRIPTION:;
#CHARTSTYLE:;
#DIFFICULTY:Beginner;
#METER:1;
#RADARVALUES:0.063591,0.054786,0.000000,0.182619,0.000000,23.000000,0.000000,16.000000,0.000000,0.000000,0.000000,0.000000,0.000000,0.063591,0.054786,0.000000,0.182619,0.000000,23.000000,0.000000,16.000000,0.000000,0.000000,0.000000,0.000000,0.000000;
#CREDIT:;
#NOTES:
0000
0000
0000
0000
,
0000
0000
0000
0000
,
1000
0000
0000
0000
,
0001
0000
0000
0000
,
0200
0000
0000
0300
,
0020
0000
0000
0030
,
0200
0000
0000
0300
,
0020
0000
0000
0030
,
2000
0000
0000
3000
,
0002
0000
0000
0003
,
2000
0000
0000
3000
,
0002
0000
0000
0003
,
0200
0000
0000
0300
,
0020
0000
0000
0030
,
2000
0000
0000
3000
,
0002
0000
0000
0003
,
0002
0000
0000
0003
,
2000
0000
0000
3000
,
0200
0000
0000
0300
,
0020
0000
0000
0030
,
0010
0000
0000
0000
,
0100
0000
0000
0000
,
1000
0000
0000
0000
,
0001
0000
0000
0000
,
1000
0000
0000
0000
;

//---------------dance-single - ----------------
#NOTEDATA:;
#CHARTNAME:;
#STEPSTYPE:dance-single;
#DESCRIPTION:;
#CHARTSTYLE:;
#DIFFICULTY:Medium;
#METER:6;
#RADARVALUES:0.194033,0.178054,0.148378,0.091310,0.000000,98.000000,13.000000,8.000000,0.000000,0.000000,0.000000,0.000000,0.000000,0.194033,0.178054,0.148378,0.091310,0.000000,98.000000,13.000000,8.000000,0.000000,0.000000,0.000000,0.000000,0.000000;
#CREDIT:;
#NOTES:
// measure 0
0000
0000
0000
0000
,  // measure 1
0000
0000
0000
0000
,  // measure 2
1000
0001
0010
0100
,  // measure 3
1000
0001
0100
0010
,  // measure 4
0010
0010
0010
0000
0010
0000
0110
0000
,  // measure 5
0100
0100
0100
0000
0100
0000
0110
0000
,  // measure 6
1000
1000
1000
0000
0001
0000
1001
0000
,  // measure 7
0001
0001
0001
0000
1000
0000
1001
0000
,  // measure 8
1000
0000
0100
0000
0010
0001
1010
0000
,  // measure 9
0001
0000
0010
0000
0100
1000
0101
0000
,  // measure 10
0100
0000
0010
0000
1000
0001
0010
0000
,  // measure 11
0010
0000
0100
0000
1000
0001
0100
0000
,  // measure 12
0100
0000
0100
0000
0010
0100
0110
0000
,  // measure 13
0010
0000
1000
0000
0010
1000
0001
0000
,  // measure 14
1000
0100
0010
0001
0000
1000
0100
0010
,  // measure 15
0001
1001
1000
1001
,  // measure 16
0100
0000
0010
0000
0100
0010
0110
0000
,  // measure 17
0010
0000
0100
0000
0001
0100
0010
0000
,  // measure 18
1000
0010
0100
0001
0000
1000
0010
0100
,  // measure 19
0001
0101
1000
1100
,  // measure 20
1002
0000
2003
0000
,  // measure 21
3200
0000
0320
0000
,  // measure 22
0032
0000
0203
0000
,  // measure 23
0302
0000
2003
0000
,  // measure 24
3000
0000
0000
0000
;

//---------------dance-single - ----------------
#NOTEDATA:;
#CHARTNAME:;
#STEPSTYPE:dance-single;
#DESCRIPTION:;
#CHARTSTYLE:;
#DIFFICULTY:Hard;
#METER:9;
#RADARVALUES:0.324475,0.397197,0.262515,0.091310,0.348118,168.000000,23.000000,8.000000,0.000000,0.000000,0.000000,0.000000,0.000000,0.324475,0.397197,0.262515,0.091310,0.348118,168.000000,23.000000,8.000000,0.000000,0.000000,0.000000,0.000000,0.000000;
#CREDIT:;
#NOTES:
// measure 0
0000
0000
0000
0000
,  // measure 1
0000
0000
0000
0000
,  // measure 2
2002
0000
3003
0000
0202
0303
0220
0330
,  // measure 3
2020
3030
0000
0000
0000
0000
0000
0000
,  // measure 4
1000
0000
0000
1000
0100
0000
0000
0000
0001
0000
0000
0001
0100
0000
0000
0000
,  // measure 5
1000
0000
0000
1000
0010
0000
0000
0000
0001
0000
0000
0001
0010
0000
0000
0000
,  // measure 6
0010
0000
0000
0010
0100
0000
0000
0000
1000
0000
0000
1000
0001
0000
0000
0000
,  // measure 7
0100
0000
0000
0100
0010
0000
0000
0000
0010
0000
0000
0010
1000
0000
0000
0000
,  // measure 8
0010
0000
0000
0010
0100
0000
0000
0000
0100
0000
0000
0100
0001
0000
0000
0000
,  // measure 9
0001
0000
0000
0001
1000
0000
0000
0000
1000
0000
0000
1000
0100
0000
0000
0000
,  // measure 10
0100
0000
0000
0100
0010
0000
0000
0000
0010
0000
0000
0010
0001
0000
0000
0000
,  // measure 11
1000
0000
0000
1000
0100
0000
0000
0000
1000
0001
1000
0001
1000
0000
0000
0000
,  // measure 12
0010
0000
0000
0010
0100
0000
0100
0000
0101
0000
1010
0000
1001
0000
0000
0000
,  // measure 13
1000
0100
1000
0010
1000
0000
0001
0000
1000
0000
1100
0000
0011
0000
0000
0000
,  // measure 14
0000
0010
0100
0010
0001
0010
0100
1000
0000
0010
1000
0010
0100
0010
0001
0010
,  // measure 15
0100
0000
0110
0000
1001
1000
0010
0100
0001
1000
0100
0000
1001
0000
1000
0100
,  // measure 16
0010
0000
0000
0010
0001
0000
1000
0000
1100
0000
0101
0000
1100
0000
0000
0000
,  // measure 17
0001
1000
0100
1000
0001
0000
0100
0000
0110
0000
1010
0000
0110
0000
0000
0000
,  // measure 18
0000
0010
0100
0001
0100
0010
0100
0001
0000
0010
0100
0010
0001
0010
0100
1000
,  // measure 19
1001
0000
1100
0000
1001
0000
1000
0100
0010
0001
1000
0000
1100
0000
0000
0000
,  // measure 20
1000
0100
0001
0100
0000
0000
0000
0000
0001
0100
1000
0100
0000
0000
0000
0000
,  // measure 21
1000
0010
0100
0001
0000
0000
0000
0000
0001
0010
0100
1000
0000
0000
0000
0000
,  // measure 22
1000
0010
0001
0010
0000
0000
0000
0000
0001
0010
1000
0010
0000
0000
0000
0000
,  // measure 23
1000
0100
0010
0001
0000
0000
0000
0000
0001
0010
0100
1000
0000
0000
0000
0000
,  // measure 24
1001
0000
0000
0000
;
