#TITLE:naughty girl@Queen's Palace;
#SUBTITLE:;
#ARTIST:DJ Mass MAD Izm*;
#TITLETRANSLIT:;
#SUBTITLETRANSLIT:;
#ARTISTTRANSLIT:;
#CREDIT:Chewi☆;
#BANNER:naughty girl@Queen's Palace.png;
#BACKGROUND:naughty girl@Queen's Palace-bg.png;
#LYRICSPATH:;
#CDTITLE:;
#MUSIC:naughty girl@Queen's Palace.mp3;
#OFFSET:-0.649;
#SAMPLESTART:66.855;
#SAMPLELENGTH:15.000;
#SELECTABLE:YES;
#BPMS:0.000=145.000;
#STOPS:;
#BGCHANGES:;

//---------------dance-single - Chewi----------------
#NOTES:
     dance-single:
     Chewi:
     Beginner:
     3:
     0.195,0.231,0.034,0.000,0.000:
0000
0000
0000
0000
,
0000
0000
0000
0000
,
0000
0000
0000
0000
,
0000
0000
0000
0000
,
1000
0000
1000
0000
,
0001
0000
0001
0000
,
0100
0000
0100
0000
,
0010
0010
0010
0010
,
0010
0000
1000
0000
,
0010
0000
0001
0000
,
0010
0000
1000
0000
,
0010
0000
0001
0000
,
0100
0000
1000
0000
,
0100
0000
0001
0000
,
0100
0000
1000
0000
,
0100
0000
0001
0000
,
0001
0001
0001
0001
,
0001
0000
1000
0000
,
1000
1000
1000
1000
,
1000
0000
0001
0000
,
0100
0100
0100
0100
,
0100
0000
0100
0000
,
0010
0010
0010
0010
,
0010
0000
0010
0000
,
0010
0000
1000
0000
,
0010
0000
1000
0000
,
0001
0000
0100
0000
,
0001
0000
0100
0000
,
0010
0000
1000
0000
,
0001
0000
0100
0000
,
0100
0000
0001
0000
,
1000
0000
0010
0000
,
1000
1000
1000
1000
,
1000
0000
1000
0000
,
0100
0100
0100
0100
,
0100
0000
0100
0000
,
0010
0010
0010
0010
,
0010
0000
0010
0000
,
0001
0001
0001
0001
,
0001
0000
0001
0000
,
0001
0000
1000
0000
,
0001
0000
1000
0000
,
1000
0000
0001
0000
,
1000
0000
0001
0000
,
0100
0000
0010
0000
,
0100
0000
0010
0000
,
0010
0000
0100
0000
,
0010
0000
0100
0000
,
0001
0001
0001
0000
,
1000
1000
1000
0000
,
0001
0001
0001
0000
,
1000
1000
1000
0000
,
0001
0000
0001
0000
,
0001
0000
0001
0000
,
1000
0000
1000
0000
,
1000
0000
1000
0000
,
0010
0010
0010
0010
,
0010
0000
0100
0000
,
0001
0001
0001
0001
,
0001
0000
1000
0000
,
1000
1000
1000
1000
,
1000
0000
0001
0000
,
0100
0100
0100
0100
,
0100
0000
0010
0000
,
0110
0000
0000
0000
,
1001
0000
0000
0000
,
0110
0000
0000
0000
,
1001
0000
0000
0000
;

//---------------dance-single - Chewi----------------
#NOTES:
     dance-single:
     Chewi:
     Easy:
     6:
     0.294,0.290,0.060,0.069,0.000:
0000
0000
0000
0000
,
0000
0000
0000
0000
,
0000
0000
0000
0000
,
0000
0000
0000
0000
,
1001
0000
0000
0001
0000
0001
0000
0000
,
1001
0000
0000
1000
0000
1000
0000
0000
,
1001
0000
0000
0001
0000
0001
0000
0000
,
1000
0100
0010
0001
,
1000
0100
0010
0100
,
1000
0100
0010
0100
,
1000
0100
0010
0100
,
1000
0100
0010
0001
,
0001
0100
0001
0010
,
0001
0100
0001
0010
,
0001
0100
0001
0010
,
0001
0100
0010
1000
,
0001
0001
1000
0100
,
1000
1000
0001
0001
,
1000
1000
0001
0100
,
0001
0001
1000
1000
,
0010
0010
0100
0001
,
0010
0010
0100
0100
,
0010
0010
0100
1000
,
0010
0010
0100
0100
,
0001
0100
1000
0100
,
0001
0100
1000
0100
,
0001
0010
1000
0010
,
0001
0010
1000
0010
,
0001
0100
1000
0001
,
0100
1000
0001
0100
,
1000
0010
0001
1000
,
0010
0001
1000
0010
,
0001
0001
0010
0010
,
0100
1000
0010
1000
,
1000
1000
0010
0010
,
0100
0001
0010
0001
,
0010
0010
0100
0100
,
1000
0001
1000
0100
,
0010
0010
0001
0001
,
1000
0100
0010
0001
,
1000
1000
0100
0100
,
0010
0010
0001
0001
,
1000
0100
0010
0001
,
1000
0100
0010
0001
,
0001
0001
0100
0100
,
0010
0010
1000
1000
,
0001
0100
0010
1000
,
0001
0100
0010
1000
,
0020
0000
0000
0030
,
0200
0000
0000
0300
,
0002
0000
0000
0003
,
2000
0000
0000
3000
,
0002
0000
0000
0003
,
2000
0000
0000
3000
,
0200
0000
0000
0300
,
0020
0000
0000
0030
,
0100
1000
0001
0100
,
0001
0001
1000
0100
,
1000
0001
0100
0001
,
1000
0100
1000
0100
,
0010
0010
0100
1000
,
0010
0010
0100
0001
,
0010
0100
1000
0100
,
0010
0100
0001
0100
,
0110
0000
0000
0100
0000
0100
0000
0000
,
0110
0000
0000
0010
0000
0010
0000
0000
,
1001
0000
0000
1000
0000
1000
0000
0000
,
1001
0000
0000
0001
0000
0000
0000
0000
;

//---------------dance-single - Chewi----------------
#NOTES:
     dance-single:
     Chewi:
     Medium:
     10:
     0.445,0.465,0.431,0.000,0.000: // measure 1
0000
0000
0000
0000
,  // measure 2
0000
0000
0000
0000
,  // measure 3
0000
0000
0000
0000
,  // measure 4
0000
0000
0000
0000
,  // measure 5
1001
0000
0000
0010
0000
0100
0000
0000
,  // measure 6
1001
0000
0000
0100
0000
0010
0000
0000
,  // measure 7
1010
0000
0000
0001
0000
0100
0000
0000
,  // measure 8
1000
0100
0010
0011
,  // measure 9
0001
0010
0100
1000
0000
0001
0000
0000
,  // measure 10
1000
0100
0010
0001
0000
1000
0000
0000
,  // measure 11
0001
1000
0010
0100
0000
0010
0000
0000
,  // measure 12
0100
0010
1000
0001
0000
1000
0000
0000
,  // measure 13
0001
0010
0100
1000
0000
0100
0000
0000
,  // measure 14
1000
0100
0010
0001
0000
0010
0000
0000
,  // measure 15
0001
1000
0100
1000
0000
0100
0000
0000
,  // measure 16
1000
0001
0100
0001
0000
0100
0000
0000
,  // measure 17
0100
0010
0100
0010
1000
0000
0001
0000
,  // measure 18
1000
0100
1000
0100
0010
0000
0011
0000
,  // measure 19
0001
0010
0001
0010
0100
0000
1000
0000
,  // measure 20
0010
0100
0001
0100
0010
0000
0110
0000
,  // measure 21
1000
0001
1000
0001
1000
0000
0100
0000
,  // measure 22
1000
0100
0010
0001
0010
0000
0011
0000
,  // measure 23
0100
0010
0001
0010
0100
0000
1000
0000
,  // measure 24
1000
0001
1000
0001
0010
0000
0110
0000
,  // measure 25
1001
0000
1001
0000
0100
0001
1000
0000
,  // measure 26
0100
0001
1000
0100
,  // measure 27
1001
0000
0110
0000
0001
1000
0100
0000
,  // measure 28
1000
0001
0100
0010
,  // measure 29
0101
0000
1010
0000
0001
0100
0010
0000
,  // measure 30
1000
0001
0010
0100
,  // measure 31
0110
0000
0011
0000
0010
0100
1000
0000
,  // measure 32
1001
0101
1001
1100
,  // measure 33
1000
0100
1000
0001
1000
0000
1100
0000
,  // measure 34
0001
0100
0001
1000
0001
0000
1001
0000
,  // measure 35
1000
0010
1000
0001
1000
0000
1001
0000
,  // measure 36
0001
0010
0001
1000
0001
0000
1001
0000
,  // measure 37
1000
0100
0010
0001
0010
0000
0011
0000
,  // measure 38
0001
0010
0100
1000
0100
0000
1100
0000
,  // measure 39
0100
1000
0100
0010
0100
0000
0110
0000
,  // measure 40
0010
0001
1000
0100
0010
0000
0011
0000
,  // measure 41
1001
0000
1000
0100
1000
0100
1000
0000
,  // measure 42
1001
0000
1000
0100
1000
0100
1000
0000
,  // measure 43
1001
0000
1000
0010
1000
0010
1000
0000
,  // measure 44
1001
0000
1000
0010
1000
0010
1000
0000
,  // measure 45
1001
0000
0100
0001
0100
0001
0100
0000
,  // measure 46
1001
0000
0100
0001
0100
0001
0100
0000
,  // measure 47
1001
0000
0010
1000
0010
1000
0010
0000
,  // measure 48
1001
0000
0010
1000
0010
1000
0010
0000
,  // measure 49
1010
0000
0000
0010
0000
1000
0000
0000
,  // measure 50
1100
0000
0000
1000
0000
0100
0000
0000
,  // measure 51
0101
0000
0000
0100
0000
0001
0000
0000
,  // measure 52
0011
0000
0000
0001
0000
0010
0000
0000
,  // measure 53
0110
0000
0000
0100
0000
0100
0000
0000
,  // measure 54
0110
0000
0000
0010
0000
0010
0000
0000
,  // measure 55
1001
0000
0000
0001
0000
0001
0000
0000
,  // measure 56
0001
1000
0001
0000
1000
0001
1000
0000
,  // measure 57
0001
0010
0100
1000
0000
0001
0000
0000
,  // measure 58
1000
0100
0010
0001
0000
1000
0000
0000
,  // measure 59
0001
1000
0010
0100
0000
0010
0000
0000
,  // measure 60
0100
0010
1000
0001
0000
1000
0000
0000
,  // measure 61
0001
0010
0100
1000
0000
0100
0000
0000
,  // measure 62
1000
0100
0010
0001
0000
0010
0000
0000
,  // measure 63
0001
1000
0100
1000
0000
0100
0000
0000
,  // measure 64
1000
0001
0100
0001
0000
0100
0000
0000
,  // measure 65
0010
0000
0000
1010
0000
1010
0000
0000
,  // measure 66
1000
0000
0000
1010
0000
1010
0000
0000
,  // measure 67
0010
0000
0000
0101
0000
0101
0000
0000
,  // measure 68
0001
0000
0000
1001
0000
0000
0000
0000
;

//---------------dance-single - Chewi----------------
#NOTES:
     dance-single:
     Chewi:
     Hard:
     13:
     0.608,0.552,0.603,0.000,0.065: // measure 1
0000
0000
0000
0000
,  // measure 2
0000
0000
0000
0000
,  // measure 3
0000
0000
0000
0000
,  // measure 4
0000
0000
0000
0000
,  // measure 5
1001
0000
0000
1010
0000
1001
0000
0000
,  // measure 6
1001
0000
0000
0101
0000
1001
0000
0000
,  // measure 7
1001
0000
0000
1100
0000
0101
0000
0000
,  // measure 8
1000
0000
0000
1000
0001
0000
0000
0001
0100
0000
0000
0100
0010
0000
0000
0010
,  // measure 9
0100
0001
1000
0010
0101
0000
1010
0000
,  // measure 10
0001
0010
0100
1000
1001
0000
1100
0000
,  // measure 11
1000
0001
0100
0010
0101
0000
1010
0000
,  // measure 12
0001
0100
0010
1000
1001
0010
1001
0000
,  // measure 13
1000
0100
0010
0001
0011
0000
1100
0000
,  // measure 14
0001
0010
0100
1000
1100
0000
0011
0000
,  // measure 15
1000
0100
0010
0001
1100
0000
0101
0000
,  // measure 16
1000
0001
0100
0010
1001
0100
1001
0000
,  // measure 17
1000
0100
0010
0001
1000
0100
0010
0001
,  // measure 18
1000
0100
0001
0100
1000
0100
0001
0100
,  // measure 19
1000
0001
0100
0010
1000
0001
0100
0010
,  // measure 20
1000
0010
0001
0010
1000
0010
0001
0010
,  // measure 21
1000
0100
0010
0001
1000
0100
0001
0100
,  // measure 22
1000
0001
0100
0010
1000
0001
0010
1000
,  // measure 23
0010
0001
1000
0100
1000
0010
1000
0001
,  // measure 24
0100
0010
0100
0001
1000
0010
0100
0001
,  // measure 25
1000
0001
1000
0100
1000
0001
1000
0100
,  // measure 26
1000
0001
0010
0100
1000
0001
0010
0100
,  // measure 27
1000
0001
0100
0001
1000
0001
0100
0001
,  // measure 28
1000
0100
0010
0001
1000
0100
0010
0001
,  // measure 29
0010
0100
0010
0001
0010
0100
0010
1000
,  // measure 30
0010
0100
1000
0001
0100
0010
1000
0001
,  // measure 31
0100
0010
0100
1000
0100
0010
0100
0001
,  // measure 32
0010
0100
1000
0001
0010
0100
1000
0001
,  // measure 33
1000
0000
0000
1000
0100
0000
0010
0000
0001
0000
1000
0000
0100
0000
0010
0000
,  // measure 34
0001
0000
0000
0001
0010
0000
0100
0000
1000
0000
0001
0000
0010
0000
0100
0000
,  // measure 35
1000
0000
0000
1000
0001
0000
0100
0000
0010
0000
1000
0000
0001
0000
0100
0000
,  // measure 36
0010
0000
0000
0010
0100
0000
0001
0000
1000
0000
0010
0000
0100
0000
0001
0000
,  // measure 37
1000
0000
0000
1000
0100
0000
0010
0000
0001
0000
1000
0000
0100
0000
0010
0000
,  // measure 38
0001
0000
0000
0001
0010
0000
0100
0000
1000
0000
0001
0000
0100
0000
0010
0000
,  // measure 39
1000
0000
0000
1000
0001
0000
0100
0000
0010
0000
1000
0000
0001
0000
0010
0000
,  // measure 40
0100
1000
0001
0010
0100
0010
0001
0000
,  // measure 41
0001
1000
0100
1000
0001
1000
0100
1000
,  // measure 42
0001
0010
1000
0010
0001
0010
1000
0010
,  // measure 43
0001
1000
0010
0001
0010
1000
0010
0001
,  // measure 44
0010
0100
1000
0001
0010
0100
0010
0001
,  // measure 45
0010
0100
1000
0100
0010
0100
1000
0100
,  // measure 46
0010
0001
1000
0100
1000
0100
0010
0001
,  // measure 47
0001
0010
0100
0010
0001
0010
0100
0010
,  // measure 48
0001
1000
0010
0100
0001
1000
0010
0100
,  // measure 49
0001
1000
0100
0110
0000
0011
0000
0001
,  // measure 50
1000
0100
0010
0011
0000
1100
0000
0001
,  // measure 51
1000
0010
0100
0101
0000
1010
0000
0001
,  // measure 52
0100
0010
1000
1001
0000
0110
0000
1001
,  // measure 53
1001
0000
0000
0101
0000
1001
0000
0000
,  // measure 54
1001
0000
0000
1010
0000
1001
0000
0000
,  // measure 55
1001
0000
0000
0011
0000
1010
0000
0000
,  // measure 56
0001
0000
0000
0001
1000
0000
0000
1000
0010
0000
0000
0010
0100
0000
0000
0100
,  // measure 57
0010
1000
0001
0100
1010
0000
0101
0000
,  // measure 58
1000
0100
0010
0001
1001
0000
0011
0000
,  // measure 59
0001
1000
0010
0100
1010
0000
0101
0000
,  // measure 60
1000
0010
0100
0001
1001
0100
1001
0000
,  // measure 61
0001
0010
0100
1000
1100
0000
0011
0000
,  // measure 62
1000
0100
0010
0001
0011
0000
1100
0000
,  // measure 63
0001
0010
0100
1000
0011
0000
1010
0000
,  // measure 64
0001
1000
0010
0100
1001
0010
1001
0000
,  // measure 65
1100
0000
0000
0110
0000
0011
0000
0000
,  // measure 66
0101
0000
0000
0110
0000
1010
0000
0000
,  // measure 67
1001
0000
0000
0101
0000
1001
0000
0000
,  // measure 68
1001
0000
0000
1001
0000
0000
0000
0000
;
