#TITLE:memory of snow;
#SUBTITLE:;
#ARTIST:fripSide;
#TITLETRANSLIT:;
#SUBTITLETRANSLIT:;
#ARTISTTRANSLIT:;
#GENRE:;
#CREDIT:Chewi☆;
#MENUCOLOR:;
#METERTYPE:DDR X;
#BANNER:memory of snow.png;
#BACKGROUND:memory of snow-bg.png;
#LYRICSPATH:;
#CDTITLE:;
#MUSIC:memory of snow.mp3;
#OFFSET:-0.525;
#SAMPLESTART:50.445;
#SAMPLELENGTH:15.000;
#SELECTABLE:YES;
#LISTSORT:;
#BPMS:0.000=125.000;
#STOPS:;
#BGCHANGES:;
#ATTACKS:;

//---------------dance-single - Chewi----------------
#NOTES:
     dance-single:
     Chewi:
     Hard:
     10:
     0.411,0.420,0.116,0.223,0.034: // measure 1
0000
0000
0000
0000
,  // measure 2
0000
0000
0000
0000
,  // measure 3
0000
0000
0000
0000
,  // measure 4
0000
0000
0000
0000
,  // measure 5
2000
0000
3200
0320
,  // measure 6
0031
0000
0000
0001
0000
0000
0001
0000
1000
0000
0000
1000
0000
0000
1000
0000
,  // measure 7
0002
0203
0320
2030
,  // measure 8
3002
0000
0000
0000
0000
0000
0000
1000
,  // measure 9
1003
0000
0000
0000
,  // measure 10
0001
1000
0010
0100
0001
0000
0000
0000
,  // measure 11
1000
0100
0010
0100
1000
0000
0000
0000
,  // measure 12
1000
0010
0100
0001
0100
0000
0010
0000
,  // measure 13
1000
0100
0010
0001
0010
0000
0011
0000
,  // measure 14
0001
0010
0100
1000
0010
0000
0000
0000
,  // measure 15
1000
0010
0100
0001
0010
0000
0000
0000
,  // measure 16
0010
0100
1000
0001
0100
0000
0010
0000
,  // measure 17
0100
0010
1000
0001
1000
0000
1100
0000
,  // measure 18
1000
0100
0001
0100
1000
0100
0001
0000
,  // measure 19
0001
0010
1000
0010
0001
0010
1000
0000
,  // measure 20
1000
0100
0010
0100
1000
0010
1000
0000
,  // measure 21
1000
0100
0010
0001
0100
0000
0101
0000
,  // measure 22
0001
0100
0001
0010
0001
0100
0001
0000
,  // measure 23
0100
0010
0100
0001
0100
0010
0100
0000
,  // measure 24
0010
1000
0100
1000
0010
1000
0100
0000
,  // measure 25
1000
0010
0100
0001
0010
0000
0011
0000
,  // measure 26
1000
1000
0001
0001
0100
0100
0010
0010
,  // measure 27
0100
0010
1000
0010
0100
0001
0010
0000
,  // measure 28
0100
1000
0010
0001
0100
0000
0110
0000
,  // measure 29
0100
0010
1000
0010
0100
0001
0010
0000
,  // measure 30
0001
0100
1000
0010
0001
0000
0011
0000
,  // measure 31
1000
0100
0010
0001
1000
0100
1000
0000
,  // measure 32
0001
0100
1000
0100
0001
0000
0101
0000
,  // measure 33
0100
0001
0010
0100
1000
0010
1000
0000
,  // measure 34
1000
0100
0010
0100
1000
0000
1001
0000
,  // measure 35
0010
1000
0010
0001
0010
1000
0100
0000
,  // measure 36
0010
0001
0010
0100
1000
0000
1010
0000
,  // measure 37
0010
0100
0001
1000
0100
0010
0001
0000
,  // measure 38
0010
0100
1000
0010
1000
0000
1100
0000
,  // measure 39
1000
0001
0100
0010
1000
0001
1000
0000
,  // measure 40
0001
0010
0100
1000
0010
0000
1010
0000
,  // measure 41
1000
0010
0100
0010
1000
0010
0100
0001
,  // measure 42
1000
0100
1000
0100
0010
0001
0010
0001
,  // measure 43
0020
0000
0032
2003
,  // measure 44
3010
0000
0000
0010
0000
0000
0010
0000
0200
0000
0000
0000
0000
0000
0000
0000
,  // measure 45
0302
0000
0000
1000
2003
0000
3200
0000
,  // measure 46
0310
0000
0000
0010
0000
0000
0010
0000
0010
0000
0000
0010
0000
0000
0000
0000
,  // measure 47
0002
0000
2003
3020
,  // measure 48
0130
0000
0000
0100
0000
0000
0100
0000
0010
0000
0000
0010
0000
0000
0010
0000
,  // measure 49
2000
3200
0320
0032
,  // measure 50
0023
0000
0000
0000
0000
0000
0000
0100
,  // measure 51
0130
0000
0000
0000
,  // measure 52
1001
0000
0000
0000
;

//---------------dance-single - Chewi----------------
#NOTES:
     dance-single:
     Chewi:
     Medium:
     7:
     0.303,0.346,0.213,0.000,0.000: // measure 1
0000
0000
0000
0000
,  // measure 2
0000
0000
0000
0000
,  // measure 3
0000
0000
0000
0000
,  // measure 4
0000
0000
0000
0000
,  // measure 5
1000
0000
0001
1000
,  // measure 6
0001
1000
0001
0000
1000
0000
0000
0000
,  // measure 7
0100
0000
0010
0000
,  // measure 8
0100
0010
0100
0000
0010
0000
0000
0000
,  // measure 9
1001
0000
0000
0000
,  // measure 10
0100
0100
0100
0000
,  // measure 11
0010
0000
1000
0010
1000
0000
0000
0000
,  // measure 12
1000
1000
1000
0000
,  // measure 13
0001
0000
1000
0001
1000
0000
0000
0000
,  // measure 14
0001
0010
0100
1100
,  // measure 15
1000
0010
0100
0101
,  // measure 16
0100
0010
0100
0010
,  // measure 17
1000
0000
0001
0000
1000
0100
0010
0001
,  // measure 18
0010
0100
1000
1010
,  // measure 19
1000
0100
0010
0011
,  // measure 20
0001
1000
0010
0110
,  // measure 21
0100
0010
1000
1010
,  // measure 22
1000
0000
0001
0000
1000
0100
0010
0000
,  // measure 23
0001
0000
0010
0000
0100
1000
0010
0000
,  // measure 24
0100
0000
0010
0000
0100
0001
0100
0000
,  // measure 25
0001
0000
0010
0000
0100
1000
0010
0000
,  // measure 26
1010
0101
0011
1100
,  // measure 27
1000
0000
0100
0000
0010
0001
0010
0000
,  // measure 28
0001
1100
1000
0101
,  // measure 29
0100
0000
0010
0000
0100
0001
0100
0000
,  // measure 30
0001
0011
1000
1010
,  // measure 31
1000
0000
0100
0000
0010
0100
1000
0000
,  // measure 32
0010
0101
0010
1100
,  // measure 33
1000
0000
0001
0000
0100
0010
0100
0000
,  // measure 34
0001
0101
1000
1100
,  // measure 35
1000
0000
0100
0000
0010
0001
0100
0000
,  // measure 36
0010
0000
0100
0010
0100
0000
0110
0000
,  // measure 37
0100
0000
0010
0000
1000
0100
0010
0000
,  // measure 38
0001
0000
0010
0100
1000
0000
1100
0000
,  // measure 39
1000
0000
0001
0000
1000
0100
1000
0000
,  // measure 40
0001
0010
0100
1000
,  // measure 41
0001
0000
1000
0000
0010
0100
0010
0000
,  // measure 42
0100
0010
1000
0001
,  // measure 43
1000
1000
0100
0100
,  // measure 44
0010
0001
0010
0000
0100
0000
0000
0000
,  // measure 45
1000
1000
0001
0001
,  // measure 46
0100
0000
0010
0100
0010
0000
0000
0000
,  // measure 47
0100
0100
0010
0010
,  // measure 48
1000
0000
1000
0100
1000
0000
0000
0000
,  // measure 49
0100
0100
0010
0010
,  // measure 50
0001
0000
0010
0001
0010
0000
0000
0000
,  // measure 51
1000
0000
0100
1000
0100
0000
0000
0000
,  // measure 52
1001
0000
0000
0000
;

//---------------dance-single - Chewi----------------
#NOTES:
     dance-single:
     Chewi:
     Beginner:
     1:
     0.066,0.074,0.000,0.000,0.000: // measure 1
0000
0000
0000
0000
,  // measure 2
0000
0000
0000
0000
,  // measure 3
0000
0000
0000
0000
,  // measure 4
0000
0000
0000
0000
,  // measure 5
1000
0000
0000
0000
,  // measure 6
1000
0000
0000
0000
,  // measure 7
0001
0000
0000
0000
,  // measure 8
0001
0000
0000
0000
,  // measure 9
0100
0000
0000
0000
,  // measure 10
0010
0000
0000
0000
,  // measure 11
0010
0000
0000
0000
,  // measure 12
1000
0000
0000
0000
,  // measure 13
0001
0000
0000
0000
,  // measure 14
0100
0000
0000
0000
,  // measure 15
0010
0000
0000
0000
,  // measure 16
1000
0000
0000
0000
,  // measure 17
0001
0000
0000
0000
,  // measure 18
0001
0000
0000
0000
,  // measure 19
0100
0000
0000
0000
,  // measure 20
1000
0000
0000
0000
,  // measure 21
0100
0000
0000
0000
,  // measure 22
0010
0000
0000
0000
,  // measure 23
0100
0000
0000
0000
,  // measure 24
0100
0000
0000
0000
,  // measure 25
0010
0000
0000
0000
,  // measure 26
0100
0000
0000
0000
,  // measure 27
0100
0000
0000
0000
,  // measure 28
0010
0000
0000
0000
,  // measure 29
0001
0000
0000
0000
,  // measure 30
0010
0000
0000
0000
,  // measure 31
0001
0000
0000
0000
,  // measure 32
0001
0000
0000
0000
,  // measure 33
0010
0000
0000
0000
,  // measure 34
0100
0000
0000
0000
,  // measure 35
1000
0000
0000
0000
,  // measure 36
1000
0000
0000
0000
,  // measure 37
1000
0000
0000
0000
,  // measure 38
1000
0000
0000
0000
,  // measure 39
1000
0000
0000
0000
,  // measure 40
1000
0000
0000
0000
,  // measure 41
1000
0000
0000
0000
,  // measure 42
0010
0000
0000
0000
,  // measure 43
0100
0000
0000
0000
,  // measure 44
0100
0000
0000
0000
,  // measure 45
0010
0000
0000
0000
,  // measure 46
0010
0000
0000
0000
,  // measure 47
0001
0000
0000
0000
,  // measure 48
0001
0000
0000
0000
,  // measure 49
1000
0000
0000
0000
,  // measure 50
1000
0000
0000
0000
,  // measure 51
0010
0000
0000
0000
,  // measure 52
0100
0000
0000
0000
;

//---------------dance-single - Chewi----------------
#NOTES:
     dance-single:
     Chewi:
     Easy:
     4:
     0.199,0.222,0.000,0.000,0.000: // measure 1
0000
0000
0000
0000
,  // measure 2
0000
0000
0000
0000
,  // measure 3
0000
0000
0000
0000
,  // measure 4
0000
0000
0000
0000
,  // measure 5
1000
0000
1000
0000
,  // measure 6
1000
1000
1000
0000
,  // measure 7
0001
0000
0001
0000
,  // measure 8
0001
0001
0001
0000
,  // measure 9
0100
0000
0000
0000
,  // measure 10
0010
1000
0100
0000
,  // measure 11
0010
0001
0100
0000
,  // measure 12
1000
0100
1000
0000
,  // measure 13
0001
0100
0001
0000
,  // measure 14
0100
0010
0100
0000
,  // measure 15
0010
0100
0010
0000
,  // measure 16
1000
0010
1000
0000
,  // measure 17
0001
0010
0001
0000
,  // measure 18
0001
0010
0100
1000
,  // measure 19
0100
0100
0100
0000
,  // measure 20
1000
0010
0100
0001
,  // measure 21
0100
0100
0100
0000
,  // measure 22
0010
0100
0001
1000
,  // measure 23
0100
0010
0001
0010
,  // measure 24
0100
1000
0001
0100
,  // measure 25
0010
0100
0001
0100
,  // measure 26
0100
0000
0000
0000
,  // measure 27
0100
0010
1000
0100
,  // measure 28
0010
0001
0001
0000
,  // measure 29
0001
0010
0100
1000
,  // measure 30
0010
0100
0001
0000
,  // measure 31
0001
0100
0010
1000
,  // measure 32
0001
1000
0100
0000
,  // measure 33
0010
0100
1000
0001
,  // measure 34
0100
0010
1000
0000
,  // measure 35
1000
0010
0001
0010
,  // measure 36
1000
0010
1000
0000
,  // measure 37
1000
0100
0001
0100
,  // measure 38
1000
0100
1000
0000
,  // measure 39
1000
0001
0100
0010
,  // measure 40
1000
0010
1000
0000
,  // measure 41
1000
0100
0010
0001
,  // measure 42
0010
0100
0010
0000
,  // measure 43
0100
0000
0100
0000
,  // measure 44
0100
0100
0100
0000
,  // measure 45
0010
0000
0010
0000
,  // measure 46
0010
0010
0010
0000
,  // measure 47
0001
0000
0001
0000
,  // measure 48
0001
0001
0001
0000
,  // measure 49
1000
0000
1000
0000
,  // measure 50
1000
1000
1000
0000
,  // measure 51
0010
0000
0000
0000
,  // measure 52
0100
0000
0000
0000
;
