#TITLE:love like woe;
#SUBTITLE:;
#ARTIST:THE READY SET;
#TITLETRANSLIT:;
#SUBTITLETRANSLIT:;
#ARTISTTRANSLIT:;
#CREDIT:Chewi☆;
#BANNER:love like woe.png;
#BACKGROUND:love like woe-bg.png;
#LYRICSPATH:;
#CDTITLE:cdtitle.png;
#MUSIC:love like woe.mp3;
#OFFSET:-0.097;
#SAMPLESTART:53.433;
#SAMPLELENGTH:15.000;
#SELECTABLE:YES;
#DISPLAYBPM:90.000;
#BPMS:0.000=90.000;
#STOPS:;
#BGCHANGES:;

//---------------dance-single - Chewi----------------
#NOTES:
     dance-single:
     Chewi:
     Beginner:
     2:
     0.065,0.091,0.091,0.010,0.000: // measure 1
0000
0000
0000
0000
,  // measure 2
0000
0000
0000
0000
,  // measure 3
1000
0000
0000
0000
,  // measure 4
1000
0000
0000
0000
,  // measure 5
0001
0002
0000
0000
,  // measure 6
0003
0000
0000
0000
,  // measure 7
1001
0000
0000
0000
,  // measure 8
0010
0000
0000
0000
,  // measure 9
1000
0000
0000
0000
,  // measure 10
0110
0000
0000
0000
,  // measure 11
0001
0000
0000
0000
,  // measure 12
1000
0000
0000
0000
,  // measure 13
0010
0000
0000
0000
,  // measure 14
0110
0000
0000
0000
,  // measure 15
0100
0000
0000
0000
,  // measure 16
1000
0000
0000
0000
,  // measure 17
0010
0000
0000
0000
,  // measure 18
1000
0000
0000
0000
,  // measure 19
0110
0000
0000
0000
,  // measure 20
0100
0000
0000
0000
,  // measure 21
1001
0000
0000
0000
,  // measure 22
0110
0000
0000
0000
,  // measure 23
1000
0000
0000
0000
,  // measure 24
0001
0000
0000
0000
,  // measure 25
1001
0000
0000
0000
,  // measure 26
0110
0000
0000
0000
,  // measure 27
0100
0000
0000
0000
,  // measure 28
0010
0000
0000
0000
,  // measure 29
0001
0000
0000
0000
,  // measure 30
1000
0000
0000
0000
,  // measure 31
0100
0000
0000
0000
,  // measure 32
0010
0000
0000
0000
,  // measure 33
0010
0000
0000
0000
,  // measure 34
0010
0000
0000
0000
,  // measure 35
0010
0000
0000
0000
,  // measure 36
0010
0000
0000
0000
,  // measure 37
0110
0000
0000
0000
;

//---------------dance-single - Chewi----------------
#NOTES:
     dance-single:
     Chewi:
     Easy:
     4:
     0.164,0.199,0.091,0.171,0.000: // measure 1
0000
0000
0000
0000
,  // measure 2
0000
0000
0000
0000
,  // measure 3
1000
1000
2000
3000
,  // measure 4
1000
1000
2000
3000
,  // measure 5
0001
0002
0003
0003
,  // measure 6
0001
0001
0002
0003
,  // measure 7
1001
0000
0100
0000
,  // measure 8
0010
0000
0100
0000
,  // measure 9
1000
0000
0100
0000
,  // measure 10
0110
0000
0010
0000
,  // measure 11
0001
0001
0001
0000
,  // measure 12
1000
1000
1000
0000
,  // measure 13
0010
0100
0010
0000
,  // measure 14
0110
0000
0000
0000
,  // measure 15
0100
1000
0000
1000
,  // measure 16
1000
0010
0000
0010
,  // measure 17
0010
0001
0000
0001
,  // measure 18
1000
0010
0000
0010
,  // measure 19
0110
0000
0100
0000
,  // measure 20
0200
0000
0000
0310
,  // measure 21
2002
3003
0001
0000
,  // measure 22
0220
0330
0100
0000
,  // measure 23
1000
1000
1000
0000
,  // measure 24
0001
0001
0001
0000
,  // measure 25
2002
3003
0001
0000
,  // measure 26
0220
0330
0010
0000
,  // measure 27
0200
0300
0100
0000
,  // measure 28
0020
0000
0000
0030
,  // measure 29
0002
0003
1000
1000
,  // measure 30
2000
3000
0001
0001
,  // measure 31
0100
0010
0100
0000
,  // measure 32
0010
0100
0010
0000
,  // measure 33
0010
0001
0100
1000
,  // measure 34
0000
0010
0010
0000
,  // measure 35
0010
1000
0100
0001
,  // measure 36
0010
0010
0000
0000
,  // measure 37
0110
0000
0000
0000
;

//---------------dance-single - Chewi----------------
#NOTES:
     dance-single:
     Chewi:
     Medium:
     6:
     0.255,0.272,0.201,0.222,0.000: // measure 1
0000
0000
0000
0000
,  // measure 2
0000
0000
0000
0000
,  // measure 3
2000
0000
3100
0000
0100
0100
0100
0000
,  // measure 4
0002
0000
0103
0000
0100
0100
0100
0000
,  // measure 5
0010
0100
0001
1000
,  // measure 6
0002
0023
0230
2300
,  // measure 7
3100
0000
0100
0000
0100
0100
0100
0000
,  // measure 8
0010
0000
0010
0000
0010
0010
0010
0000
,  // measure 9
0001
1000
0010
0100
,  // measure 10
0001
1000
0100
0010
,  // measure 11
0001
0011
0100
1000
,  // measure 12
0100
1100
0010
0100
,  // measure 13
0001
0000
0100
0000
1000
0100
0001
0000
,  // measure 14
1001
0000
0010
0010
,  // measure 15
0010
0100
0001
0101
,  // measure 16
0010
0100
1000
1100
,  // measure 17
0100
0000
0100
0000
0010
0010
0010
0000
,  // measure 18
0001
0000
0001
0000
0001
0001
0001
0000
,  // measure 19
1001
0000
0100
0000
,  // measure 20
0010
0001
0100
0000
0010
0000
0100
0000
,  // measure 21
0220
0330
0001
1000
,  // measure 22
0202
0303
0001
0100
,  // measure 23
1000
0100
0001
0100
,  // measure 24
0010
0110
0100
0110
,  // measure 25
2000
3100
0110
0001
,  // measure 26
0002
0103
0110
0010
,  // measure 27
1000
0100
0000
0000
0001
0100
0000
0000
,  // measure 28
0110
0000
0000
0000
,  // measure 29
0002
0103
1000
0100
,  // measure 30
2000
3100
0010
1000
,  // measure 31
0010
0101
0010
1100
,  // measure 32
0220
0000
0000
0330
2002
0000
0000
3003
,  // measure 33
0010
0000
0100
0000
0001
0100
0001
0000
,  // measure 34
0100
0000
0010
0000
1000
0010
1000
0000
,  // measure 35
0001
0001
1000
1000
,  // measure 36
2200
0000
0000
3300
0022
0000
0000
0033
,  // measure 37
0110
0000
0000
0000
;

//---------------dance-single - Chewi----------------
#NOTES:
     dance-single:
     Chewi:
     Hard:
     12:
     0.537,0.508,0.272,0.020,0.559:
0000
0000
0000
0000
,
0000
0000
0000
0000
,
0000
0000
1000
0000
0000
1000
0000
0000
0001
0000
0101
0000
1000
0000
1100
0000
,
0000
0000
0001
0000
0000
0001
0000
0000
0001
0000
1001
0000
1000
0000
1001
0000
,
0001
0100
1000
0100
0001
0010
1000
0010
,
0100
0010
0100
0010
0100
0010
0100
0010
0001
1000
0001
1000
0001
1000
0001
1000
,
0001
0000
0000
0001
1000
0000
0000
1000
0001
0000
0000
0001
0100
0000
0000
0100
,
0010
0000
0000
0010
0100
0000
0000
0100
0010
0000
0000
0010
1000
0000
0000
1000
,
0100
0000
0000
0100
0010
0000
0000
0010
0001
0000
0000
0001
1000
0000
0000
1000
,
1001
0000
0000
0000
0000
0000
0000
0000
0001
0100
0001
0100
1000
0100
1000
0100
,
1000
0010
0001
0010
1000
0000
0010
0000
0001
0000
0100
0000
0010
0000
1000
0000
,
0001
0100
1000
0100
0001
0010
0100
0000
1000
0000
0010
0000
1000
0000
0100
0000
,
0010
0001
0100
0000
0010
0000
0100
0000
0010
1000
0100
0000
0010
0000
0100
0000
,
1001
0000
0000
0000
,
0001
0100
0001
0010
0100
1000
0010
0000
1000
0100
1000
0010
1000
0100
1000
0000
,
0010
0100
0010
0000
0100
0001
0100
0000
0001
1000
0001
0000
1000
0100
1000
0100
,
1000
0100
1000
0000
0010
0100
0001
0100
0010
0000
1000
0000
0001
0010
0100
1000
,
0010
0000
1000
0000
0100
0010
0001
0010
0100
0000
1000
0000
0010
0100
0001
0000
,
0110
0000
1001
0000
1100
0000
0000
0110
,
0022
0000
0000
0000
0000
0000
0033
0000
0000
0001
0010
0100
1000
0000
0001
0000
,
1000
0100
1000
0100
1000
0100
1100
0000
0001
0000
1000
0000
0010
0000
0100
0000
,
0001
0100
0001
0100
0001
0100
0101
0000
0110
0000
1001
0000
0110
0000
0000
0000
,
0100
0010
0001
0000
0100
0000
0010
0000
0100
0010
1000
0000
0001
0000
1000
0000
,
0001
1000
0001
1000
0001
1000
0001
1000
0010
0100
0010
0100
0010
0100
0010
0100
,
0010
0100
0001
0100
0010
0100
0001
0000
0010
0000
0100
0000
1000
0000
0010
0000
,
1000
0100
0010
0100
1000
0100
0010
0100
1000
0000
0010
0000
0100
0000
0001
0000
,
0100
0110
1000
1001
0001
0011
0010
0110
,
0100
1000
0100
1000
0100
0000
0000
0000
1000
0001
1000
0001
1000
0001
1000
0000
,
0001
0000
0100
0010
0000
0010
0100
0000
0101
0000
0010
0000
1100
0000
0010
0000
,
0001
0000
1000
0100
0000
0100
1000
0000
1001
0000
0110
0000
1001
0000
1000
0000
,
0010
0100
0001
0000
0100
0000
0010
0000
0100
0010
1000
0000
0001
0000
1000
0000
,
0001
0010
0001
0010
0001
0100
0001
0100
0001
0100
0010
0100
0010
1000
0001
1000
,
0001
1000
0001
0000
1000
0000
0100
0010
0001
0010
0100
0000
1000
0000
0001
0000
,
1000
0001
0100
0000
0100
0000
0010
0100
0001
0100
0010
0100
0001
0000
0010
0000
,
0100
1000
0010
0101
0011
0100
0010
0001
,
0001
0010
0100
1000
0001
0010
0100
1000
0001
0100
0010
1000
0001
0100
0010
1000
,
0001
0000
0000
0000
;
