#VERSION:0.82;
#TITLE:love & cyber -french moga mix-;
#SUBTITLE:;
#ARTIST:gmIX-k fixes D.G. URSALA;
#TITLETRANSLIT:;
#SUBTITLETRANSLIT:;
#ARTISTTRANSLIT:;
#GENRE:Chillstep;
#ORIGIN:;
#CREDIT:steps by chewi;
#BANNER:love & cyber -french moga mix-.png;
#BACKGROUND:love & cyber -french moga mix--bg.png;
#PREVIEWVID:;
#JACKET:love & cyber -french moga mix--jacket.png;
#CDIMAGE:;
#DISCIMAGE:;
#LYRICSPATH:;
#CDTITLE:cdtitle.png;
#MUSIC:love & cyber -french moga mix-.ogg;
#OFFSET:-0.367000;
#SAMPLESTART:34.429840;
#SAMPLELENGTH:11.360947;
#SELECTABLE:YES;
#BPMS:0.000=169.000,
192.000=84.500,
208.000=169.000,
236.000=84.500,
238.000=338.000,
366.000=169.000;
#STOPS:;
#DELAYS:;
#WARPS:;
#TIMESIGNATURES:0.000=4=4;
#TICKCOUNTS:0.000=4;
#COMBOS:0.000=1;
#SPEEDS:0.000=1.000=0.000=0;
#SCROLLS:0.000=1.000;
#FAKES:;
#LABELS:0.000=Song Start;
#BGCHANGES:;
#KEYSOUNDS:;
#ATTACKS:
;

//---------------dance-single - ----------------
#NOTEDATA:;
#CHARTNAME:;
#STEPSTYPE:dance-single;
#DESCRIPTION:;
#CHARTSTYLE:;
#DIFFICULTY:Beginner;
#METER:4;
#RADARVALUES:0.142621,0.264838,0.063387,0.023770,0.000000,115.000000,8.000000,3.000000,0.000000,0.000000,0.000000,0.000000,0.000000,0.142621,0.264838,0.063387,0.023770,0.000000,115.000000,8.000000,3.000000,0.000000,0.000000,0.000000,0.000000,0.000000;
#CREDIT:;
#NOTES:
// measure 0
0000
0000
0000
0000
,  // measure 1
0000
0000
0000
0000
,  // measure 2
0000
0000
0000
0000
,  // measure 3
0000
0000
0000
0000
,  // measure 4
0000
0000
0000
0000
,  // measure 5
0000
0000
0000
0000
,  // measure 6
0000
0000
0000
0000
,  // measure 7
0000
0000
0000
0000
,  // measure 8
1000
0000
0000
0000
,  // measure 9
1000
0000
0000
0000
,  // measure 10
0001
0000
0000
0000
,  // measure 11
0001
0000
0000
0000
,  // measure 12
0100
0000
0000
0000
,  // measure 13
0100
0000
0000
0000
,  // measure 14
0010
0000
0000
0000
,  // measure 15
0010
0000
0000
0000
,  // measure 16
0110
0000
0100
0000
,  // measure 17
0100
0000
0100
0000
,  // measure 18
0110
0000
0010
0000
,  // measure 19
0010
0000
0010
0000
,  // measure 20
1001
0000
1000
0000
,  // measure 21
1000
0000
1000
0000
,  // measure 22
1001
0000
0001
0000
,  // measure 23
0001
0000
0001
0000
,  // measure 24
1000
0000
1000
0000
,  // measure 25
1000
1000
1000
0000
,  // measure 26
0001
0000
0001
0000
,  // measure 27
0001
0001
0001
0000
,  // measure 28
0100
0000
0100
0000
,  // measure 29
0100
0100
0100
0000
,  // measure 30
0010
0000
0010
0000
,  // measure 31
0010
0010
0010
0000
,  // measure 32
0110
0000
0000
0000
,  // measure 33
0010
0000
0000
0000
,  // measure 34
0110
0000
0000
0000
,  // measure 35
0100
0000
0000
0000
,  // measure 36
1001
0000
0000
0000
,  // measure 37
1000
0000
0000
0000
,  // measure 38
1001
0000
0000
0000
,  // measure 39
0001
0000
0000
0000
,  // measure 40
1000
0000
0000
0000
,  // measure 41
0100
0100
0100
0000
,  // measure 42
0001
0000
0000
0000
,  // measure 43
0010
0010
0010
0000
,  // measure 44
1000
0000
0000
0000
,  // measure 45
0100
0100
0100
0000
,  // measure 46
0001
0000
0000
0000
,  // measure 47
0100
0100
0100
0000
,  // measure 48
0200
0000
0000
0300
,  // measure 49
0100
0000
0000
0000
,  // measure 50
0020
0000
0000
0030
,  // measure 51
0010
0000
0000
0000
,  // measure 52
0001
0000
0001
0000
,  // measure 53
0001
0001
0001
0000
,  // measure 54
1000
0000
1000
0000
,  // measure 55
1000
1000
1000
0000
,  // measure 56
0010
0000
0010
0000
,  // measure 57
0010
0010
0010
0000
,  // measure 58
0100
0000
0100
0000
,  // measure 59
0200
0300
0100
0000
,  // measure 60
0000
0000
0000
0000
,  // measure 61
0000
0000
0010
0000
,  // measure 62
0000
0000
0000
0000
,  // measure 63
0000
0000
1000
0000
,  // measure 64
0000
0000
0000
0000
,  // measure 65
0000
0000
0001
0000
,  // measure 66
0000
0000
0000
0000
,  // measure 67
0000
0000
1000
0000
,  // measure 68
0000
0000
0000
0000
,  // measure 69
0000
0000
0001
0000
,  // measure 70
0000
0000
0000
0000
,  // measure 71
0000
0000
0010
0000
,  // measure 72
0000
0000
0000
0000
,  // measure 73
0000
0000
0100
0000
,  // measure 74
0000
0000
0000
0000
,  // measure 75
0000
0000
1000
0000
,  // measure 76
0000
0000
0000
0000
,  // measure 77
0000
0000
0001
0000
,  // measure 78
0000
0000
0000
0000
,  // measure 79
0000
0000
1000
0000
,  // measure 80
0000
0000
0000
0000
,  // measure 81
0000
0000
0010
0000
,  // measure 82
0000
0000
0000
0000
,  // measure 83
0000
0000
0100
0000
,  // measure 84
0000
0000
0000
0000
,  // measure 85
0000
0000
0010
0000
,  // measure 86
0000
0000
0000
0000
,  // measure 87
0000
0000
0100
0000
,  // measure 88
0000
0000
0000
0000
,  // measure 89
0000
0000
0010
0000
,  // measure 90
0000
0000
0000
0000
,  // measure 91
0000
0000
1000
0000
,  // measure 92
0000
0000
1000
1000
,  // measure 93
1000
0000
0001
0000
,  // measure 94
0000
0000
0001
0001
,  // measure 95
0001
0000
0010
0000
;

//---------------dance-single - ----------------
#NOTEDATA:;
#CHARTNAME:;
#STEPSTYPE:dance-single;
#DESCRIPTION:;
#CHARTSTYLE:;
#DIFFICULTY:Easy;
#METER:7;
#RADARVALUES:0.299956,0.454009,0.166391,0.031693,0.000000,240.000000,21.000000,4.000000,0.000000,0.000000,0.000000,0.000000,0.000000,0.299956,0.454009,0.166391,0.031693,0.000000,240.000000,21.000000,4.000000,0.000000,0.000000,0.000000,0.000000,0.000000;
#CREDIT:;
#NOTES:
// measure 0
0000
0000
0000
0000
,  // measure 1
0000
0000
0000
0000
,  // measure 2
0000
0000
0000
0000
,  // measure 3
0000
0000
0000
0000
,  // measure 4
0000
0000
0000
0000
,  // measure 5
0000
0000
0000
0000
,  // measure 6
0000
0000
0000
0000
,  // measure 7
0000
0000
0000
0000
,  // measure 8
1000
0100
0010
0000
,  // measure 9
0001
0010
0001
0000
,  // measure 10
0001
0100
0010
0000
,  // measure 11
0100
0010
0100
0000
,  // measure 12
0010
1000
0001
0000
,  // measure 13
1000
0001
1000
0000
,  // measure 14
0001
0010
0100
0000
,  // measure 15
0010
0100
0010
0000
,  // measure 16
0110
0000
0010
0000
,  // measure 17
0010
0100
1000
0001
,  // measure 18
1001
0000
1000
0000
,  // measure 19
0001
1000
0010
0100
,  // measure 20
0110
0000
0100
0000
,  // measure 21
0100
0010
1000
0010
,  // measure 22
1010
0000
1000
0000
,  // measure 23
1000
0001
0010
0100
,  // measure 24
1000
0001
1000
0100
,  // measure 25
1000
0001
1000
0010
,  // measure 26
1000
0001
1000
0100
,  // measure 27
0010
0001
0100
0001
,  // measure 28
0100
0001
0010
0001
,  // measure 29
0100
0001
0010
0001
,  // measure 30
1000
0001
0100
0001
,  // measure 31
1000
0010
1000
0010
,  // measure 32
1001
1000
0100
0010
,  // measure 33
1001
0001
0100
0010
,  // measure 34
0110
0100
0010
1000
,  // measure 35
1010
0010
1000
0001
,  // measure 36
1001
1000
0100
0010
,  // measure 37
0110
0010
0100
1000
,  // measure 38
1100
1000
0100
0010
,  // measure 39
0001
1000
0100
1000
,  // measure 40
1001
0100
0010
0100
,  // measure 41
0110
0100
0010
1000
,  // measure 42
1010
1000
0001
0100
,  // measure 43
0101
0001
1000
0001
,  // measure 44
1001
1000
0100
0010
,  // measure 45
0110
0010
0100
1000
,  // measure 46
1001
1000
0001
1000
,  // measure 47
0001
0100
0010
0100
,  // measure 48
0200
0000
0000
0000
,  // measure 49
0320
0000
0000
0000
,  // measure 50
2030
0000
0000
0000
,  // measure 51
3002
0000
0000
0000
,  // measure 52
1003
0001
1000
0100
,  // measure 53
1000
0001
1000
0010
,  // measure 54
1000
0001
1000
0100
,  // measure 55
1000
0001
0010
0110
,  // measure 56
0010
0100
0010
1000
,  // measure 57
0010
0100
0010
0001
,  // measure 58
0010
0100
1000
0001
,  // measure 59
1000
0000
0001
0000
,  // measure 60
1000
0000
0001
0000
,  // measure 61
0000
0000
1000
0000
,  // measure 62
0001
0000
1000
0000
,  // measure 63
0000
0000
0001
0000
,  // measure 64
0100
0000
0010
0000
,  // measure 65
1000
0000
0001
0000
,  // measure 66
0100
0000
0010
0000
,  // measure 67
1000
0000
0001
0000
,  // measure 68
1000
0000
0001
0000
,  // measure 69
0000
0000
1000
0000
,  // measure 70
0001
0000
1000
0000
,  // measure 71
0000
0000
1000
0000
,  // measure 72
0100
0000
0010
0000
,  // measure 73
0001
0000
1000
0000
,  // measure 74
0100
0000
0010
0000
,  // measure 75
0001
0000
0010
0000
,  // measure 76
0001
0000
0010
0000
,  // measure 77
0000
0000
0001
0000
,  // measure 78
0010
0000
0001
0000
,  // measure 79
0000
0000
0010
0000
,  // measure 80
0100
0000
1000
0000
,  // measure 81
0001
0000
0100
0000
,  // measure 82
0010
0000
0100
0000
,  // measure 83
0010
0000
0100
0000
,  // measure 84
0010
0000
0100
0000
,  // measure 85
0000
0000
0010
0000
,  // measure 86
0100
0000
0010
0000
,  // measure 87
0000
0000
0100
0000
,  // measure 88
0010
0000
1000
0000
,  // measure 89
0001
0000
0010
0000
,  // measure 90
0100
0000
1000
0000
,  // measure 91
0001
0000
1000
0000
,  // measure 92
0000
0000
1000
0000
,  // measure 93
1000
0000
1001
0000
,  // measure 94
0000
0000
0001
0000
,  // measure 95
0001
0000
1001
0000
;

//---------------dance-single - ----------------
#NOTEDATA:;
#CHARTNAME:;
#STEPSTYPE:dance-single;
#DESCRIPTION:;
#CHARTSTYLE:;
#DIFFICULTY:Medium;
#METER:13;
#RADARVALUES:0.507095,0.643179,0.206007,0.095080,0.000000,410.000000,26.000000,12.000000,0.000000,0.000000,0.000000,0.000000,0.000000,0.507095,0.643179,0.206007,0.095080,0.000000,410.000000,26.000000,12.000000,0.000000,0.000000,0.000000,0.000000,0.000000;
#CREDIT:;
#NOTES:
// measure 0
0000
0000
0000
0000
,  // measure 1
0000
0000
0000
0000
,  // measure 2
0000
0000
0000
0000
,  // measure 3
0000
0000
0000
0000
,  // measure 4
0000
0000
0000
0000
,  // measure 5
0000
0000
0000
0000
,  // measure 6
0000
0000
0000
0000
,  // measure 7
0000
0000
0000
0000
,  // measure 8
1000
1000
0100
0100
,  // measure 9
0010
0010
0001
0001
,  // measure 10
1000
1000
0100
0100
,  // measure 11
0010
0010
0001
0001
,  // measure 12
0100
0100
0010
0010
,  // measure 13
1000
1000
0001
0001
,  // measure 14
0100
0100
0010
0010
,  // measure 15
1000
1000
0001
0001
,  // measure 16
1000
0000
0100
0010
0001
0000
0100
0010
,  // measure 17
0100
0001
0010
0001
,  // measure 18
0100
0000
0010
1000
0100
0000
0010
1000
,  // measure 19
0100
0010
0001
0000
0100
0000
0001
0000
,  // measure 20
0100
0000
0010
1000
0100
0000
0010
0001
,  // measure 21
0100
0001
1000
0010
,  // measure 22
0100
0001
0010
0000
0100
0001
0010
0100
,  // measure 23
1000
0001
0100
0001
,  // measure 24
0001
0000
1000
0100
0010
0000
0001
0010
,  // measure 25
0100
1000
0001
0100
,  // measure 26
0010
0000
0100
0010
1000
0000
0010
0100
,  // measure 27
0001
0010
0100
0000
1000
0000
0001
0000
,  // measure 28
1000
0000
0100
0000
0010
0001
1000
0000
,  // measure 29
0001
1000
0010
0000
1000
0000
0010
0000
,  // measure 30
0100
0000
0010
0000
0100
0010
1000
0000
,  // measure 31
0100
0010
0001
1000
0100
0000
1000
0000
,  // measure 32
1001
1000
0001
0000
0100
0001
0100
0000
,  // measure 33
0110
1010
0110
0101
,  // measure 34
1001
1000
0001
0000
1000
0100
0010
0000
,  // measure 35
0110
1100
0110
0011
,  // measure 36
0011
1000
0100
0000
1000
0001
0100
0000
,  // measure 37
0110
1010
0110
0101
,  // measure 38
1001
1000
0100
0000
1000
0001
0100
0000
,  // measure 39
0010
0100
0001
1000
0100
0010
0001
1000
,  // measure 40
0100
0010
0100
1000
0002
0000
1003
0000
,  // measure 41
0010
0100
0001
1000
0002
0000
1003
0000
,  // measure 42
0100
0010
0100
1000
0002
0000
1003
0000
,  // measure 43
0010
0100
0001
1000
0002
0000
1003
0000
,  // measure 44
0001
0010
0100
1000
0001
1000
0001
0000
,  // measure 45
1000
0100
0010
0001
1000
0001
1000
0000
,  // measure 46
0001
0100
1000
0100
0001
0100
1000
0000
,  // measure 47
1000
0100
0001
0100
1000
0100
0001
0100
,  // measure 48
0200
0000
0320
0000
,  // measure 49
2030
0000
3002
0000
,  // measure 50
2003
0000
3200
0000
,  // measure 51
0320
0000
0032
0000
,  // measure 52
0013
0110
1000
1001
,  // measure 53
0100
0000
0110
0000
1000
0010
0100
0001
,  // measure 54
1000
1100
0001
0101
,  // measure 55
0100
0010
1000
0001
0010
0100
1000
0001
,  // measure 56
1000
1001
0001
1001
,  // measure 57
1000
0010
0001
1000
0100
0001
1000
0000
,  // measure 58
0001
1001
1000
1001
,  // measure 59
0110
0000
0010
1000
,  // measure 60
0100
0010
0001
1000
,  // measure 61
0100
0010
0001
0001
,  // measure 62
0100
0100
0010
0010
,  // measure 63
1000
1000
0010
0100
,  // measure 64
0001
0010
0100
1000
,  // measure 65
0010
0100
0001
0001
,  // measure 66
0100
0100
0010
0010
,  // measure 67
1000
1000
0001
0010
,  // measure 68
0100
1000
0001
0010
,  // measure 69
0100
1000
0001
0001
,  // measure 70
1000
1000
0100
0100
,  // measure 71
1000
1000
0001
0100
,  // measure 72
0010
1000
0001
0100
,  // measure 73
0010
1000
0010
0010
,  // measure 74
0100
0100
0010
0010
,  // measure 75
1000
1000
0001
0010
,  // measure 76
0100
1000
0001
0010
,  // measure 77
0100
1000
0001
1000
,  // measure 78
0100
1000
0001
1000
,  // measure 79
0100
1000
0001
0010
,  // measure 80
0100
1000
0001
0010
,  // measure 81
0100
1000
0001
0010
,  // measure 82
1000
0010
0001
0010
,  // measure 83
1000
0010
0001
0010
,  // measure 84
0100
1000
0001
0100
,  // measure 85
0010
1000
0001
0100
,  // measure 86
1000
0100
0001
0100
,  // measure 87
1000
0100
0001
0100
,  // measure 88
0010
1000
0001
0100
,  // measure 89
0010
1000
0001
1000
,  // measure 90
0100
1000
0001
1000
,  // measure 91
0100
1000
0001
1000
,  // measure 92
0001
0010
0100
0000
1000
0000
0001
0000
,  // measure 93
0100
0010
1000
0000
0001
0000
0100
0000
,  // measure 94
0010
1000
0001
0000
1000
0100
0010
0100
,  // measure 95
1000
0100
0010
0000
0001
0000
0000
0000
;

//---------------dance-single - ----------------
#NOTEDATA:;
#CHARTNAME:;
#STEPSTYPE:dance-single;
#DESCRIPTION:;
#CHARTSTYLE:;
#DIFFICULTY:Hard;
#METER:18;
#RADARVALUES:0.862515,1.000000,0.103004,0.000000,0.602176,749.000000,13.000000,0.000000,0.000000,0.000000,0.000000,0.000000,0.000000,0.862515,1.000000,0.103004,0.000000,0.602176,749.000000,13.000000,0.000000,0.000000,0.000000,0.000000,0.000000,0.000000;
#CREDIT:;
#NOTES:
// measure 0
0000
0000
0000
0000
,  // measure 1
0000
0000
0000
0000
,  // measure 2
0000
0000
0000
0000
,  // measure 3
0000
0000
0000
0000
,  // measure 4
0000
0000
0000
0000
,  // measure 5
0000
0000
0000
0000
,  // measure 6
0000
0000
0000
0000
,  // measure 7
0000
0000
0000
0000
,  // measure 8
1000
0001
1000
0001
0010
0100
0010
0100
,  // measure 9
1000
0001
1000
0001
,  // measure 10
1000
0001
1000
0001
0100
0010
0100
0010
,  // measure 11
0100
0010
1000
0001
,  // measure 12
1000
0010
1000
0010
0100
0001
0100
0001
,  // measure 13
0100
0001
0010
0100
,  // measure 14
0010
0100
0010
0100
1000
0001
1000
0001
,  // measure 15
1000
0001
0100
0010
,  // measure 16
1000
0000
0100
0000
0010
0000
0001
0100
0001
0100
0001
0000
1000
0000
0100
0000
,  // measure 17
0010
0000
0001
0000
0010
0000
0100
1000
0100
1000
0100
0000
1000
0000
0100
0000
,  // measure 18
0010
0000
0001
0000
0010
0000
0100
0010
0100
0010
0100
0000
0010
0000
0010
0000
,  // measure 19
0001
0010
0001
0010
0001
0010
0001
0000
1000
0010
1000
0010
1000
0010
1000
0000
,  // measure 20
0100
1000
0010
1000
0010
1000
0100
0010
0001
1000
0010
0000
0100
0000
0000
0000
,  // measure 21
0001
0100
0010
1000
0100
1000
0010
0100
0001
1000
0100
0000
0010
0000
0000
0000
,  // measure 22
0001
0100
0001
1000
0100
1000
0001
0100
0001
0010
0100
1000
0001
0100
0001
0000
,  // measure 23
1000
0010
1000
0001
0010
0001
1000
0010
1000
0100
0010
0001
1000
0010
1000
0000
,  // measure 24
0001
0000
0010
0000
0100
0000
1000
0010
1000
0010
1000
0000
0001
0000
0010
0000
,  // measure 25
0100
0000
1000
0000
0100
0000
0010
0001
0010
0001
0010
0000
0001
0000
0010
0000
,  // measure 26
0100
0000
1000
0000
0100
0000
0010
0100
0010
0100
0010
0000
0100
0000
0100
0000
,  // measure 27
1000
0100
1000
0100
1000
0100
1000
0000
0001
0100
0001
0100
0001
0100
0001
0000
,  // measure 28
0010
0001
0100
0001
0100
0001
0010
0100
1000
0001
0100
0000
0010
0000
0000
0000
,  // measure 29
1000
0010
0100
0001
0010
0001
0100
0010
1000
0001
0010
0000
0100
0000
0000
0000
,  // measure 30
1000
0010
1000
0001
0010
0001
1000
0010
1000
0100
0010
0001
1000
0010
1000
0000
,  // measure 31
0001
0100
0001
1000
0100
1000
0001
0100
0001
0010
0100
1000
0001
0100
0001
0000
,  // measure 32
1000
0000
0001
0000
0100
0000
0010
0000
1000
0100
0010
0001
0100
0000
0001
0000
,  // measure 33
0100
0010
1000
0000
0010
0000
1000
0010
0100
0000
0001
0000
0010
0001
0100
0000
,  // measure 34
0001
0000
0010
0000
0100
0000
1000
0100
0010
0001
0100
0000
0001
0000
0010
0001
,  // measure 35
0100
0010
1000
0010
1000
0000
0010
1000
0100
0010
0001
0000
0010
0001
0100
0010
,  // measure 36
1000
0000
0001
0000
0010
0000
0100
1000
0010
0100
0001
0000
0100
0000
0001
0010
,  // measure 37
0100
1000
0100
0000
1000
0010
0100
0010
1000
0000
1001
0000
0110
0000
0000
0000
,  // measure 38
1000
0100
0010
0000
0001
0000
1000
0010
0100
0000
0001
0000
0100
0010
1000
0000
,  // measure 39
0001
0100
0010
1000
0100
0010
0001
0100
0001
0100
0001
0010
0100
0010
0001
0100
,  // measure 40
0001
0000
1000
0000
0010
0000
0100
0000
0001
0010
0100
1000
0010
0000
1000
0000
,  // measure 41
0010
0100
0001
0000
0100
0000
0001
0100
0010
0000
1000
0000
0100
1000
0010
0000
,  // measure 42
1000
0000
0100
0000
0010
0000
0001
0010
0100
1000
0010
0000
1000
0000
0100
1000
,  // measure 43
0010
0100
0001
0100
0001
0000
0100
0001
0010
0100
1000
0000
0100
1000
0010
0100
,  // measure 44
0001
0000
1000
0000
0100
0000
0010
0001
0100
0010
1000
0000
0010
0000
1000
0100
,  // measure 45
0010
0001
0010
0000
0001
0100
0010
0100
0001
0000
1001
0000
0110
0000
0000
0000
,  // measure 46
0001
0010
0100
0000
1000
0000
0001
0100
0010
0000
1000
0000
0010
0100
0001
0000
,  // measure 47
1000
0010
0100
0001
0010
0100
1000
0010
1000
0010
1000
0100
0010
0100
1000
0010
,  // measure 48
1000
0100
0010
0001
1000
0100
0001
0100
,  // measure 49
1000
0010
0100
0001
1000
0010
0001
0010
,  // measure 50
1000
0100
0001
1000
0010
0001
1000
0001
,  // measure 51
0001
0100
1000
0001
0010
1000
0001
1000
,  // measure 52
0010
0000
1000
0000
0001
0000
0100
1000
0100
1000
0100
0000
0010
0000
1000
0000
,  // measure 53
0001
0000
0100
0000
0001
0000
1000
0010
1000
0010
1000
0000
0010
0000
1000
0000
,  // measure 54
0001
0000
0100
0000
0001
0000
1000
0001
1000
0001
1000
0000
0001
0000
0001
0000
,  // measure 55
0100
0001
0100
0001
0100
0001
0100
0000
0001
0010
0001
0010
0001
0010
0001
0000
,  // measure 56
0100
0000
0001
0000
1000
0000
0010
0001
0010
0001
0010
0000
0100
0000
0001
0000
,  // measure 57
1000
0000
0010
0000
1000
0000
0001
0100
0001
0100
0001
0000
0100
0000
0001
0000
,  // measure 58
1000
0000
0010
0000
1000
0000
0001
1000
0001
1000
0001
0000
1000
0000
1000
0000
,  // measure 59
1001
0000
1001
1000
,  // measure 60
0100
0010
0011
0010
,  // measure 61
0100
0000
1000
0000
0001
0010
0100
1000
,  // measure 62
0001
0010
0100
1000
0001
0100
0010
1000
,  // measure 63
0001
0100
0010
1000
1010
0000
1000
0000
,  // measure 64
0001
0010
0011
0010
,  // measure 65
0100
0000
1000
0000
0001
1000
0100
1000
,  // measure 66
0001
0000
1000
0001
0100
0001
1000
0000
,  // measure 67
0001
1000
1010
0100
,  // measure 68
0001
0010
1100
1000
,  // measure 69
0001
0000
0010
0000
0100
1000
0010
1000
,  // measure 70
0100
1000
0010
0000
0100
0001
0010
0001
,  // measure 71
0100
0001
0010
0000
0011
0000
1000
0000
,  // measure 72
0100
1000
1001
0100
,  // measure 73
0010
0100
0001
0100
,  // measure 74
0010
1000
0100
1000
0010
0000
1000
0001
,  // measure 75
1000
0001
1000
0000
0001
0010
0100
1000
,  // measure 76
0001
0000
1000
0000
0001
0010
0100
1000
,  // measure 77
0001
0000
1000
0000
0001
0100
0010
1000
,  // measure 78
0001
0000
0100
0000
0010
1000
0001
0100
,  // measure 79
0010
0000
0100
0000
0001
0010
0100
1000
,  // measure 80
0001
0000
1000
0000
0100
0010
0001
1000
,  // measure 81
0100
0000
1000
0000
0001
1000
0001
0000
,  // measure 82
1000
0001
1000
0000
0001
0100
0010
1000
,  // measure 83
0001
0100
0010
0000
0100
0010
0100
0010
,  // measure 84
0100
0010
0100
0000
0010
1000
0010
1000
,  // measure 85
0010
1000
0010
0000
1000
0001
1000
0001
,  // measure 86
1000
0001
1000
0000
0001
0010
0001
0010
,  // measure 87
0001
0010
0001
0000
0100
0010
0100
0010
,  // measure 88
0100
0010
0100
0000
0001
1000
0001
1000
,  // measure 89
0001
1000
0001
0000
0100
0010
1000
0001
,  // measure 90
0010
0100
1000
0001
0010
1000
0001
0100
,  // measure 91
1000
0001
0100
1000
0100
0000
0100
0000
,  // measure 92
0100
0100
0010
0010
,  // measure 93
0010
0010
1000
1000
,  // measure 94
1000
1000
0001
0001
,  // measure 95
0001
0001
0001
0000
;
