#TITLE:last friday night (T.G.I.F.);
#SUBTITLE:;
#ARTIST:Katy Perry;
#TITLETRANSLIT:;
#SUBTITLETRANSLIT:;
#ARTISTTRANSLIT:;
#CREDIT:Chewi☆;
#BANNER:last friday night (T.G.I.F.).png;
#BACKGROUND:last friday night (T.G.I.F.)-bg.png;
#LYRICSPATH:;
#CDTITLE:cdtitle.png;
#MUSIC:last friday night (T.G.I.F.).mp3;
#OFFSET:-0.188;
#SAMPLESTART:36.833;
#SAMPLELENGTH:15.000;
#SELECTABLE:YES;
#DISPLAYBPM:63.000:126.000;
#BPMS:0.000=126.000,176.000=63.000,182.000=126.000;
#STOPS:;
#BGCHANGES:;

//---------------dance-single - Chewi----------------
#NOTES:
     dance-single:
     Chewi:
     Hard:
     12:
     0.484,0.663,0.292,0.177,0.082: // measure 1
0000
0000
0000
0000
,  // measure 2
0000
0000
0000
0000
,  // measure 3
0000
0000
0000
0000
,  // measure 4
0000
0000
0000
0000
0000
0000
1000
0010
,  // measure 5
0100
0000
0001
0000
0100
0000
0010
0100
0000
0000
0000
0000
0001
0000
0010
0000
,  // measure 6
0100
0000
1000
0000
0010
0000
1000
0100
0000
0000
0000
0000
1000
0000
0001
0000
,  // measure 7
0100
0000
0010
0000
1000
0000
0001
1000
0000
0000
0000
0000
0001
0000
0010
0000
,  // measure 8
0100
0000
1000
0000
0010
0000
1000
0010
0000
0000
0000
0000
0100
0000
0010
0000
,  // measure 9
1000
0000
0001
0000
0010
0000
0100
0010
0000
0000
0000
0000
0001
0000
0010
0000
,  // measure 10
0100
0000
1000
0000
0010
0000
1000
0010
0000
0000
0000
0000
1000
0000
0010
0000
,  // measure 11
0100
0000
0001
0000
0100
0000
0010
0100
0000
0000
0000
0000
0001
0000
1000
0000
,  // measure 12
0100
0000
0010
0000
0001
0000
0010
0100
0000
0000
0000
0000
0001
0000
1000
0000
,  // measure 13
1100
0000
0101
0000
1100
0000
0001
1000
,  // measure 14
0010
0000
0110
0000
1001
0000
0001
0002
,  // measure 15
0000
0000
0003
0000
0000
0000
1000
2000
,  // measure 16
0000
0000
3000
0000
0000
0000
0001
0010
,  // measure 17
0110
0000
0011
0000
0101
0000
0001
0100
,  // measure 18
0010
0000
1010
0000
1001
0000
1000
2000
,  // measure 19
0000
0000
3000
0000
0000
1001
0000
0000
,  // measure 20
0000
0000
0001
0000
1000
0002
0000
0203
,  // measure 21
0000
0300
0010
0100
0001
1000
0100
1000
,  // measure 22
0020
0000
1030
0100
0010
0001
0100
0010
,  // measure 23
0200
0000
0301
0100
0010
1000
0001
0010
,  // measure 24
0200
0000
0310
0000
0001
0101
0000
1010
,  // measure 25
0000
0000
0001
0100
0010
1000
0001
1000
,  // measure 26
0200
0000
1300
0010
0100
0001
0100
0010
,  // measure 27
2000
0000
3001
0010
0100
1000
0010
0100
,  // measure 28
0002
0000
0103
0000
0010
1010
0000
1001
,  // measure 29
0000
0000
0001
0010
0100
1000
0100
0010
,  // measure 30
0002
0000
1003
0001
0100
0010
0100
0001
,  // measure 31
2000
0000
3001
1000
0100
0010
0100
1000
,  // measure 32
0002
0000
1003
0000
0001
0101
0000
1100
,  // measure 33
0000
0000
0001
0100
0010
1000
0010
0100
,  // measure 34
0002
0000
0103
0010
1000
0001
0010
0100
,  // measure 35
0020
0000
0030
0100
0000
0010
0100
0010
,  // measure 36
0000
0000
0001
0000
1000
0010
0100
0001
,  // measure 37
2000
0100
0010
3100
,  // measure 38
0001
0010
0100
0000
0100
0010
0001
0000
,  // measure 39
0002
0100
0010
1003
,  // measure 40
1000
0010
0100
0000
0100
0010
1000
0000
,  // measure 41
2000
0100
0001
3010
,  // measure 42
0010
0100
0001
0000
0001
0100
0010
0000
,  // measure 43
2000
0100
0001
3010
,  // measure 44
0010
1000
0100
0000
0100
1000
0010
0100
,  // measure 45
0001
0010
1000
0100
0100
1000
0010
0001
,  // measure 46
0200
0300
0200
0300
0020
0030
0020
0030
0001
0000
0000
0000
0010
0000
0000
0000
,  // measure 47
0100
0000
0010
0000
0010
0001
0010
0001
0010
0000
0001
0000
0101
0000
0000
0000
,  // measure 48
0100
0001
0010
0100
1000
0010
1000
1000
,  // measure 49
0010
1000
0010
0000
0001
0000
1000
0000
1001
0000
0100
0000
0010
0000
1000
0000
,  // measure 50
0100
0010
0001
0010
1100
0100
1000
0010
,  // measure 51
0100
0001
0100
0100
0010
1000
0100
0001
,  // measure 52
0001
0010
0100
0000
0100
0000
1000
0000
0010
0000
1010
0000
0100
0000
0101
0000
,  // measure 53
1000
0100
0010
0000
0001
0000
0100
0000
0100
0001
0100
0000
1000
0100
1000
0000
,  // measure 54
0001
1000
0001
0000
1000
0010
1000
0000
0001
0100
0001
0100
0001
0100
0001
0100
,  // measure 55
0001
0010
0001
0010
0001
0010
0001
0000
0010
0000
0001
0000
0010
0000
0100
0000
,  // measure 56
1000
0001
1000
0100
1001
0000
1000
0010
,  // measure 57
0100
0001
0100
0010
1010
0000
1000
0001
,  // measure 58
0010
0100
0100
0010
0011
0000
0001
0000
,  // measure 59
1000
1100
0000
0101
0000
0000
0001
0010
,  // measure 60
0100
1000
0010
0010
0110
0000
0010
1000
,  // measure 61
0001
0010
0100
1000
1010
0000
1000
0100
,  // measure 62
0010
0001
0010
0100
0011
0000
0001
0000
,  // measure 63
1000
0110
0000
1001
0000
0000
0001
0100
,  // measure 64
0010
1000
0001
0010
0011
0000
0010
0001
,  // measure 65
0100
0010
1000
0001
1001
0000
0010
0100
,  // measure 66
0001
0010
0100
0010
0011
0000
0010
0000
,  // measure 67
0100
1001
0000
0101
0000
0000
0001
0100
,  // measure 68
0010
1000
0001
1000
1100
0000
1000
0001
,  // measure 69
0010
0001
1000
0010
0101
0000
0000
0011
,  // measure 70
0000
0010
0100
0010
0000
0000
0011
0000
,  // measure 71
0101
0100
0010
1000
2001
0000
0000
0000
,  // measure 72
0000
0001
0001
0010
0000
0000
0000
0000
,  // measure 73
0000
0000
0100
0002
0000
0000
0000
0000
,  // measure 74
0000
0000
0000
0000
,  // measure 75
0000
0000
0000
0000
,  // measure 76
3003
0000
0000
0000
;

//---------------dance-single - Chewi----------------
#NOTES:
     dance-single:
     Chewi:
     Medium:
     8:
     0.306,0.382,0.156,0.170,0.000: // measure 1
0000
0000
0000
0000
,  // measure 2
0000
0000
0000
0000
,  // measure 3
0000
0000
0000
0000
,  // measure 4
0000
0000
0000
1000
,  // measure 5
1000
0000
0001
1000
0001
0000
0001
0000
,  // measure 6
0001
0000
1000
0001
1000
0000
0100
0000
,  // measure 7
0100
0000
0010
0100
0010
0000
0010
0000
,  // measure 8
0010
0000
0010
0100
0010
0000
1000
0000
,  // measure 9
0100
0000
1000
0100
1000
0000
0001
0000
,  // measure 10
0010
0000
0001
0010
0001
0000
0010
0000
,  // measure 11
0100
0000
0010
0100
0010
0000
0001
0000
,  // measure 12
1000
0000
0001
1000
0001
0000
1000
0010
,  // measure 13
0200
0302
0203
0320
,  // measure 14
2030
0000
3002
0000
2003
0000
0001
0002
,  // measure 15
0000
0000
0000
3003
,  // measure 16
0000
0000
0000
0000
0000
0000
1000
0010
,  // measure 17
0200
0302
0023
0230
,  // measure 18
0320
0000
0032
0000
2003
0000
0010
0020
,  // measure 19
0000
0000
0000
0000
0000
3030
0000
0000
,  // measure 20
0000
0000
0010
0000
0100
0010
0000
0100
,  // measure 21
0000
0010
1000
0100
,  // measure 22
0001
0010
1000
0100
,  // measure 23
0001
0010
0100
0010
,  // measure 24
0100
0000
0010
0000
0100
0010
0000
0100
,  // measure 25
0000
0010
0001
0100
,  // measure 26
1000
0010
0001
0100
,  // measure 27
1000
0010
0001
0100
,  // measure 28
1000
0000
0001
0000
1000
0001
0000
1000
,  // measure 29
0000
0001
0100
0010
,  // measure 30
0001
0100
1000
0010
,  // measure 31
0100
1000
0010
0001
,  // measure 32
0100
0000
0010
0000
0100
0010
0000
0100
,  // measure 33
0000
0001
0010
1000
,  // measure 34
0100
0010
1000
0100
,  // measure 35
0010
0000
0000
0011
0000
0000
0001
0000
,  // measure 36
0000
0000
0001
0000
1000
0001
0000
1000
,  // measure 37
0000
0000
0000
0000
0000
0010
0100
0010
,  // measure 38
0000
0000
0000
0000
0000
0000
0100
0100
,  // measure 39
0000
0000
0000
0001
,  // measure 40
0010
0100
1000
0010
,  // measure 41
0100
0000
0000
0000
0000
0100
0100
0100
,  // measure 42
0000
0000
0000
0000
0000
0000
0010
0010
,  // measure 43
0000
0000
0000
0000
,  // measure 44
0100
0010
0001
1000
,  // measure 45
1001
0000
0100
0000
0010
0100
0010
0000
,  // measure 46
0110
1000
1000
0001
,  // measure 47
1000
0001
2000
0100
,  // measure 48
0100
3100
0001
0101
,  // measure 49
1000
1010
0002
0010
,  // measure 50
0010
0013
1000
1010
,  // measure 51
0001
0011
0100
0010
,  // measure 52
0001
1000
0010
0000
0100
0000
0100
0000
,  // measure 53
0010
0010
0100
0010
,  // measure 54
1000
0001
0010
0000
0002
0000
0023
0000
,  // measure 55
0230
2300
3001
1100
,  // measure 56
0100
0100
1000
0101
,  // measure 57
0010
0010
0100
0110
,  // measure 58
1000
0000
1001
0000
0001
0000
1000
0100
,  // measure 59
1000
0000
0001
0010
0002
0000
1003
0000
,  // measure 60
0010
0101
0110
1000
,  // measure 61
0001
1000
0110
0100
,  // measure 62
0010
0011
0101
0010
,  // measure 63
0100
0010
0100
0000
0010
0000
1000
0000
,  // measure 64
0100
0110
0100
0010
,  // measure 65
0001
0011
0001
1000
,  // measure 66
0010
0110
0100
0010
,  // measure 67
0100
0010
0100
0000
0010
0000
1000
0000
,  // measure 68
0100
1100
0010
0001
,  // measure 69
0011
0000
0101
0000
0110
0000
0000
0100
,  // measure 70
0000
0010
0100
0010
0000
0000
1000
0000
,  // measure 71
0001
1000
0001
2000
0000
0000
0000
0000
,  // measure 72
0000
0001
0000
0001
0000
0000
0000
0000
,  // measure 73
0000
0010
0000
0020
0000
0000
0000
0000
,  // measure 74
0000
0000
0000
0000
,  // measure 75
0000
0000
0000
0000
,  // measure 76
3030
0000
0000
0000
;

//---------------dance-single - Chewi----------------
#NOTES:
     dance-single:
     Chewi:
     Easy:
     5:
     0.220,0.255,0.075,0.007,0.000: // measure 1
0000
0000
0000
0000
,  // measure 2
0000
0000
0000
0000
,  // measure 3
0000
0000
0000
0000
,  // measure 4
0000
0000
0000
0000
,  // measure 5
1000
0100
1000
0000
,  // measure 6
0100
0001
0100
0000
,  // measure 7
0001
0010
0001
0000
,  // measure 8
0010
1000
0010
0000
,  // measure 9
1000
0100
0010
0000
,  // measure 10
0001
0100
0010
0000
,  // measure 11
0100
0010
0100
0000
,  // measure 12
0010
0100
0010
0000
,  // measure 13
1000
0000
0001
0000
,  // measure 14
0100
0100
0100
0000
,  // measure 15
0001
0000
1000
0000
,  // measure 16
0010
0000
0100
0000
,  // measure 17
1000
0000
0001
0000
,  // measure 18
0100
0100
0100
0000
,  // measure 19
0010
0000
0001
0000
,  // measure 20
1000
0000
0001
0000
,  // measure 21
1001
0000
1000
1000
,  // measure 22
1000
0000
0010
0010
,  // measure 23
0010
0000
0001
0001
,  // measure 24
0001
0000
1001
0000
,  // measure 25
0100
0100
0100
0000
,  // measure 26
0010
0010
0010
0000
,  // measure 27
1000
1000
1000
0000
,  // measure 28
0001
1001
0001
0000
,  // measure 29
1000
0100
0010
0000
,  // measure 30
0001
0100
0010
0000
,  // measure 31
1000
0010
0001
0000
,  // measure 32
0001
0100
1000
0000
,  // measure 33
0100
1000
0010
0000
,  // measure 34
0010
0100
0010
0000
,  // measure 35
0001
1000
0001
0000
,  // measure 36
0001
0010
0100
0000
,  // measure 37
1000
0100
1000
0100
,  // measure 38
0001
0100
0001
0100
,  // measure 39
0010
0100
0010
0100
,  // measure 40
0001
1000
0001
1000
,  // measure 41
1000
0010
1000
0010
,  // measure 42
0001
0010
0001
0010
,  // measure 43
0100
0010
0100
0010
,  // measure 44
0001
1000
0001
1000
,  // measure 45
1001
0000
0110
0000
,  // measure 46
1001
0000
0110
0100
,  // measure 47
0100
0100
0010
0001
,  // measure 48
0000
0001
1000
0001
,  // measure 49
1000
0001
1000
0010
,  // measure 50
0001
0000
0001
0010
,  // measure 51
1000
0010
1000
0100
,  // measure 52
1000
0100
0001
0010
,  // measure 53
0001
0010
0001
0001
,  // measure 54
0001
0001
1000
1000
,  // measure 55
1000
1000
0010
0010
,  // measure 56
0010
0010
0010
0100
,  // measure 57
0100
0100
0100
0001
,  // measure 58
0100
1000
0100
1001
,  // measure 59
0000
0000
1000
1000
,  // measure 60
1000
1000
0010
0010
,  // measure 61
0010
0010
0001
0001
,  // measure 62
0001
0001
0110
0000
,  // measure 63
0000
0000
0100
1000
,  // measure 64
0010
1000
0100
0001
,  // measure 65
0010
0001
0100
0010
,  // measure 66
0001
1000
1000
0000
,  // measure 67
0110
0000
0100
0010
,  // measure 68
0100
0001
0010
0100
,  // measure 69
1000
0010
0100
0000
,  // measure 70
0101
0000
0001
1000
,  // measure 71
0100
0010
0200
0000
,  // measure 72
0000
0000
0000
0000
,  // measure 73
0000
0000
0000
0000
,  // measure 74
0000
0000
0000
0000
,  // measure 75
0000
0000
0000
0000
,  // measure 76
0300
0000
0000
0000
;

//---------------dance-single - Chewi----------------
#NOTES:
     dance-single:
     Chewi:
     Beginner:
     2:
     0.073,0.178,0.027,0.007,0.000: // measure 1
0000
0000
0000
0000
,  // measure 2
0000
0000
0000
0000
,  // measure 3
0000
0000
0000
0000
,  // measure 4
0000
0000
0000
0000
,  // measure 5
1000
0000
0000
0000
,  // measure 6
0100
0000
0000
0000
,  // measure 7
0001
0000
0000
0000
,  // measure 8
0010
0000
0000
0000
,  // measure 9
1000
0000
0000
0000
,  // measure 10
0001
0000
0000
0000
,  // measure 11
0100
0000
0000
0000
,  // measure 12
0010
0000
0000
0000
,  // measure 13
1000
0000
0000
0000
,  // measure 14
0100
0000
0000
0000
,  // measure 15
0001
0000
0000
0000
,  // measure 16
0010
0000
0000
0000
,  // measure 17
1000
0000
0000
0000
,  // measure 18
0100
0000
0000
0000
,  // measure 19
0010
0000
0000
0000
,  // measure 20
1000
0000
0000
0000
,  // measure 21
1001
0000
0000
0000
,  // measure 22
1000
0000
0000
0000
,  // measure 23
0010
0000
0000
0000
,  // measure 24
0001
0000
0000
0000
,  // measure 25
0100
0000
0000
0000
,  // measure 26
0010
0000
0000
0000
,  // measure 27
1000
0000
0000
0000
,  // measure 28
0001
0000
0000
0000
,  // measure 29
1000
0000
0000
0000
,  // measure 30
0001
0000
0000
0000
,  // measure 31
1000
0000
0000
0000
,  // measure 32
0001
0000
0000
0000
,  // measure 33
0100
0000
0000
0000
,  // measure 34
0010
0000
0000
0000
,  // measure 35
0001
0000
0000
0000
,  // measure 36
0001
0000
0000
0000
,  // measure 37
1000
0000
0000
0000
,  // measure 38
0001
0000
0000
0000
,  // measure 39
0010
0000
0000
0000
,  // measure 40
0001
0000
0000
0000
,  // measure 41
1000
0000
0000
0000
,  // measure 42
0001
0000
0000
0000
,  // measure 43
0100
0000
0000
0000
,  // measure 44
0001
0000
0000
0000
,  // measure 45
1001
0000
0000
0000
,  // measure 46
1001
0000
0100
0100
,  // measure 47
0100
0100
0010
0000
,  // measure 48
0000
0000
0001
0000
,  // measure 49
0000
0000
0000
0010
,  // measure 50
0000
0000
0000
0000
,  // measure 51
0000
0010
0000
0000
,  // measure 52
0000
0100
0000
0000
,  // measure 53
0000
0010
0000
0000
,  // measure 54
0000
0001
0000
0000
,  // measure 55
0000
0000
0010
0000
,  // measure 56
0000
0000
0010
0000
,  // measure 57
0000
0000
0100
0000
,  // measure 58
0000
0000
0100
0000
,  // measure 59
0000
0000
1000
0000
,  // measure 60
0000
0000
0010
0000
,  // measure 61
0000
0000
0001
0000
,  // measure 62
0000
0000
0110
0000
,  // measure 63
0000
0000
0100
0000
,  // measure 64
0000
0000
0100
0000
,  // measure 65
0000
0000
0100
0000
,  // measure 66
0000
0000
1000
0000
,  // measure 67
0000
0000
0100
0000
,  // measure 68
0000
0000
0010
0000
,  // measure 69
0000
0000
0100
0000
,  // measure 70
0000
0001
0000
0000
,  // measure 71
0000
0000
0200
0000
,  // measure 72
0000
0000
0000
0000
,  // measure 73
0000
0000
0000
0000
,  // measure 74
0000
0000
0000
0000
,  // measure 75
0000
0000
0000
0000
,  // measure 76
0300
0000
0000
0000
;
