#TITLE:kyoto EVOLVED (ver. B);
#SUBTITLE:;
#ARTIST:xRGTMx underground;
#TITLETRANSLIT:;
#SUBTITLETRANSLIT:;
#ARTISTTRANSLIT:;
#GENRE:;
#CREDIT:Chewi☆;
#MENUCOLOR:#FFFFFF;
#METERTYPE:DDR X;
#BANNER:kyoto EVOLVED (ver. B).png;
#BACKGROUND:kyoto EVOLVED (ver. B)-bg.png;
#LYRICSPATH:;
#CDTITLE:./CDTITLES/DanceDanceRevolution skyMIX2 -FREEDOM-.PNG;
#MUSIC:kyoto EVOLVED (ver. B).mp3;
#OFFSET:-2.000;
#SAMPLESTART:2.000;
#SAMPLELENGTH:15.000;
#SELECTABLE:YES;
#LISTSORT:;
#DISPLAYBPM:61.000:244.000;
#BPMS:0.000=244.000,128.000=61.000,144.000=122.000,194.000=244.000;
#STOPS:176.000=1.721
,176.500=1.721
,177.000=1.721
,177.500=1.721
;
#BGCHANGES:;
#ATTACKS:;

//---------------dance-single - Chewi----------------
#NOTES:
     dance-single:
     Chewi:
     Hard:
     16:
     0.685,1.000,0.200,0.150,0.267: // measure 1
0000
0000
0000
0000
,  // measure 2
0000
0000
0000
0000
,  // measure 3
0000
0000
0000
0000
,  // measure 4
0000
0000
0000
0000
,  // measure 5
1000
0000
0010
0000
0100
0001
0010
0000
,  // measure 6
0001
0000
0010
0000
0100
1000
0010
0000
,  // measure 7
0100
0010
0100
0010
0100
0010
0100
0000
,  // measure 8
0001
1000
0001
1000
0001
1000
0001
0000
,  // measure 9
0001
0000
0010
0000
0100
1000
0010
1000
,  // measure 10
0100
0010
0001
0100
0010
0100
0001
0010
,  // measure 11
0100
0010
0100
0010
0100
0010
0100
0000
,  // measure 12
0001
1000
0001
1000
0001
1000
0001
0000
,  // measure 13
1000
0010
0100
0001
1000
0010
1000
0000
,  // measure 14
0001
0010
0100
1000
0001
0010
0001
0000
,  // measure 15
0010
0100
1000
0001
0100
0010
1000
0001
,  // measure 16
0100
0010
0100
0010
1000
0001
1000
0000
,  // measure 17
0100
0000
0001
0000
0010
0000
0100
1000
,  // measure 18
0010
1000
0100
0000
0010
0000
0001
0000
,  // measure 19
0100
0000
0010
0000
0100
0000
0001
0010
,  // measure 20
0100
1000
0010
0100
0001
0000
0100
0000
,  // measure 21
0010
0000
1000
0000
0001
0000
1000
0100
,  // measure 22
0010
0001
1000
0000
0100
0000
0010
0000
,  // measure 23
0001
1000
0001
0000
0010
0100
0010
0000
,  // measure 24
1000
0001
1000
0000
0100
0010
0100
0000
,  // measure 25
1000
0000
0100
0000
0010
0001
0010
0100
,  // measure 26
1000
0010
0100
0000
0001
0000
0100
0000
,  // measure 27
0010
0000
1000
0000
0001
0100
0010
1000
,  // measure 28
0001
0010
0100
0000
1000
0000
0001
0000
,  // measure 29
1000
0000
0100
0000
0010
0001
0010
0100
,  // measure 30
1000
0010
0100
0001
0100
0010
1000
0001
,  // measure 31
0010
0100
1000
0001
,  // measure 32
1000
0010
0001
0010
1000
0100
0001
0010
,  // measure 33
2000
0000
0000
3100
0010
0002
0000
0000
0203
0000
0000
0310
1000
0002
0000
0000
,  // measure 34
0023
0000
0000
0031
0010
0200
0000
0000
2300
0000
0000
3100
1000
0010
0100
0001
,  // measure 35
0200
0000
0000
0310
1000
0002
0000
0000
0023
0000
0000
0130
1000
0200
0000
0000
,  // measure 36
2300
0000
0000
3010
0100
0002
0000
0000
0203
0000
0000
0310
1000
0001
0010
0100
,  // measure 37
1100
0000
0010
0000
0001
0000
0000
0000
0100
1000
0010
1000
0010
0000
0100
0000
,  // measure 38
0101
0000
1000
0000
0010
0000
0000
0000
0001
1000
0001
1000
0001
0000
0000
0000
,  // measure 39
1000
0000
0100
0000
0011
0000
0000
0000
0001
0010
0100
1000
0001
0000
0010
0000
,  // measure 40
1000
0000
0100
0000
0101
0000
0000
0000
0001
0100
0010
1000
0001
0010
0100
0000
,  // measure 41
0001
1000
0001
1000
0001
0000
0000
0000
0010
1000
0100
1000
0010
0000
0000
0000
,  // measure 42
0010
0100
0010
0100
0010
0000
0000
0000
0010
0001
0100
0001
0010
0000
0000
0000
,  // measure 43
0100
0010
0001
0100
0010
1000
0001
0010
0100
1000
0010
0100
0001
0100
0010
0000
,  // measure 44
1000
0100
1000
0100
1000
0100
1000
0000
0001
0010
0001
0010
0001
0010
0001
0000
,  // measure 45
0011
0000
1010
0000
1100
0000
0101
0000
0100
0000
0010
0000
1000
0000
0001
0010
,  // measure 46
0100
1000
0001
0010
0100
0000
0000
0000
1000
0000
0100
0000
0010
0000
1000
0000
,  // measure 47
0010
0100
0001
1000
0010
0100
0000
0000
0001
0000
0100
0000
0010
0000
1000
0000
,  // measure 48
0001
0010
0100
1000
0001
0010
0100
0000
1000
0001
1000
0001
1000
0001
1000
0001
,  // measure 49
1000
0010
1000
0010
1000
0010
0000
0000
1000
0000
0000
0000
0010
0000
0000
0000
,  // measure 50
0100
0000
0001
0000
0001
0010
0100
1000
,  // measure 51
0001
0010
0100
1000
0010
0000
1000
0000
,  // measure 52
0100
0000
0001
0000
0010
0100
0010
0100
,  // measure 53
0010
0001
0010
0001
0010
0000
0100
0000
,  // measure 54
1000
0000
0001
0000
1000
0001
0100
0001
,  // measure 55
1000
0100
1000
0100
0010
0000
1000
0000
,  // measure 56
0100
0000
0010
0000
0001
0010
0001
0010
,  // measure 57
0001
0100
0001
0100
0010
1000
0001
0000
,  // measure 58
0010
0100
1000
0000
0001
1000
0100
1000
,  // measure 59
0100
1000
0100
0000
1000
0001
0010
0000
,  // measure 60
0001
1000
0010
0000
0100
0010
0100
0010
,  // measure 61
0100
0010
0100
0000
1010
0000
0101
0000
,  // measure 62
0011
0000
1100
0000
0001
1000
0100
1000
,  // measure 63
0001
0100
0010
0000
1010
0000
0101
0000
,  // measure 64
0011
0000
1100
0000
0001
1000
0001
1000
,  // measure 65
0001
0010
0001
0010
0100
1000
0010
0000
,  // measure 66
0100
0000
0001
0000
0100
0001
0010
0000
,  // measure 67
0100
0000
0010
0000
0001
1000
0001
0000
,  // measure 68
1000
0001
1000
0000
1000
0001
0100
0000
,  // measure 69
0001
1000
0100
0000
0010
0000
0100
0000
,  // measure 70
1000
0010
1000
0000
0010
0000
0100
0000
,  // measure 71
0010
0001
0010
0000
0001
0000
0100
0000
,  // measure 72
0001
0100
0001
0000
1000
0000
0100
0000
,  // measure 73
1000
0100
1000
0000
0001
0000
1100
0000
,  // measure 74
1000
0001
0100
0000
0010
0000
0101
0000
,  // measure 75
0010
0001
0100
0000
0010
0000
1100
0000
,  // measure 76
0010
1000
0100
0000
1000
0001
0100
0000
,  // measure 77
0001
1000
0100
0000
1000
0000
0101
0000
,  // measure 78
0001
0100
0001
0000
1000
0000
1100
0000
,  // measure 79
1000
0100
1000
0000
0001
0000
1001
0000
,  // measure 80
1000
0010
1000
0000
1000
0010
0100
0000
,  // measure 81
0001
0100
0010
1000
2002
0000
0000
0000
,  // measure 82
0000
0000
0000
0000
,  // measure 83
0000
0000
0000
0000
,  // measure 84
0000
0000
3003
0000
1000
0100
0001
0100
,  // measure 85
1000
0010
0001
0010
2002
0000
0000
0000
,  // measure 86
0000
0000
3003
0000
;

//---------------dance-single - Chewi----------------
#NOTES:
     dance-single:
     Chewi:
     Medium:
     11:
     0.534,0.890,0.267,0.033,0.146: // measure 1
0000
0000
0000
0000
,  // measure 2
0000
0000
0000
0000
,  // measure 3
0000
0000
0000
0000
,  // measure 4
0000
0000
0000
0000
,  // measure 5
1000
0100
0010
0001
,  // measure 6
0010
0001
0010
0000
0001
0010
0001
0000
,  // measure 7
0011
0000
0101
0000
,  // measure 8
1100
0000
1010
0000
,  // measure 9
0010
0000
1000
0000
0100
1000
0100
0000
,  // measure 10
1000
0010
1000
0000
0010
0000
0100
0000
,  // measure 11
0101
0000
1100
0000
,  // measure 12
1010
0000
0011
0000
,  // measure 13
0010
0000
0100
0000
1000
0001
1000
0000
,  // measure 14
0100
0000
0010
0000
1000
0001
1000
0000
,  // measure 15
1010
0000
0011
0000
,  // measure 16
1100
0000
0101
0000
,  // measure 17
0100
0100
0010
0010
,  // measure 18
1000
0001
1000
0000
0001
1000
0001
0000
,  // measure 19
0010
0010
0100
0100
,  // measure 20
0010
0100
0010
0000
0100
0010
0100
0000
,  // measure 21
0010
0001
0100
1000
,  // measure 22
0010
1000
0100
0001
,  // measure 23
0010
0100
1000
0001
,  // measure 24
0100
0010
1000
0001
,  // measure 25
1000
0000
0100
0000
1000
0100
1000
0000
,  // measure 26
0001
0000
0010
0000
0001
0010
0001
0000
,  // measure 27
1000
0000
0001
0000
1000
0001
1000
0000
,  // measure 28
0001
0000
1000
0000
0001
1000
0001
0000
,  // measure 29
1000
0010
0100
0001
,  // measure 30
0001
0010
0100
1000
,  // measure 31
0001
1100
1000
0101
,  // measure 32
0100
0010
1000
0001
,  // measure 33
1001
0000
0000
0100
0100
0100
0000
0000
1010
0000
0000
0010
0001
0100
0000
0000
,  // measure 34
1100
0000
0000
0100
0100
0100
0000
0000
1001
0000
0010
1000
0100
0001
0000
0000
,  // measure 35
0011
0000
0000
0010
0010
0010
0000
0000
1100
0000
0000
0100
0100
0100
0000
0000
,  // measure 36
0011
0000
1000
0100
0001
0010
0000
0000
0101
0000
0001
0100
1000
0010
0100
0100
,  // measure 37
0010
1000
0100
0000
0010
0100
0010
0001
,  // measure 38
0010
0001
0100
0000
0010
0100
0010
0100
,  // measure 39
0010
0000
1000
0100
1000
0000
0000
0000
1000
0000
0100
0000
0010
0000
0001
0000
,  // measure 40
0100
0000
0001
0010
0001
0000
0000
0000
0001
0000
0010
0000
0100
0000
1000
0000
,  // measure 41
0001
0000
1000
0000
0010
0100
0010
0000
1000
0000
0001
0000
0010
0100
0010
0000
,  // measure 42
0001
0000
0010
0000
0100
1000
0100
0000
1000
0000
0100
0000
0010
0001
0010
0000
,  // measure 43
0001
0000
0010
0000
0100
1000
0010
0000
0100
0000
0001
0000
0100
0010
1000
0000
,  // measure 44
0001
1000
0001
1000
0001
0000
0000
0000
1000
0001
1000
0001
1000
0000
1000
0000
,  // measure 45
1010
0000
0011
0000
0101
0000
1100
0000
0010
0000
0010
0000
0010
0000
0100
0010
,  // measure 46
0100
0010
0100
0000
0100
0000
0000
0000
1000
0000
1000
0000
1000
0000
1000
0001
,  // measure 47
1000
0001
1000
0000
0001
0000
0000
0000
0001
0000
0001
0000
0001
0000
0001
1000
,  // measure 48
0001
1000
0001
0000
1000
0000
0000
0000
1000
0000
0010
0000
0001
0000
0100
0000
,  // measure 49
1000
0100
0001
0010
0001
0000
0010
0000
,  // measure 50
0100
1000
0100
1000
,  // measure 51
0100
1000
0010
0100
,  // measure 52
0001
0100
0010
1000
,  // measure 53
0010
1000
0010
0100
,  // measure 54
0001
1000
0001
0000
1000
0001
1000
0000
,  // measure 55
0100
0010
0001
0010
,  // measure 56
0100
1000
0100
0000
1000
0100
1000
0000
,  // measure 57
0001
0100
0010
1100
,  // measure 58
0010
0101
0010
1000
,  // measure 59
0100
0001
0010
0101
,  // measure 60
0010
1100
0010
1000
,  // measure 61
0100
0001
0010
0100
,  // measure 62
0010
0100
0010
0000
0001
0000
1000
0000
,  // measure 63
0001
1000
0001
0000
0001
0000
0100
0000
,  // measure 64
0010
1000
0010
0000
1000
0000
0100
0000
,  // measure 65
0010
0001
0010
0000
0100
0000
1000
0000
,  // measure 66
0001
1000
0010
0100
,  // measure 67
0001
0010
0100
0010
,  // measure 68
0001
0100
0010
1000
,  // measure 69
0100
0001
0010
0100
,  // measure 70
0010
0001
0010
0000
0100
0000
1000
0000
,  // measure 71
0010
0100
0000
0010
0100
0000
0001
0000
,  // measure 72
0010
0001
0010
0000
0100
0000
1000
0000
,  // measure 73
0010
1000
0100
0010
,  // measure 74
0001
0010
0001
0000
0100
0000
1000
0000
,  // measure 75
0010
1000
0010
0000
1000
0000
0010
0000
,  // measure 76
0100
0001
0100
0000
0010
0000
1000
0000
,  // measure 77
0001
1000
0001
0000
0001
0000
0010
0000
,  // measure 78
0100
1000
0001
0010
,  // measure 79
0100
1000
0001
1000
,  // measure 80
0100
1000
0100
0000
1000
0000
0001
0000
,  // measure 81
0100
0001
0100
0000
0220
0000
0000
0000
,  // measure 82
0000
0000
0000
0000
,  // measure 83
0000
0000
0000
0000
,  // measure 84
0000
0330
1000
0100
,  // measure 85
0010
0001
0010
0000
0220
0000
0000
0000
,  // measure 86
0000
0000
0330
0000
;

//---------------dance-single - Chewi----------------
#NOTES:
     dance-single:
     Chewi:
     Easy:
     7:
     0.447,0.712,0.167,0.033,0.017: // measure 1
0000
0000
0000
0000
,  // measure 2
0000
0000
0000
0000
,  // measure 3
0000
0000
0000
0000
,  // measure 4
0000
0000
0000
0000
,  // measure 5
1000
0100
1000
0001
,  // measure 6
0100
0001
0100
0010
,  // measure 7
1000
0001
0010
0100
,  // measure 8
1000
0001
0100
0010
,  // measure 9
1000
0100
0010
0001
,  // measure 10
0010
0100
1000
0001
,  // measure 11
0100
0010
1000
0001
,  // measure 12
0010
0100
1000
0001
,  // measure 13
1000
0100
0010
0001
,  // measure 14
1000
0100
0010
0001
,  // measure 15
1000
0010
0001
0100
,  // measure 16
1000
0100
0001
0010
,  // measure 17
0100
0100
0100
0100
,  // measure 18
0010
0100
0010
0100
,  // measure 19
0010
0010
0010
0010
,  // measure 20
0100
0010
0100
0010
,  // measure 21
0001
0001
0001
0001
,  // measure 22
1000
0001
1000
0001
,  // measure 23
1000
1000
1000
1000
,  // measure 24
0001
1000
0001
1000
,  // measure 25
0001
0010
0100
1000
,  // measure 26
0001
0010
0100
1000
,  // measure 27
0001
0100
0010
1000
,  // measure 28
0001
0100
0010
1000
,  // measure 29
0001
1000
0100
0010
,  // measure 30
0001
1000
0010
0100
,  // measure 31
0001
0010
1000
0100
,  // measure 32
0001
0010
1000
0100
,  // measure 33
0010
0000
0000
0010
0010
0000
0000
0000
0100
0000
0000
0100
0100
0000
0000
0000
,  // measure 34
1000
0001
1000
0000
0001
0100
1000
0000
,  // measure 35
1000
0000
0000
0001
0001
0000
0000
0000
0010
0000
0000
0010
0010
0000
0000
0000
,  // measure 36
0001
0010
0100
0000
1000
0100
0010
0001
,  // measure 37
0100
0000
0010
0000
1000
0001
1000
0001
,  // measure 38
0010
0000
0100
0000
0010
0100
0010
0100
,  // measure 39
1000
0000
0010
0000
0001
0100
0001
0100
,  // measure 40
0010
0000
0001
0000
0100
0010
0100
0010
,  // measure 41
1000
0000
0001
0000
1000
0100
0010
0001
,  // measure 42
0010
0000
0100
0000
1000
0010
0001
0100
,  // measure 43
1000
0010
0100
0000
0001
0100
0010
0000
,  // measure 44
1000
0001
0010
0100
1000
0001
0010
0100
,  // measure 45
0110
1001
0110
1001
0010
0010
0010
0100
,  // measure 46
0010
0100
0010
0000
1000
1000
1000
0001
,  // measure 47
1000
0001
1000
0000
0001
0001
0001
1000
,  // measure 48
0001
1000
0001
0000
0010
0010
0100
0100
,  // measure 49
0010
0001
0100
1000
0010
0000
1000
0000
,  // measure 50
0010
1000
0100
0001
,  // measure 51
0100
0001
0010
0100
,  // measure 52
1000
0001
0100
0010
,  // measure 53
1000
0001
1000
0100
,  // measure 54
1000
0100
0010
0001
,  // measure 55
0010
0001
0010
1000
,  // measure 56
0100
0010
1000
0100
,  // measure 57
0001
0010
0100
0010
,  // measure 58
0001
0100
0010
1000
,  // measure 59
0100
0010
0100
1000
,  // measure 60
0001
0100
0010
1000
,  // measure 61
0001
0010
0100
0010
,  // measure 62
0001
0100
0010
1000
,  // measure 63
0100
0010
0001
0010
,  // measure 64
0100
1000
0001
0100
,  // measure 65
1000
0010
0100
0001
,  // measure 66
0100
1010
1100
1010
,  // measure 67
1000
1000
0100
0010
,  // measure 68
0001
0100
1010
0101
,  // measure 69
1010
0100
0001
1000
,  // measure 70
0100
0010
0011
0101
,  // measure 71
0011
0100
0001
1000
,  // measure 72
0010
0100
0101
0011
,  // measure 73
0101
1000
0001
1000
,  // measure 74
0100
1000
0001
0100
,  // measure 75
1000
0010
0001
0010
,  // measure 76
0001
0010
1000
0100
,  // measure 77
0001
0100
0010
0100
,  // measure 78
0001
1000
0100
0010
,  // measure 79
0001
1000
0010
0010
,  // measure 80
0100
0100
0001
0100
,  // measure 81
0010
1000
2002
0000
,  // measure 82
0000
0000
0000
0000
,  // measure 83
0000
0000
0000
0000
,  // measure 84
0000
3003
1100
0000
,  // measure 85
0011
0000
0202
0000
,  // measure 86
0000
0000
0303
0000
;

//---------------dance-single - Chewi----------------
#NOTES:
     dance-single:
     Chewi:
     Beginner:
     4:
     0.321,0.463,0.075,0.033,0.000: // measure 1
0000
0000
0000
0000
,  // measure 2
0000
0000
0000
0000
,  // measure 3
0000
0000
0000
0000
,  // measure 4
0000
0000
0000
0000
,  // measure 5
1000
0100
1000
0000
,  // measure 6
0100
0001
0100
0000
,  // measure 7
1000
0001
0010
0000
,  // measure 8
1000
0001
0100
0000
,  // measure 9
1000
0100
0010
0000
,  // measure 10
0010
0100
1000
0000
,  // measure 11
0100
0010
1000
0000
,  // measure 12
0010
0100
1000
0000
,  // measure 13
1000
0100
0010
0000
,  // measure 14
1000
0100
0010
0000
,  // measure 15
1000
0010
0001
0000
,  // measure 16
1000
0100
0001
0000
,  // measure 17
0100
0100
0100
0000
,  // measure 18
0010
0100
0010
0000
,  // measure 19
0010
0010
0010
0000
,  // measure 20
0100
0010
0100
0000
,  // measure 21
0001
0001
0001
0000
,  // measure 22
1000
0001
1000
0000
,  // measure 23
1000
1000
1000
0000
,  // measure 24
0001
1000
0001
0000
,  // measure 25
0001
0010
0100
0000
,  // measure 26
0001
0010
0100
0000
,  // measure 27
0001
0100
0010
0000
,  // measure 28
0001
0100
0010
0000
,  // measure 29
0001
1000
0100
0000
,  // measure 30
0001
1000
0010
0000
,  // measure 31
0001
0010
1000
0000
,  // measure 32
0001
0010
1000
0000
,  // measure 33
0010
0010
0100
0100
,  // measure 34
1000
0001
1000
0000
0001
0100
1000
0000
,  // measure 35
1000
0001
0010
0010
,  // measure 36
0001
0010
0100
0000
1000
0100
0010
0001
,  // measure 37
0100
0010
1000
1000
,  // measure 38
0010
0100
0010
0010
,  // measure 39
1000
0010
0001
0001
,  // measure 40
0010
0001
0100
0100
,  // measure 41
1000
0001
1000
0010
,  // measure 42
0010
0100
1000
0001
,  // measure 43
1000
0100
0001
0010
,  // measure 44
1000
0010
1000
0010
,  // measure 45
0110
1000
0001
1001
0010
0000
0010
0000
,  // measure 46
0010
0010
1000
1000
,  // measure 47
1000
1000
0001
0001
,  // measure 48
0001
0001
0010
0100
,  // measure 49
0010
0100
0010
1000
,  // measure 50
0010
0000
0100
0001
,  // measure 51
0100
0000
0010
0100
,  // measure 52
1000
0000
0100
0010
,  // measure 53
1000
0000
1000
0100
,  // measure 54
1000
0000
0010
0001
,  // measure 55
0010
0000
0010
1000
,  // measure 56
0100
0000
1000
0100
,  // measure 57
0001
0000
0100
0010
,  // measure 58
0001
0000
0010
1000
,  // measure 59
0100
0000
0100
1000
,  // measure 60
0001
0000
0010
1000
,  // measure 61
0001
0000
0100
0010
,  // measure 62
0001
0000
0010
1000
,  // measure 63
0100
0000
0001
0010
,  // measure 64
0100
0000
0001
0100
,  // measure 65
1000
0000
0100
0001
,  // measure 66
0100
0000
1100
1000
,  // measure 67
1000
0000
0100
0010
,  // measure 68
0001
0000
1010
0010
,  // measure 69
0010
0000
0001
1000
,  // measure 70
0100
0000
0011
0010
,  // measure 71
0010
0000
0001
1000
,  // measure 72
0010
0000
0101
0100
,  // measure 73
0100
0000
0001
1000
,  // measure 74
0100
0000
0001
0100
,  // measure 75
1000
0000
0001
0010
,  // measure 76
0001
0000
1000
0100
,  // measure 77
0001
0000
0010
0100
,  // measure 78
0001
0000
0100
0010
,  // measure 79
0001
0000
0010
0010
,  // measure 80
0100
0000
0001
0100
,  // measure 81
0010
0000
2002
0000
,  // measure 82
0000
0000
0000
0000
,  // measure 83
0000
0000
0000
0000
,  // measure 84
0000
3003
1001
0000
,  // measure 85
0010
0000
0220
0000
,  // measure 86
0000
0000
0330
0000
;
