#TITLE:キラキラ☆;
#SUBTITLE:;
#ARTIST:Mizca;
#TITLETRANSLIT:kirakira;
#SUBTITLETRANSLIT:;
#ARTISTTRANSLIT:;
#GENRE:;
#CREDIT:yamamoto_;
#MENUCOLOR:;
#METERTYPE:DDR X;
#BANNER:kirakira.png;
#BACKGROUND:kirakira-bg.png;
#LYRICSPATH:;
#CDTITLE:;
#MUSIC:kirakira.mp3;
#OFFSET:-0.942;
#SAMPLESTART:72.122;
#SAMPLELENGTH:15.000;
#SELECTABLE:YES;
#LISTSORT:;
#DISPLAYBPM:134.000;
#BPMS:0.000=134.000;
#STOPS:;
#BGCHANGES:;
#ATTACKS:;

//---------------dance-single - yamamoto_----------------
#NOTES:
     dance-single:
     yamamoto_:
     Beginner:
     2:
     0.083,0.108,0.017,0.077,0.000: // measure 1
0000
0000
0000
0000
,  // measure 2
0000
0000
0000
0000
,  // measure 3
0000
0000
0000
0000
,  // measure 4
0000
0000
0000
0000
,  // measure 5
1000
0000
0000
0000
,  // measure 6
0001
0000
0000
0000
,  // measure 7
0100
0000
0000
0000
,  // measure 8
0010
0000
0000
0000
,  // measure 9
1000
0000
0000
0000
,  // measure 10
1000
0000
0000
0000
,  // measure 11
0010
0000
0000
0000
,  // measure 12
0001
0000
0000
0000
,  // measure 13
0001
0000
0000
0000
,  // measure 14
0001
0000
0000
0000
,  // measure 15
1000
0000
0000
0000
,  // measure 16
1000
0000
0000
0000
,  // measure 17
2000
0000
0000
3000
,  // measure 18
1000
0000
0000
0000
,  // measure 19
0200
0000
0000
0300
,  // measure 20
0100
0000
0000
0000
,  // measure 21
0002
0000
0000
0003
,  // measure 22
0001
0000
0000
0000
,  // measure 23
0020
0000
0000
0030
,  // measure 24
0010
0000
0000
0000
,  // measure 25
0010
0000
0000
0000
,  // measure 26
0100
0000
0000
0000
,  // measure 27
0010
0000
0000
0000
,  // measure 28
1000
0000
0000
0000
,  // measure 29
1001
0000
0000
0000
,  // measure 30
0001
0000
0000
0000
,  // measure 31
1000
0000
0000
0000
,  // measure 32
0100
0000
0000
0000
,  // measure 33
0110
0000
0000
0000
,  // measure 34
0100
0000
0000
0000
,  // measure 35
0010
0000
0000
0000
,  // measure 36
0010
0000
0000
0000
,  // measure 37
0100
0000
0000
0000
,  // measure 38
0010
0000
0000
0000
,  // measure 39
0010
0000
0000
0000
,  // measure 40
0100
0000
0000
0000
,  // measure 41
1000
0000
0000
0000
,  // measure 42
1000
0000
0000
0000
,  // measure 43
0010
0000
0000
0000
,  // measure 44
0001
0000
0000
0000
,  // measure 45
0001
0000
0000
0000
,  // measure 46
0001
0000
0000
0000
,  // measure 47
1000
0000
0000
0000
,  // measure 48
1000
0000
0000
0000
,  // measure 49
2000
0000
0000
3000
,  // measure 50
1000
0000
0000
0000
,  // measure 51
0200
0000
0000
0300
,  // measure 52
0100
0000
0000
0000
,  // measure 53
0002
0000
0000
0003
,  // measure 54
0001
0000
0000
0000
,  // measure 55
0020
0000
0000
0030
,  // measure 56
0010
0000
0000
0000
,  // measure 57
1000
0000
0000
0000
,  // measure 58
0001
0000
0000
0000
,  // measure 59
0100
0000
0000
0000
,  // measure 60
0010
0000
0000
0000
,  // measure 61
0020
0000
0000
0000
,  // measure 62
0000
0000
0000
0000
,  // measure 63
0000
0000
0000
0000
,  // measure 64
0030
0000
0000
0000
;

//---------------dance-single - yamamoto_----------------
#NOTES:
     dance-single:
     yamamoto_:
     Easy:
     5:
     0.201,0.244,0.026,0.155,0.000: // measure 1
0000
0000
0000
0000
,  // measure 2
0000
0000
0000
0000
,  // measure 3
0000
0000
0000
0000
,  // measure 4
0000
0000
0000
0000
,  // measure 5
1000
1000
1000
1000
,  // measure 6
0001
0001
0001
0001
,  // measure 7
0100
0100
0100
0000
,  // measure 8
0010
0100
0010
0000
,  // measure 9
1000
0010
1000
0100
,  // measure 10
1000
0010
1000
0000
,  // measure 11
0010
0001
0010
0000
,  // measure 12
0001
0100
0001
0000
,  // measure 13
0001
0010
0001
0100
,  // measure 14
0001
0010
0001
0000
,  // measure 15
1000
0100
1000
0000
,  // measure 16
1000
0010
1000
0000
,  // measure 17
2000
0000
0000
3000
,  // measure 18
0020
0000
0000
0030
,  // measure 19
0200
0000
0000
0300
,  // measure 20
2000
0000
0000
3000
,  // measure 21
0002
0000
0000
0003
,  // measure 22
0200
0000
0000
0300
,  // measure 23
0020
0000
0000
0030
,  // measure 24
0200
0000
0000
0300
,  // measure 25
0010
0010
0010
0010
,  // measure 26
0100
0100
0100
0100
,  // measure 27
0010
0010
0010
0010
,  // measure 28
1000
0001
1001
0000
,  // measure 29
1000
1000
1000
1000
,  // measure 30
0001
0001
0001
0001
,  // measure 31
1000
1000
1000
1000
,  // measure 32
0100
0010
0110
0000
,  // measure 33
0010
0000
0001
0000
,  // measure 34
0100
0000
1000
0000
,  // measure 35
0010
0000
0001
0000
,  // measure 36
0010
0000
1000
0000
,  // measure 37
0100
0000
0001
0000
,  // measure 38
0010
0000
1000
0000
,  // measure 39
0010
0000
0110
0000
,  // measure 40
0100
0100
0100
0000
,  // measure 41
1000
0010
1000
0100
,  // measure 42
1000
0010
1000
0000
,  // measure 43
0010
0001
0010
0000
,  // measure 44
0001
0100
0001
0000
,  // measure 45
0001
0010
0001
0100
,  // measure 46
0001
0010
0001
0000
,  // measure 47
1000
0100
1000
0000
,  // measure 48
1000
0010
1000
0000
,  // measure 49
2000
0000
0000
3000
,  // measure 50
0020
0000
0000
0030
,  // measure 51
0200
0000
0000
0300
,  // measure 52
2000
0000
0000
3000
,  // measure 53
0002
0000
0000
0003
,  // measure 54
0200
0000
0000
0300
,  // measure 55
0020
0000
0000
0030
,  // measure 56
0200
0000
0000
0300
,  // measure 57
1000
0100
0010
0001
,  // measure 58
0000
0000
1000
0001
,  // measure 59
0100
0000
0100
0000
,  // measure 60
0010
1000
0100
0001
,  // measure 61
0020
0000
0000
0000
,  // measure 62
0200
0000
0000
0000
,  // measure 63
0000
0000
0000
0000
,  // measure 64
0330
0000
0000
0000
;

//---------------dance-single - yamamoto_----------------
#NOTES:
     dance-single:
     yamamoto_:
     Medium:
     7:
     0.299,0.352,0.112,0.112,0.000: // measure 1
0000
0000
0000
0000
,  // measure 2
0000
0000
0000
0000
,  // measure 3
0000
0000
0000
0000
,  // measure 4
0000
0000
0000
0000
,  // measure 5
1000
0100
0010
0001
,  // measure 6
1000
0001
1000
0001
,  // measure 7
0001
0000
0100
0010
0000
0000
0000
0000
,  // measure 8
0010
0010
1000
0001
,  // measure 9
1000
0100
1000
0000
0100
0000
0001
0000
,  // measure 10
0010
1000
0100
0000
,  // measure 11
0100
1000
0010
0001
,  // measure 12
0100
1000
0010
0100
,  // measure 13
0001
0100
0001
0000
1000
0000
0100
0000
,  // measure 14
0010
0001
0100
0000
,  // measure 15
0001
0010
0100
1000
,  // measure 16
0001
1000
0001
0000
1000
0001
1000
0000
,  // measure 17
2002
0000
0000
3003
,  // measure 18
1000
0100
0001
0000
,  // measure 19
0001
0010
1000
0000
,  // measure 20
1000
0100
0010
0001
,  // measure 21
0010
0000
0100
0000
1000
0000
0001
1000
,  // measure 22
0100
0010
0001
1000
,  // measure 23
0010
0000
0100
0000
0001
1000
0010
0000
,  // measure 24
0100
0001
1100
0101
,  // measure 25
1000
0000
1000
0000
1000
1000
1000
0000
,  // measure 26
0001
0000
1000
0000
0001
0010
0001
0000
,  // measure 27
0001
0000
0001
0000
0001
0001
0001
0000
,  // measure 28
0001
0010
0100
1100
,  // measure 29
1000
0000
1000
0000
1000
1000
1000
0000
,  // measure 30
0001
0000
1000
0000
0010
0100
0010
0000
,  // measure 31
0100
0000
0100
0000
0100
0100
0100
0000
,  // measure 32
0010
0100
0101
0011
,  // measure 33
1002
0100
1000
0010
,  // measure 34
1003
0100
1000
0000
0100
0000
0000
0000
,  // measure 35
1002
0100
0010
0100
,  // measure 36
0013
0001
0010
0000
0001
0000
0000
0000
,  // measure 37
0021
0001
0100
0001
,  // measure 38
0031
0010
0100
0000
1000
0000
0000
0000
,  // measure 39
0010
0100
0010
0100
0000
0000
0000
0000
,  // measure 40
1000
0100
1000
0000
0001
0000
0101
0000
,  // measure 41
0001
0010
0001
0000
0010
0000
1000
0000
,  // measure 42
0100
0001
0010
0000
,  // measure 43
0010
0001
0100
1000
,  // measure 44
0010
0001
0100
0010
,  // measure 45
1000
0010
1000
0000
0001
0000
0010
0000
,  // measure 46
0100
1000
0010
0000
,  // measure 47
1000
0100
0010
0001
,  // measure 48
1000
0001
1000
0000
0001
1000
0001
0000
,  // measure 49
2002
0000
0000
3003
,  // measure 50
0001
0010
1000
0000
,  // measure 51
1000
0100
0001
0000
,  // measure 52
0001
0010
0100
1000
,  // measure 53
0100
0000
0010
0000
0001
0000
1000
0001
,  // measure 54
0010
0100
1000
0001
,  // measure 55
0100
0000
0010
0000
1000
0001
0100
0000
,  // measure 56
0010
1000
0011
1010
,  // measure 57
2000
0000
0000
0000
,  // measure 58
3200
0000
0000
0000
,  // measure 59
0302
0000
0000
0000
,  // measure 60
0023
0000
0000
0000
,  // measure 61
2030
0000
0000
0000
,  // measure 62
0002
0000
0000
0000
,  // measure 63
0000
0000
0000
0000
,  // measure 64
3003
0000
0000
0000
;

//---------------dance-single - yamamoto_----------------
#NOTES:
     dance-single:
     yamamoto_:
     Hard:
     11:
     0.453,0.514,0.120,0.120,0.030: // measure 1
0000
0000
0000
0000
,  // measure 2
0000
0000
0000
0000
,  // measure 3
0000
0000
0000
0000
,  // measure 4
0000
0000
0000
0000
,  // measure 5
1000
0100
0010
0001
,  // measure 6
1000
0100
0010
0001
,  // measure 7
1000
0000
0000
0000
0001
0000
1000
0000
0000
0000
0000
0000
0000
0000
1000
0010
,  // measure 8
1000
0010
1000
0010
1000
0000
0000
0000
0011
0000
0000
0000
1100
0000
0000
0000
,  // measure 9
1000
0100
1000
0100
1000
0010
0100
0001
,  // measure 10
0010
0000
0001
0010
0000
0001
0010
0100
,  // measure 11
1000
0000
0100
1000
0010
1000
0000
0100
,  // measure 12
0010
0001
0100
0010
0000
0000
0100
0010
,  // measure 13
1000
0001
1000
0100
1000
0001
0100
0010
,  // measure 14
0100
0000
0001
0100
0000
0010
0100
0001
,  // measure 15
0010
0000
0100
1000
0010
1000
0000
0100
,  // measure 16
0010
0100
1000
0001
1000
0010
0100
0001
,  // measure 17
0200
0010
0001
0010
,  // measure 18
0302
1000
0010
1000
,  // measure 19
2003
0010
0100
0010
,  // measure 20
3200
0001
1000
0001
,  // measure 21
1300
0100
0001
0100
1000
0001
0100
0000
,  // measure 22
0010
0101
0010
1100
,  // measure 23
1000
0001
0100
0010
1000
0001
0010
0000
,  // measure 24
0100
0000
0000
0000
0011
0000
0000
0000
0010
0000
0000
0000
0001
0010
0001
0000
,  // measure 25
0010
0100
1000
0001
0010
0100
1000
0001
,  // measure 26
0010
0001
0100
0001
0010
0001
0100
0001
,  // measure 27
0010
0100
1000
0001
0010
0100
1000
0001
,  // measure 28
1000
0100
0010
0011
0000
1100
0000
0000
,  // measure 29
1000
0010
0100
0001
1000
0010
0100
0001
,  // measure 30
1000
0100
0010
0001
1000
0100
0010
0001
,  // measure 31
1000
0010
0100
0001
1000
0010
0100
0001
,  // measure 32
1000
0100
0010
0011
0000
1100
0010
1000
,  // measure 33
1002
0100
1000
0013
,  // measure 34
0010
0100
0010
0100
1000
0001
1000
0001
,  // measure 35
2010
0001
0100
3001
,  // measure 36
0001
0100
0001
0100
0010
1000
0010
1000
,  // measure 37
2010
0100
0010
3001
,  // measure 38
1000
0100
1000
0100
0010
0001
0010
0001
,  // measure 39
0021
0100
0001
0130
,  // measure 40
0001
0100
1000
0010
0001
0000
1000
1000
,  // measure 41
0001
0010
0001
0010
0001
0100
0010
1000
,  // measure 42
0100
0000
1000
0100
0000
1000
0100
0010
,  // measure 43
0001
0000
0010
0001
0100
0001
0000
0010
,  // measure 44
0100
1000
0010
0100
0000
0000
0010
0100
,  // measure 45
0001
1000
0001
0010
0001
1000
0010
0100
,  // measure 46
0010
0000
1000
0010
0000
0100
0010
1000
,  // measure 47
0100
0000
0010
0001
0100
0001
0000
0010
,  // measure 48
0100
0010
0001
1000
0001
0100
0010
1000
,  // measure 49
0020
0000
0032
0000
,  // measure 50
0103
1000
0010
1000
,  // measure 51
0200
0000
2300
0000
,  // measure 52
3010
0001
0100
0001
,  // measure 53
0010
0100
0010
0000
0100
0010
0100
0000
,  // measure 54
0001
0100
1000
0100
0001
0100
1000
0000
,  // measure 55
1000
0001
1000
0000
0001
1000
0001
0000
,  // measure 56
1000
0000
0010
0000
0001
0000
0010
0000
1000
0000
1000
0001
1000
0001
1000
0001
,  // measure 57
1000
0010
0100
0001
0000
1000
0100
1000
,  // measure 58
0000
0000
0000
0001
0000
0010
0001
0010
,  // measure 59
0000
0000
0000
0100
0000
0000
0000
0010
,  // measure 60
0100
1000
0001
0100
0000
0000
0000
0000
,  // measure 61
0000
0100
0010
1000
0000
0010
0100
0001
,  // measure 62
2002
0000
0000
0000
,  // measure 63
0000
0000
0000
0000
,  // measure 64
3003
0000
0000
0000
;

//---------------dance-single - yamamoto_----------------
#NOTES:
     dance-single:
     yamamoto_:
     Challenge:
     5:
     0.158,0.244,0.009,0.086,0.000: // measure 1
0000
0000
0000
0000
,  // measure 2
0000
0000
0000
0000
,  // measure 3
0000
0000
0000
0000
,  // measure 4
0000
0000
0000
0000
,  // measure 5
1000
1000
1000
MMMM
,  // measure 6
0001
0001
0001
MMMM
,  // measure 7
0100
0100
0100
MMMM
,  // measure 8
0010
0100
0010
0000
,  // measure 9
1000
0010
1000
0100
,  // measure 10
1000
MMMM
1000
0000
,  // measure 11
0010
MMMM
0010
0000
,  // measure 12
0001
MMMM
0001
0000
,  // measure 13
0001
0010
0001
0100
,  // measure 14
0001
MMMM
0001
0000
,  // measure 15
1000
MMMM
1000
0000
,  // measure 16
1000
MMMM
1000
0000
,  // measure 17
2000
0000
0000
3000
,  // measure 18
MMMM
MMMM
MMMM
MMMM
,  // measure 19
0200
0000
0000
0300
,  // measure 20
MMMM
MMMM
MMMM
MMMM
,  // measure 21
0002
0000
0000
0003
,  // measure 22
MMMM
MMMM
MMMM
MMMM
,  // measure 23
0020
0000
0000
0030
,  // measure 24
MMMM
MMMM
MMMM
MMMM
,  // measure 25
0010
0010
0010
0010
,  // measure 26
0100
0100
0100
0100
,  // measure 27
0010
0010
0010
0010
,  // measure 28
1000
0001
MMMM
0000
,  // measure 29
1000
1000
1000
1000
,  // measure 30
0001
0001
0001
0001
,  // measure 31
1000
1000
1000
1000
,  // measure 32
0100
0010
MMMM
0000
,  // measure 33
0010
0000
0001
0000
,  // measure 34
0100
MMMM
1000
0000
,  // measure 35
0010
0000
0001
0000
,  // measure 36
0010
MMMM
1000
0000
,  // measure 37
0100
0000
0001
0000
,  // measure 38
0010
MMMM
1000
0000
,  // measure 39
0010
0000
0110
0000
,  // measure 40
0100
MMMM
0100
0000
,  // measure 41
1000
0010
1000
0100
,  // measure 42
1000
MMMM
1000
0000
,  // measure 43
0010
MMMM
0010
0000
,  // measure 44
0001
MMMM
0001
0000
,  // measure 45
0001
0010
0001
0100
,  // measure 46
0001
MMMM
0001
0000
,  // measure 47
1000
MMMM
1000
0000
,  // measure 48
1000
MMMM
1000
0000
,  // measure 49
2000
0000
0000
3000
,  // measure 50
MMMM
MMMM
MMMM
MMMM
,  // measure 51
0200
0000
0000
0300
,  // measure 52
MMMM
MMMM
MMMM
MMMM
,  // measure 53
0002
0000
0000
0003
,  // measure 54
MMMM
MMMM
MMMM
MMMM
,  // measure 55
0020
0000
0000
0030
,  // measure 56
MMMM
MMMM
MMMM
MMMM
,  // measure 57
1000
0100
0010
0001
,  // measure 58
MMMM
0000
1000
0001
,  // measure 59
0100
MMMM
0100
MMMM
,  // measure 60
0010
1000
0100
0001
,  // measure 61
0020
0000
0000
0000
,  // measure 62
0200
0000
0000
0000
,  // measure 63
0000
0000
0000
0000
,  // measure 64
0330
0000
0000
0000
;
