#TITLE:irony;
#SUBTITLE:;
#ARTIST:ClariS;
#TITLETRANSLIT:irony;
#SUBTITLETRANSLIT:;
#ARTISTTRANSLIT:;
#GENRE:;
#CREDIT:Chewi☆;
#MENUCOLOR:;
#METERTYPE:DDR X;
#BANNER:irony.png;
#BACKGROUND:irony-bg.png;
#LYRICSPATH:;
#CDTITLE:;
#MUSIC:irony.mp3;
#OFFSET:-1.362;
#SAMPLESTART:51.063;
#SAMPLELENGTH:15.000;
#SELECTABLE:YES;
#LISTSORT:;
#DISPLAYBPM:134.000;
#BPMS:0.000=134.000;
#STOPS:;
#BGCHANGES:;
#ATTACKS:;

//---------------dance-single - Chewi----------------
#NOTES:
     dance-single:
     Chewi:
     Beginner:
     1:
     0.073,0.134,0.056,0.000,0.000:
0000
0000
0000
0000
,
0000
0000
0000
0000
,
0000
0000
0000
0000
,
0000
0000
0000
0000
,
0000
0000
0000
0000
,
0000
0000
0000
0000
,
0000
0000
0000
0000
,
0000
0000
0000
0000
,
1000
0000
0000
0000
,
0001
0000
0000
0000
,
0100
0000
0000
0000
,
0100
0000
0000
0000
,
0001
0000
0000
0000
,
0010
0000
0000
0000
,
1000
0000
0000
0000
,
0010
0000
0000
0000
,
0001
0000
0000
0000
,
0100
0000
0000
0000
,
1000
0000
0000
0000
,
0100
0000
0000
0000
,
1001
0000
0000
0000
,
1000
0000
0000
0000
,
0001
0000
0000
0000
,
1000
0000
0000
0000
,
0110
0000
0000
0000
,
0100
0000
0000
0000
,
0010
0000
0000
0000
,
0100
0000
0000
0000
,
0001
0000
0000
0000
,
0001
0000
0000
0000
,
1000
0000
0000
0000
,
1000
0000
0000
0000
,
0100
0000
0000
0000
,
0100
0000
0000
0000
,
0010
0000
0000
0000
,
0010
0000
0000
0000
,
0010
0000
0000
0000
,
0100
0000
0000
0000
,
0001
0000
0000
0000
,
1000
0000
0000
0000
,
1000
0000
0000
0000
,
0001
0000
0000
0000
,
0010
0000
0000
0000
,
0100
0000
0000
0000
,
0100
0000
0000
0000
,
0110
0000
0000
0000
,
0010
0000
0000
0000
,
0110
0000
0000
0000
,
1001
0000
0000
0000
;

//---------------dance-single - Chewi----------------
#NOTES:
     dance-single:
     Chewi:
     Easy:
     4:
     0.175,0.191,0.045,0.078,0.000:
0000
0000
0000
0000
,
0000
0000
0000
0000
,
0000
0000
0000
0000
,
0000
0000
0000
0000
,
0000
0000
0000
0000
,
0000
0000
0000
0000
,
0000
0000
0000
0000
,
0000
0000
0000
0000
,
1000
0010
1000
0000
,
0010
1000
0010
0000
,
1000
0010
1000
0000
,
0010
1000
0010
0000
,
2000
0000
0000
3000
,
1000
0000
0001
0000
,
0002
0000
0000
0003
,
0001
0000
1000
0000
,
0200
0000
0000
0300
,
0100
0000
0010
0000
,
0020
0000
0000
0030
,
0010
0000
0001
0000
,
0001
0100
0001
0000
,
0100
0100
0100
0000
,
0010
0100
0010
0000
,
1000
1000
1000
0000
,
1000
0100
1000
0000
,
0100
0100
0100
0000
,
0100
0010
0100
0000
,
0010
0010
0010
0000
,
0001
0000
1001
0000
,
1000
0001
1000
0000
,
0010
0000
0100
0000
,
0001
0100
0001
0000
,
1000
0000
1001
0000
,
1000
0001
1000
0000
,
1000
0000
0100
0000
,
0010
0001
0010
0000
,
0001
0000
1001
0000
,
0100
0010
0100
0000
,
0010
0000
0100
0000
,
1000
0001
1000
0000
,
1000
0000
1001
0000
,
1000
0001
1000
0000
,
0100
0000
0010
0000
,
0100
0010
1000
0000
,
2000
0000
0000
3000
,
1000
1000
0100
0100
,
0200
0000
0000
0300
,
0100
0100
0010
0010
,
0002
0000
0000
0000
,
0003
0000
0000
0000
;

//---------------dance-single - Chewi----------------
#NOTES:
     dance-single:
     Chewi:
     Medium:
     7:
     0.279,0.328,0.156,0.089,0.000: // measure 1
0000
0000
0000
0000
,  // measure 2
0000
0000
0000
0000
,  // measure 3
0000
0000
0000
0000
,  // measure 4
0000
0000
0000
0000
,  // measure 5
0000
0000
0000
0000
,  // measure 6
0000
0000
0000
0000
,  // measure 7
0000
0000
0000
0000
,  // measure 8
0000
0000
0000
0000
,  // measure 9
1000
0100
0010
0000
,  // measure 10
0001
0010
0100
0000
,  // measure 11
1000
0010
0100
0000
,  // measure 12
0001
0100
0010
0000
,  // measure 13
2010
0010
0010
3010
,  // measure 14
1000
0100
0001
0100
,  // measure 15
0102
0100
0100
0103
,  // measure 16
0100
1000
0100
0001
,  // measure 17
1002
1000
1000
1003
,  // measure 18
1000
0100
0010
0100
,  // measure 19
0210
0010
0010
0310
,  // measure 20
0010
0001
0010
0100
,  // measure 21
1000
0000
0100
0000
1000
0001
0100
0000
,  // measure 22
0010
0100
0001
0000
,  // measure 23
0001
0000
1000
0000
0100
0010
0100
0000
,  // measure 24
1000
0010
1000
0000
,  // measure 25
1000
0000
0001
0000
0100
0010
0100
0000
,  // measure 26
0001
0010
0100
0000
,  // measure 27
1000
0000
0100
0000
0010
0100
1000
0000
,  // measure 28
0010
0100
0001
0000
,  // measure 29
0001
1000
0100
0010
,  // measure 30
0001
1000
1100
0000
,  // measure 31
1000
0001
0100
0010
,  // measure 32
1000
0010
1010
0000
,  // measure 33
1000
0001
0010
0100
,  // measure 34
0010
0001
0011
0000
,  // measure 35
0001
0010
0100
1000
,  // measure 36
0010
1000
1100
0000
,  // measure 37
1000
0000
0001
0000
0100
0010
1000
0000
,  // measure 38
1000
0100
1100
0000
,  // measure 39
1000
0000
0010
0000
0100
0001
0100
0000
,  // measure 40
0010
1000
1010
0000
,  // measure 41
1000
0000
0100
0000
0010
0001
0010
0000
,  // measure 42
0100
1000
1001
0000
,  // measure 43
0100
0000
0010
0000
0001
1000
0001
0000
,  // measure 44
0001
0100
0110
0000
,  // measure 45
2000
0001
0010
3001
,  // measure 46
0001
0100
0001
0101
,  // measure 47
0002
0100
0010
0103
,  // measure 48
0010
0001
0010
0100
,  // measure 49
2002
0000
0000
0000
,  // measure 50
3003
0000
0000
0000
;

//---------------dance-single - Chewi----------------
#NOTES:
     dance-single:
     Chewi:
     Hard:
     10:
     0.365,0.410,0.011,0.033,0.000: // measure 1
0000
0000
0000
0000
,  // measure 2
0000
0000
0000
0000
,  // measure 3
0000
0000
0000
0000
,  // measure 4
0000
0000
0000
0000
,  // measure 5
0000
0000
0000
0000
,  // measure 6
0000
0000
0000
0000
,  // measure 7
0000
0000
0000
0000
,  // measure 8
0000
0000
0000
0000
,  // measure 9
1000
0100
1000
0000
0100
0001
0100
0000
,  // measure 10
0001
0010
0001
0000
0010
1000
0010
0000
,  // measure 11
1000
0100
0010
0000
0001
0010
0100
0000
,  // measure 12
1000
0001
0100
0000
0001
1000
0100
0000
,  // measure 13
1000
0100
0010
0001
,  // measure 14
1000
0001
0010
0001
1000
0010
1000
0000
,  // measure 15
0010
0100
0010
1000
,  // measure 16
0010
0100
0001
0100
0010
0100
0001
0000
,  // measure 17
0010
0100
1000
0001
,  // measure 18
0001
0010
0100
0010
0001
0010
0001
0000
,  // measure 19
0100
0010
1000
0010
,  // measure 20
0010
1000
0100
1000
0010
1000
0100
0000
,  // measure 21
1000
0001
1000
0000
0100
0010
0100
0000
,  // measure 22
0010
0001
0010
0000
1000
0100
1000
0000
,  // measure 23
0001
1000
0010
0000
1000
0010
1000
0000
,  // measure 24
0010
0100
0001
0000
0100
0001
0100
0000
,  // measure 25
0001
0010
0100
1000
0010
1000
0100
0000
,  // measure 26
1000
0100
0010
0001
0100
0001
0100
0000
,  // measure 27
0001
1000
0010
0100
0001
1000
0002
2000
,  // measure 28
0000
0000
0000
0000
3003
0000
0001
1000
,  // measure 29
1000
0000
0100
0010
0000
0100
0000
1000
,  // measure 30
0000
0001
1000
0010
0100
0000
0001
0100
,  // measure 31
0010
0000
1000
0100
0000
1000
0000
0010
,  // measure 32
0000
0100
0010
0100
0001
0000
1000
0100
,  // measure 33
0010
0000
0001
0010
0000
0100
0000
1000
,  // measure 34
0000
0010
1000
0100
0000
0000
0010
0001
,  // measure 35
0000
0000
1000
0001
0000
0010
0000
0100
,  // measure 36
0000
1000
0000
1100
0000
0000
1000
0100
,  // measure 37
0010
0000
0001
0010
0000
0100
0000
1000
,  // measure 38
0000
0010
0100
0010
1000
0000
0010
1000
,  // measure 39
0100
0000
0010
0001
0000
0100
0000
0001
,  // measure 40
0000
0010
0100
1000
0001
0000
1000
0010
,  // measure 41
0100
0000
0001
0100
0000
0010
0000
1000
,  // measure 42
0000
0001
1000
0001
0000
0010
0100
1000
,  // measure 43
0000
0000
0100
0010
0000
0001
0000
1000
,  // measure 44
0000
0010
0000
1000
0100
0010
0001
0100
,  // measure 45
0010
1000
0010
0000
1000
0100
1000
0000
,  // measure 46
0100
0001
0100
0000
0001
0010
0001
0000
,  // measure 47
0010
1000
0010
0000
1000
0100
0010
0000
,  // measure 48
0001
0010
0100
0000
1000
0010
1000
0100
,  // measure 49
2000
0000
0000
0000
,  // measure 50
3000
0000
0000
0000
;
