#TITLE:アイスクリーム;
#SUBTITLE:;
#ARTIST:capsule feat.dahlia;
#TITLETRANSLIT:ice cream;
#SUBTITLETRANSLIT:;
#ARTISTTRANSLIT:;
#CREDIT:Chewi☆;
#BANNER:ice cream.png;
#BACKGROUND:ice cream-bg.png;
#LYRICSPATH:;
#CDTITLE:;
#MUSIC:ice cream.mp3;
#OFFSET:-0.551;
#SAMPLESTART:62.970;
#SAMPLELENGTH:15.000;
#SELECTABLE:YES;
#BPMS:0.000=123.000;
#STOPS:;
#BGCHANGES:;

//---------------dance-single - Chewi----------------
#NOTES:
     dance-single:
     Chewi:
     Easy:
     3:
     0.165,0.171,0.000,0.122,0.000: // measure 1
0000
0000
0000
0000
,  // measure 2
0000
0000
0000
0000
,  // measure 3
0000
0000
0000
0000
,  // measure 4
0000
0000
0000
0000
,  // measure 5
2000
0000
0000
3000
,  // measure 6
1000
0100
1000
0000
,  // measure 7
0002
0000
0000
0003
,  // measure 8
0001
0100
0001
0000
,  // measure 9
0100
0000
0100
0000
,  // measure 10
0010
0010
0010
0000
,  // measure 11
1000
0000
1000
0000
,  // measure 12
0001
0001
0001
0000
,  // measure 13
1000
0000
0100
0000
,  // measure 14
0010
0010
0001
0000
,  // measure 15
0001
0000
0010
0000
,  // measure 16
0100
0100
1000
0000
,  // measure 17
0010
0000
0010
0000
,  // measure 18
0100
0100
0100
0000
,  // measure 19
0001
0000
0001
0000
,  // measure 20
1000
1000
1000
0000
,  // measure 21
0001
0000
0010
0000
,  // measure 22
0100
0100
1000
0000
,  // measure 23
1000
0000
0100
0000
,  // measure 24
0010
0010
0001
0000
,  // measure 25
0002
0000
0000
0003
,  // measure 26
0001
1000
0100
0000
,  // measure 27
2000
0000
0000
3000
,  // measure 28
1000
0001
0100
0000
,  // measure 29
0100
0100
0100
0000
,  // measure 30
0100
0100
0100
0000
,  // measure 31
0010
0010
0010
0000
,  // measure 32
0010
0010
0010
0000
,  // measure 33
0010
0100
0010
0000
,  // measure 34
0200
0000
0300
0000
,  // measure 35
0100
0010
0100
0000
,  // measure 36
0020
0000
0030
0000
,  // measure 37
1000
0001
1000
0000
,  // measure 38
0002
0000
0003
0000
,  // measure 39
0001
1000
0001
0000
,  // measure 40
2000
0000
3000
0000
,  // measure 41
0100
0010
0100
0000
,  // measure 42
0020
0000
0030
0000
,  // measure 43
0010
0100
0010
0000
,  // measure 44
0200
0000
0300
0000
,  // measure 45
0001
1000
0001
0000
,  // measure 46
2000
0000
3000
0000
,  // measure 47
1000
0001
1000
0000
,  // measure 48
0002
0000
0003
0001
;

//---------------dance-single - Chewi----------------
#NOTES:
     dance-single:
     Chewi:
     Hard:
     9:
     0.277,0.317,0.041,0.286,0.066: // measure 1
0000
0000
0000
0000
,  // measure 2
0000
0000
0000
0000
,  // measure 3
0000
0000
0000
0000
,  // measure 4
0000
0000
0000
0000
,  // measure 5
1000
2000
0000
0000
0000
0000
0000
0000
,  // measure 6
3001
0000
1000
0001
0000
1000
0001
0000
1000
0001
0000
0000
0010
0000
0100
0000
,  // measure 7
0010
0020
0000
0000
0000
0000
0030
0000
,  // measure 8
0100
0010
0000
0000
0010
0100
0000
0000
0100
0010
0000
0000
0010
0100
0000
0000
,  // measure 9
0000
0001
0010
0001
0010
0100
1000
0100
,  // measure 10
0000
0100
1000
0000
0000
0000
0000
0000
,  // measure 11
1000
0000
0001
0000
0100
0010
0000
0100
,  // measure 12
0000
0100
0000
0010
0000
0010
1000
0010
,  // measure 13
2000
0000
0000
0000
3000
0100
0010
0200
,  // measure 14
0000
0000
0000
0000
0300
0000
0010
0002
,  // measure 15
0000
0000
0000
0000
0003
0000
0100
0020
,  // measure 16
0000
0000
0030
0000
,  // measure 17
0000
1000
0100
1000
0100
0010
0001
0010
,  // measure 18
0000
0010
0001
0000
0000
0000
0000
0000
,  // measure 19
0001
0000
1000
0000
0010
0100
0000
0010
,  // measure 20
0000
0010
0000
0100
0000
0100
0001
0100
,  // measure 21
0002
0000
0000
0000
0003
0010
0100
0020
,  // measure 22
0000
0000
0000
0000
0030
0000
0100
2000
,  // measure 23
0000
0000
0000
0000
3000
1000
0010
0200
,  // measure 24
0000
0000
0000
0300
,  // measure 25
0000
1000
0100
0001
,  // measure 26
0010
1000
0100
0001
0000
0001
0100
0000
,  // measure 27
0000
0001
0100
1000
,  // measure 28
0010
0001
0100
1000
0000
1000
0010
0000
,  // measure 29
0000
0001
0010
1000
,  // measure 30
0100
0001
0010
1000
0000
1000
0010
0000
,  // measure 31
0000
1010
1010
0011
,  // measure 32
0011
0000
0000
0000
,  // measure 33
0002
0023
0230
0300
,  // measure 34
1000
0000
0000
1000
0000
0000
1000
0000
0000
0000
0000
0000
0000
0000
0000
0000
,  // measure 35
0200
0000
0320
0000
0032
0000
1003
0100
,  // measure 36
1000
0000
0000
0001
0000
0000
1000
0000
0000
0000
0000
0000
0000
0000
0000
0000
,  // measure 37
2000
3200
0320
0030
,  // measure 38
0001
0000
0000
0001
0000
0000
0001
0000
0000
0000
0000
0000
0000
0000
0000
0000
,  // measure 39
0010
1000
0100
0001
,  // measure 40
0010
0000
0000
0000
,  // measure 41
2000
3200
0320
0030
,  // measure 42
0001
0000
0000
0001
0000
0000
0001
0000
0000
0000
0000
0000
0000
0000
0000
0000
,  // measure 43
0020
0000
0230
0000
2300
0000
3001
0010
,  // measure 44
0001
0000
0000
1000
0000
0000
0001
0000
0000
0000
0000
0000
0000
0000
0000
0000
,  // measure 45
0002
0023
0230
0300
,  // measure 46
1000
0000
0000
1000
0000
0000
1000
0000
0000
0000
0000
0000
0000
0000
0000
0000
,  // measure 47
0100
0001
0010
1000
,  // measure 48
0100
0000
0000
0100
;

//---------------dance-single - Chewi----------------
#NOTES:
     dance-single:
     Chewi:
     Medium:
     6:
     0.239,0.292,0.143,0.061,0.000: // measure 1
0000
0000
0000
0000
,  // measure 2
0000
0000
0000
0000
,  // measure 3
0000
0000
0000
0000
,  // measure 4
0000
0000
0000
0000
,  // measure 5
1000
0001
0000
0000
0000
0000
0000
0000
,  // measure 6
0001
0101
1000
1100
,  // measure 7
0100
0010
0000
0000
0000
0000
0000
0000
,  // measure 8
0001
0011
1000
1010
,  // measure 9
0001
0010
0100
1000
,  // measure 10
0001
0100
0000
0000
,  // measure 11
0010
1000
0001
0100
,  // measure 12
0010
1000
0000
0000
,  // measure 13
1001
1000
0100
0010
,  // measure 14
1001
0001
0100
0010
,  // measure 15
1001
1000
0010
0100
,  // measure 16
1001
0001
0010
0100
,  // measure 17
0001
0010
0100
1000
,  // measure 18
0001
0010
0000
0000
,  // measure 19
0001
0010
0100
1000
,  // measure 20
0010
0100
0000
0000
,  // measure 21
1001
0100
1000
0001
,  // measure 22
1001
0100
0001
1000
,  // measure 23
1001
0010
1000
0001
,  // measure 24
1001
0010
0001
1000
,  // measure 25
1000
0100
0001
0010
,  // measure 26
1000
0100
1000
0100
,  // measure 27
1000
0010
0001
0100
,  // measure 28
1000
0010
1000
0010
,  // measure 29
0100
0001
1000
0010
,  // measure 30
0100
0001
1000
0010
,  // measure 31
0100
0100
0010
0010
,  // measure 32
2002
0000
0000
3003
,  // measure 33
0001
1000
0001
0000
,  // measure 34
2000
0000
0000
3001
0000
0000
0000
0000
,  // measure 35
0001
0010
0100
1000
,  // measure 36
0001
0010
0100
1000
,  // measure 37
0001
1000
0001
0000
,  // measure 38
2000
0000
0000
3001
0000
0000
0000
0000
,  // measure 39
1000
0001
0100
0010
,  // measure 40
0100
0000
0000
0000
,  // measure 41
0010
1000
0010
0000
,  // measure 42
2000
0000
0000
3010
0000
0000
0000
0000
,  // measure 43
1000
0100
0010
0001
,  // measure 44
1000
0100
0010
0001
,  // measure 45
0100
0001
0100
0000
,  // measure 46
0002
0000
0000
0103
0000
0000
0000
0000
,  // measure 47
0100
0010
1000
0001
,  // measure 48
1000
0000
0000
1001
;

//---------------dance-single - Chewi----------------
#NOTES:
     dance-single:
     Chewi:
     Beginner:
     1:
     0.070,0.096,0.000,0.041,0.000: // measure 1
0000
0000
0000
0000
,  // measure 2
0000
0000
0000
0000
,  // measure 3
0000
0000
0000
0000
,  // measure 4
0000
0000
0000
0000
,  // measure 5
0200
0000
0000
0300
,  // measure 6
0100
0000
0000
0000
,  // measure 7
0020
0000
0000
0030
,  // measure 8
0010
0000
0000
0000
,  // measure 9
0010
0000
0000
0000
,  // measure 10
0010
0000
0000
0000
,  // measure 11
0010
0000
0000
0000
,  // measure 12
1000
0000
0000
0000
,  // measure 13
1000
0000
0000
0000
,  // measure 14
0010
0000
0000
0000
,  // measure 15
0100
0000
0000
0000
,  // measure 16
0010
0000
0000
0000
,  // measure 17
0100
0000
0000
0000
,  // measure 18
1000
0000
0000
0000
,  // measure 19
0001
0000
0000
0000
,  // measure 20
1000
0000
0000
0000
,  // measure 21
1000
0000
0000
0000
,  // measure 22
0010
0000
0000
0000
,  // measure 23
0001
0000
0000
0000
,  // measure 24
1000
0000
0000
0000
,  // measure 25
0020
0000
0000
0030
,  // measure 26
0010
0000
0000
0000
,  // measure 27
0200
0000
0000
0300
,  // measure 28
0100
0000
0000
0000
,  // measure 29
0001
0000
0000
0000
,  // measure 30
0010
0000
0000
0000
,  // measure 31
0100
0000
0000
0000
,  // measure 32
1000
0000
0000
0000
,  // measure 33
0010
0000
0000
0000
,  // measure 34
0100
0000
0000
0000
,  // measure 35
0010
0000
0000
0000
,  // measure 36
0010
0000
0000
0000
,  // measure 37
0001
0000
0000
0000
,  // measure 38
0010
0000
0000
0000
,  // measure 39
1000
0000
0000
0000
,  // measure 40
1000
0000
0000
0000
,  // measure 41
0100
0000
0000
0000
,  // measure 42
0100
0000
0000
0000
,  // measure 43
0010
0000
0000
0000
,  // measure 44
0100
0000
0000
0000
,  // measure 45
1000
0000
0000
0000
,  // measure 46
1000
0000
0000
0000
,  // measure 47
0001
0000
0000
0000
,  // measure 48
1000
0000
0000
0000
;
