#TITLE:hit 'em up style (oops!);
#SUBTITLE:;
#ARTIST:blu cantrell;
#TITLETRANSLIT:;
#SUBTITLETRANSLIT:;
#ARTISTTRANSLIT:;
#GENRE:;
#CREDIT:chewi;
#BANNER:hit 'em up style (oops!).png;
#BACKGROUND:hit 'em up style (oops!)-bg.png;
#LYRICSPATH:;
#CDTITLE:cdtitle.png;
#MUSIC:hit 'em up style (oops!).ogg;
#OFFSET:0.000000;
#SAMPLESTART:47.667000;
#SAMPLELENGTH:12.000000;
#SELECTABLE:YES;
#BPMS:0.000000=90.000000
;
#STOPS:
;
#BGCHANGES:0.000=hit 'em up style (oops!).avi=1.000=1=0=1===CrossFade==,
124.000=hit 'em up style (oops!)-bg.png=1.000=1=0=1===CrossFade==,
99999=-nosongbg-=1.000=0=0=0 // don't automatically add -songbackground-
;
#KEYSOUNDS:;
#ATTACKS:;

//---------------dance-single - ----------------
#NOTES:
     dance-single:
     :
     Hard:
     8:
     0.281198,0.295258,0.117166,0.000000,0.005858,168.000000,158.000000,10.000000,0.000000,0.000000,0.000000,0.281198,0.295258,0.117166,0.000000,0.005858,168.000000,158.000000,10.000000,0.000000,0.000000,0.000000:
// measure 0
0000
0000
0000
0000
,  // measure 1
0000
0000
0000
0000
,  // measure 2
1000
0000
0100
0000
0001
0010
1000
0000
,  // measure 3
0100
0000
1000
0000
0010
0001
0100
0000
,  // measure 4
1000
0000
0010
0000
0001
0100
1000
0000
,  // measure 5
0001
0100
1000
0000
1000
0100
0001
0100
,  // measure 6
0001
0000
0000
0000
0001
0010
0100
1000
,  // measure 7
1000
0000
0000
0000
1000
0010
0100
0001
,  // measure 8
0001
0000
0000
0000
1000
0001
0100
0010
,  // measure 9
0010
0100
0001
1000
0001
0000
1000
0000
,  // measure 10
0101
0000
0000
0000
1000
1000
1000
0000
,  // measure 11
1100
0000
0000
0000
0100
0100
0100
0000
,  // measure 12
0011
0000
0000
0000
0001
0001
0001
0000
,  // measure 13
0001
0100
1000
0010
,  // measure 14
1010
0000
0000
0000
0001
0001
0001
0000
,  // measure 15
0011
0000
0000
0000
0010
0010
0010
0000
,  // measure 16
1100
0000
0000
0000
1000
1000
1000
0000
,  // measure 17
1000
0100
0001
0010
,  // measure 18
1000
0001
1000
0000
0010
0001
0101
0000
,  // measure 19
1000
0001
1000
0000
0010
1000
1100
0000
,  // measure 20
0100
1000
0001
0010
0001
0100
0010
0100
,  // measure 21
0001
0100
1000
0010
,  // measure 22
0001
1000
0001
0000
0100
1000
1010
0000
,  // measure 23
0001
1000
0001
0000
0100
0001
0011
0000
,  // measure 24
0010
0001
1000
0100
1000
0010
0100
0010
,  // measure 25
1000
0010
0001
0100
,  // measure 26
0001
0100
0010
1000
0001
0100
1000
0001
,  // measure 27
0100
1000
0100
0010
,  // measure 28
0100
1000
0001
0010
0100
1000
0010
0100
,  // measure 29
0001
0001
0001
0000
1000
1000
1000
0000
,  // measure 30
0100
0000
0000
0000
0100
0000
0000
0100
0100
0000
0000
0000
0100
0000
0000
0000
,  // measure 31
0010
0010
0010
0000
0010
0000
0000
0000
;

//---------------dance-single - ----------------
#NOTES:
     dance-single:
     :
     Medium:
     6:
     0.215920,0.239897,0.117166,0.000000,0.000000,129.000000,119.000000,10.000000,0.000000,0.000000,0.000000,0.215920,0.239897,0.117166,0.000000,0.000000,129.000000,119.000000,10.000000,0.000000,0.000000,0.000000:
// measure 0
0000
0000
0000
0000
,  // measure 1
0000
0000
0000
0000
,  // measure 2
1000
0100
1000
0001
,  // measure 3
1000
0000
0010
0000
0100
0001
0100
0000
,  // measure 4
0001
0100
0001
0010
,  // measure 5
0001
0000
0010
0000
0001
0010
0001
0000
,  // measure 6
0001
0010
0001
1000
,  // measure 7
0001
0000
0100
0000
0010
1000
0010
0000
,  // measure 8
1000
0010
1000
0100
,  // measure 9
1000
0000
0100
0000
1000
0100
1000
0000
,  // measure 10
1100
0000
0100
0010
,  // measure 11
0110
0000
0010
0001
,  // measure 12
0011
0000
0001
1000
,  // measure 13
0001
0001
0010
0010
,  // measure 14
0011
0000
0010
0100
,  // measure 15
0110
0000
0100
1000
,  // measure 16
1100
0000
1000
0001
,  // measure 17
1000
1000
0010
0010
,  // measure 18
0010
1000
0010
0001
,  // measure 19
1000
0000
0101
0000
0001
1000
0100
0000
,  // measure 20
1000
0000
1100
0000
1000
1000
1000
0000
,  // measure 21
0001
0001
0001
0001
,  // measure 22
0010
1000
0010
0001
,  // measure 23
1000
0000
0101
0000
0001
1000
0100
0000
,  // measure 24
1000
0000
1100
0000
1000
1000
1000
0000
,  // measure 25
0001
0001
0001
0001
,  // measure 26
0001
0010
0001
0100
,  // measure 27
0100
0010
1000
0001
,  // measure 28
1000
0010
0100
0010
,  // measure 29
0100
0001
1000
0000
,  // measure 30
0100
0100
0100
0000
,  // measure 31
0010
0010
0010
0000
;

//---------------dance-single - ----------------
#NOTES:
     dance-single:
     :
     Easy:
     3:
     0.150642,0.166083,0.093733,0.000000,0.000000,90.000000,82.000000,8.000000,0.000000,0.000000,0.000000,0.150642,0.166083,0.093733,0.000000,0.000000,90.000000,82.000000,8.000000,0.000000,0.000000,0.000000:
// measure 0
0000
0000
0000
0000
,  // measure 1
0000
0000
0000
0000
,  // measure 2
1001
0000
1000
0100
,  // measure 3
1000
0000
0100
0010
,  // measure 4
0100
0000
0010
0001
,  // measure 5
0010
0000
0001
0100
,  // measure 6
0001
0000
1000
0001
,  // measure 7
1000
0000
0100
0010
,  // measure 8
0100
0000
0010
0100
,  // measure 9
0010
0000
0001
0001
,  // measure 10
1001
0000
0000
0000
,  // measure 11
0110
0000
0000
0000
,  // measure 12
1001
0000
0000
0000
,  // measure 13
0110
0000
0000
0000
,  // measure 14
0110
0000
0000
0000
,  // measure 15
1001
0000
0000
0000
,  // measure 16
0110
0000
0000
0000
,  // measure 17
1000
0000
0001
0000
,  // measure 18
1000
1000
0001
0001
,  // measure 19
1000
0001
0100
0000
,  // measure 20
0001
0001
1000
1000
,  // measure 21
0001
0010
0100
0000
,  // measure 22
0100
0010
0100
0100
,  // measure 23
0010
0100
0010
0000
,  // measure 24
0001
0100
1000
0100
,  // measure 25
0001
1000
0001
1000
,  // measure 26
0001
0001
1000
1000
,  // measure 27
0001
1000
0010
0000
,  // measure 28
1000
1000
0001
0001
,  // measure 29
1000
0100
0010
0000
,  // measure 30
0010
0100
0010
0000
,  // measure 31
0100
0010
0100
0000
;

//---------------dance-single - ----------------
#NOTES:
     dance-single:
     :
     Beginner:
     1:
     0.068626,0.108964,0.082016,0.046866,0.000000,41.000000,34.000000,7.000000,4.000000,0.000000,0.000000,0.068626,0.108964,0.082016,0.046866,0.000000,41.000000,34.000000,7.000000,4.000000,0.000000,0.000000:
// measure 0
0000
0000
0000
0000
,  // measure 1
0000
0000
0000
0000
,  // measure 2
1000
0000
0000
0000
,  // measure 3
0001
0000
0000
0000
,  // measure 4
0100
0000
0000
0000
,  // measure 5
0010
0000
0000
0000
,  // measure 6
0010
0000
0000
0000
,  // measure 7
1000
0000
0000
0000
,  // measure 8
0100
0000
0000
0000
,  // measure 9
0010
0000
0001
0000
,  // measure 10
1001
0000
0000
0000
,  // measure 11
0110
0000
0000
0000
,  // measure 12
1001
0000
0000
0000
,  // measure 13
0110
0000
0000
0000
,  // measure 14
0110
0000
0000
0000
,  // measure 15
1001
0000
0000
0000
,  // measure 16
0110
0000
0000
0000
,  // measure 17
1000
0000
0000
0000
,  // measure 18
0002
0000
0000
0003
,  // measure 19
0001
0000
0000
0000
,  // measure 20
0200
0000
0000
0300
,  // measure 21
0100
0000
0000
0000
,  // measure 22
0020
0000
0000
0030
,  // measure 23
0010
0000
0000
0000
,  // measure 24
2000
0000
0000
3000
,  // measure 25
1000
1000
1000
1000
,  // measure 26
1000
0000
0000
0000
,  // measure 27
0010
0000
0000
0000
,  // measure 28
0001
0000
0000
0000
,  // measure 29
0100
0000
0000
0000
,  // measure 30
1000
0000
0000
0000
,  // measure 31
0010
0000
0000
0000
;
