#TITLE:galaxias!;
#SUBTITLE:;
#ARTIST:galaxias!;
#TITLETRANSLIT:;
#SUBTITLETRANSLIT:;
#ARTISTTRANSLIT:;
#CREDIT:Chewi☆;
#BANNER:galaxias!.png;
#BACKGROUND:galaxias!-bg.png;
#LYRICSPATH:;
#CDTITLE:;
#MUSIC:galaxias!.mp3;
#OFFSET:-0.525;
#SAMPLESTART:39.544;
#SAMPLELENGTH:15.000;
#SELECTABLE:YES;
#BPMS:0.000=123.000,112.000=61.500,129.000=123.000;
#STOPS:;
#BGCHANGES:;

//---------------dance-single - Chewi----------------
#NOTES:
     dance-single:
     Chewi:
     Beginner:
     1:
     0.094,0.116,0.000,0.035,0.000:
0000
0000
0000
0000
,
0000
0000
0000
0000
,
0000
0000
0000
0000
,
0000
0000
0000
0000
,
1000
0000
0000
0000
,
0001
0000
0000
0000
,
0100
0000
0000
0000
,
0010
0000
0000
0000
,
2000
0000
0000
3000
,
1000
0000
0000
0000
,
0002
0000
0000
0003
,
0001
0000
0000
0000
,
0020
0000
0000
0030
,
0010
0000
0000
0000
,
0200
0000
0000
0300
,
0100
0000
0000
0000
,
1000
0000
0001
0000
,
0001
0000
1000
0000
,
1000
0000
0001
0000
,
0001
0000
1000
0000
,
1000
1000
1000
0000
,
1000
0000
0000
0000
,
0001
0001
0001
0000
,
0001
0000
0000
0000
,
0010
0010
0010
0000
,
0010
0000
0000
0000
,
0100
0100
0100
0000
,
0100
0000
0000
0000
,
1000
0000
0000
0000
,
0001
0000
0000
0000
,
1000
0000
0000
0000
,
0001
0000
0000
0000
,
0000
0010
0000
0000
,
0000
0100
0000
0000
,
0000
0001
0000
0000
,
0000
1000
0000
0000
,
0000
1000
0000
0000
,
0000
1000
1000
1000
,
0000
1000
0000
0000
,
0000
0010
0010
0010
,
0000
0010
0000
0000
,
0000
0100
0100
0100
,
0000
0100
0000
0000
,
0000
0001
0001
0001
,
0000
0001
0000
0001
,
0000
0001
0000
0000
,
0000
0010
0000
0000
,
0000
0100
0000
0000
,
0000
1000
0000
0000
,
0000
0100
0000
0000
,
0000
0010
0000
0000
,
0000
0001
0000
0000
,
0000
1000
0000
0000
,
1000
0000
0000
0000
;

//---------------dance-single - Chewi----------------
#NOTES:
     dance-single:
     Chewi:
     Easy:
     4:
     0.170,0.232,0.035,0.035,0.000: // measure 1
0000
0000
0000
0000
,  // measure 2
0000
0000
0000
0000
,  // measure 3
0000
0000
0000
0000
,  // measure 4
0000
0000
0000
0000
,  // measure 5
1000
0000
1000
0000
,  // measure 6
0001
0000
0001
0000
,  // measure 7
0100
0000
0100
0000
,  // measure 8
0010
0000
0010
0000
,  // measure 9
2000
0000
0000
3000
,  // measure 10
1000
0001
1000
0000
,  // measure 11
0002
0000
0000
0003
,  // measure 12
0001
1000
0001
0000
,  // measure 13
0020
0000
0000
0030
,  // measure 14
0010
0100
0010
0000
,  // measure 15
0200
0000
0000
0300
,  // measure 16
0100
0010
0100
0000
,  // measure 17
1000
0100
0001
0000
,  // measure 18
0001
0010
1000
0000
,  // measure 19
1000
0100
0001
0000
,  // measure 20
0001
0010
1000
0000
,  // measure 21
1000
0100
1000
0100
,  // measure 22
1000
0000
0001
0000
,  // measure 23
0001
0010
0001
0010
,  // measure 24
0001
0000
1000
0000
,  // measure 25
0010
0100
0010
0100
,  // measure 26
0010
0000
0100
0000
,  // measure 27
0001
0100
0001
0100
,  // measure 28
0001
0000
0000
0000
,  // measure 29
1001
0000
0100
0100
,  // measure 30
0110
0000
0010
0010
,  // measure 31
0110
0000
1000
1000
,  // measure 32
1001
0000
0001
1000
,  // measure 33
0000
0010
0000
0010
,  // measure 34
0000
0100
0000
0100
,  // measure 35
0000
0001
0000
0001
,  // measure 36
0000
1000
0000
1000
,  // measure 37
0000
1000
1000
0001
,  // measure 38
0001
1000
0100
1000
,  // measure 39
0100
1000
0000
0010
,  // measure 40
0000
1000
0010
1000
,  // measure 41
0010
1000
0000
0001
,  // measure 42
0000
0100
0001
0100
,  // measure 43
0001
0100
0000
0100
,  // measure 44
0000
0001
0010
0001
,  // measure 45
0010
0001
0000
0001
,  // measure 46
0000
0010
0000
0010
,  // measure 47
0000
0010
0010
0010
,  // measure 48
0000
0100
0000
0100
,  // measure 49
0000
0100
0100
0100
,  // measure 50
0000
1000
0000
1000
,  // measure 51
0000
1000
1000
1000
,  // measure 52
0000
0001
0000
0001
,  // measure 53
0000
0001
0001
0001
,  // measure 54
0001
0000
0000
0000
;

//---------------dance-single - Chewi----------------
#NOTES:
     dance-single:
     Chewi:
     Medium:
     7:
     0.283,0.349,0.289,0.096,0.018: // measure 1
0000
0000
0000
0000
,  // measure 2
0000
0000
0000
0000
,  // measure 3
0000
0000
0000
0000
,  // measure 4
0000
0000
0000
0000
,  // measure 5
2000
3100
0001
0011
,  // measure 6
0002
0103
1000
1010
,  // measure 7
0020
0130
0001
1001
,  // measure 8
0020
0130
1000
1001
,  // measure 9
1000
0000
0001
0000
,  // measure 10
1000
0100
0001
0010
,  // measure 11
1000
0000
0100
0000
,  // measure 12
0010
0100
1000
0001
,  // measure 13
1001
0000
0100
0010
,  // measure 14
0000
0000
1000
0010
,  // measure 15
0100
0000
0001
0010
,  // measure 16
0000
0100
1000
1001
,  // measure 17
1000
0001
0010
0000
0001
1000
0100
0000
,  // measure 18
2000
3002
0023
0130
,  // measure 19
1000
0001
0010
0000
0001
1000
0010
0000
,  // measure 20
0100
0000
0000
0000
0010
0000
0100
0010
,  // measure 21
1000
1100
0100
1100
,  // measure 22
0001
0010
0100
1000
,  // measure 23
0001
0011
0010
0011
,  // measure 24
0010
0100
1000
0001
,  // measure 25
0100
0110
0010
0110
,  // measure 26
0010
1000
0010
0100
,  // measure 27
0001
1001
1000
1001
,  // measure 28
0220
0000
0330
0000
,  // measure 29
0010
0000
0000
0010
0100
0000
0000
0000
0010
0000
1000
0000
1001
0000
0000
0000
,  // measure 30
1000
0000
0000
0001
1000
0000
0000
0000
0100
0000
0010
0000
0011
0000
0000
0000
,  // measure 31
0001
0000
0000
0001
0010
0000
0000
0000
0100
0000
1000
0000
1100
0000
0000
0000
,  // measure 32
1000
0000
0000
1000
0010
0000
0000
0000
1010
0000
0000
0000
0101
0000
0000
0000
,  // measure 33
0000
0010
0010
0100
,  // measure 34
0100
1000
0100
0001
,  // measure 35
0000
0001
0001
1000
,  // measure 36
1000
0010
0100
0001
,  // measure 37
0000
1000
0100
0010
,  // measure 38
0001
0001
0011
0010
,  // measure 39
0011
1000
0100
0010
,  // measure 40
0001
1000
1100
0100
,  // measure 41
1100
0100
0010
0001
,  // measure 42
1000
0010
0110
0100
,  // measure 43
0110
0100
0001
0100
,  // measure 44
0010
1000
1001
0001
,  // measure 45
1001
0220
0000
0330
,  // measure 46
0000
1000
0010
0100
,  // measure 47
0010
1000
0010
0000
0000
0000
0000
0000
,  // measure 48
0000
0000
0001
0101
,  // measure 49
1000
1100
0000
0000
,  // measure 50
0000
1000
0010
0100
,  // measure 51
0010
0100
0001
0000
0000
0000
0000
0000
,  // measure 52
0000
0000
1000
1100
,  // measure 53
0001
0101
1000
0001
,  // measure 54
1000
0001
0000
0000
0000
0000
0000
0000
;

//---------------dance-single - Chewi----------------
#NOTES:
     dance-single:
     Chewi:
     Hard:
     10:
     0.395,0.558,0.166,0.306,0.153: // measure 1
0000
0000
0000
0000
,  // measure 2
0000
0000
0000
0000
,  // measure 3
0000
0000
0000
0000
,  // measure 4
0000
0000
0000
0000
,  // measure 5
1000
0010
0001
0100
,  // measure 6
1000
0000
0010
0000
0001
0000
1000
0100
,  // measure 7
0001
0100
1000
0010
,  // measure 8
0001
0000
0100
0000
1000
0100
0001
0000
,  // measure 9
0010
0000
0000
0100
0020
0000
0002
0000
,  // measure 10
0033
0000
0000
0010
0100
1000
0010
0000
,  // measure 11
0100
0000
0000
0010
2000
0000
0200
0000
,  // measure 12
3300
0010
0001
0100
0010
0100
0001
0000
,  // measure 13
0100
0000
0000
0001
0200
0000
0020
0000
,  // measure 14
0330
0000
0000
1000
0001
0100
0001
0000
,  // measure 15
0100
0000
0000
0010
2000
0000
0020
0000
,  // measure 16
3030
0000
1000
0000
0100
0000
0010
0000
0001
0000
1000
0100
1000
0100
0000
0000
,  // measure 17
0102
0103
2010
3010
,  // measure 18
2100
3010
0012
0103
,  // measure 19
0002
2003
3020
0230
,  // measure 20
0301
0000
0010
0000
0100
0000
1000
0000
0001
0000
0000
0000
1000
0000
0001
1000
,  // measure 21
0001
0000
0000
0000
0001
0000
0000
0001
0000
0000
0000
0000
1000
0000
0000
1000
,  // measure 22
0000
0000
0010
0100
0001
0010
0100
1000
,  // measure 23
0010
0000
0000
0000
0100
0000
0000
0100
0000
0000
0000
0000
0010
0000
0000
0010
,  // measure 24
0000
0000
1000
0010
0100
0010
1000
0100
,  // measure 25
0010
0000
0000
0000
0001
0000
0000
0001
0000
0000
0000
0000
0010
0000
0000
0010
,  // measure 26
0000
0000
0001
0010
0100
1000
0010
0100
,  // measure 27
0001
0011
1100
0011
,  // measure 28
2200
0000
3300
0000
,  // measure 29
1001
0000
0000
0000
0000
0000
1000
0000
0001
0000
0000
0000
0000
0000
0100
0000
0010
0000
0000
0100
0000
0000
0010
0000
1000
0000
0000
1000
0000
0000
1000
0000
,  // measure 30
1001
0000
0000
0000
0000
0000
0001
0000
0100
0000
0000
0000
0000
0000
0010
0000
1000
0000
0000
0100
0000
0000
1000
0000
0100
0000
0000
0100
0000
0000
0100
0000
,  // measure 31
0110
0000
0000
0000
0000
0000
0010
0000
0001
0000
0000
0000
0000
0000
0100
0000
0001
0000
0000
0010
0000
0000
0001
0000
0001
0000
0000
0001
0000
0000
0001
0000
,  // measure 32
1001
0000
0000
0010
0100
0000
0000
0100
0010
0000
1000
0000
2002
0000
0000
0000
,  // measure 33
0000
3003
0010
0000
1000
0000
0010
0000
,  // measure 34
1100
0000
1000
0001
0100
0000
0001
1000
,  // measure 35
0010
0100
0010
0100
,  // measure 36
0101
0000
0001
1000
0010
0000
1000
0001
,  // measure 37
0010
0000
1000
0100
1000
0100
0010
0001
,  // measure 38
0010
0000
0001
0000
0001
0000
0000
0000
0001
0000
0000
0001
0000
0000
0000
0000
,  // measure 39
1000
0000
0000
1000
0000
0000
0000
0000
0010
0000
0100
0000
0001
0000
0010
0000
,  // measure 40
0100
0000
1000
0000
0010
0000
0000
0000
0100
0000
0000
0100
0000
0000
0000
0000
,  // measure 41
0010
0000
0000
0010
0000
0000
0000
0000
1000
0000
0010
0000
0100
0000
0010
0000
,  // measure 42
1000
0000
0100
0000
0010
0000
0000
0000
0001
0000
0000
0001
0000
0000
0000
0000
,  // measure 43
0010
0000
0000
0010
0000
0000
0000
0000
0001
0000
0010
0000
0100
0000
1000
0000
,  // measure 44
0010
0100
0001
0000
0011
0000
1100
0000
,  // measure 45
0011
2200
0000
3300
,  // measure 46
0000
0000
1000
0100
0010
0001
0100
0000
,  // measure 47
0010
0100
0002
0000
2003
0000
3200
0000
,  // measure 48
1300
0100
0010
0000
0001
0001
0001
0000
,  // measure 49
1000
1000
2000
0000
3002
0000
0203
0000
,  // measure 50
0320
0000
1030
0100
0010
0001
0100
0000
,  // measure 51
0010
0100
0002
0000
2003
0000
3200
0000
,  // measure 52
1300
0001
1000
0000
1000
1000
1000
0000
,  // measure 53
0001
0001
0002
0000
0023
0000
0230
0000
,  // measure 54
0310
0010
0000
0000
0000
0000
0000
0000
;
