#TITLE:fellow;
#SUBTITLE:;
#ARTIST:ピンクターボ;
#TITLETRANSLIT:;
#SUBTITLETRANSLIT:;
#ARTISTTRANSLIT:PINK TURBO;
#GENRE:;
#CREDIT:Chewi☆;
#MENUCOLOR:#00FF00;
#METERTYPE:DDR X;
#BANNER:fellow.png;
#BACKGROUND:fellow-bg.png;
#LYRICSPATH:;
#CDTITLE:;
#MUSIC:fellow.mp3;
#OFFSET:-2.446;
#SAMPLESTART:90.961;
#SAMPLELENGTH:15.000;
#SELECTABLE:YES;
#LISTSORT:;
#DISPLAYBPM:179.000;
#BPMS:0.000=179.000;
#STOPS:;
#BGCHANGES:;
#ATTACKS:;

//---------------dance-single - Chewi----------------
#NOTES:
     dance-single:
     Chewi:
     Beginner:
     2:
     0.164,0.166,0.000,0.131,0.000: // measure 1
0000
0000
0000
0000
,  // measure 2
0000
0000
0000
0000
,  // measure 3
0000
0000
0000
0000
,  // measure 4
0000
0000
0000
0000
,  // measure 5
1000
0000
0000
0000
,  // measure 6
0001
0000
0000
0000
,  // measure 7
0100
0000
0000
0000
,  // measure 8
0010
0000
0000
0000
,  // measure 9
0010
0000
0010
0000
,  // measure 10
0010
0000
0001
0000
,  // measure 11
0001
0000
0001
0000
,  // measure 12
1000
0000
1000
0000
,  // measure 13
0010
0000
0010
0000
,  // measure 14
0100
0000
0001
0000
,  // measure 15
0010
0000
0010
0000
,  // measure 16
0001
0000
1000
0000
,  // measure 17
2000
0000
0000
3000
,  // measure 18
1000
0000
0000
0000
,  // measure 19
0002
0000
0000
0003
,  // measure 20
0001
0000
0000
0000
,  // measure 21
0010
0000
0100
0000
,  // measure 22
0001
0000
1000
0000
,  // measure 23
0100
0000
0001
0000
,  // measure 24
0010
0000
0100
0000
,  // measure 25
0020
0000
0000
0030
,  // measure 26
0010
0000
0000
0000
,  // measure 27
0200
0000
0000
0300
,  // measure 28
0100
0000
0000
0000
,  // measure 29
0001
0000
0010
0000
,  // measure 30
1000
0000
0100
0000
,  // measure 31
0010
0000
1000
0000
,  // measure 32
0100
0000
0001
0000
,  // measure 33
2000
0000
0000
3000
,  // measure 34
1000
0000
0000
0000
,  // measure 35
0002
0000
0000
0003
,  // measure 36
0001
0000
0000
0000
,  // measure 37
0200
0000
0000
0300
,  // measure 38
0100
0000
0000
0000
,  // measure 39
0020
0000
0000
0030
,  // measure 40
0010
0000
0000
0000
,  // measure 41
0001
0000
0010
0000
,  // measure 42
1000
0000
0100
0000
,  // measure 43
0001
0000
0100
0000
,  // measure 44
1000
0000
0010
0000
,  // measure 45
0001
0000
0010
0000
,  // measure 46
0100
0000
0001
0000
,  // measure 47
1000
0000
0010
0000
,  // measure 48
0100
0000
1000
0000
,  // measure 49
0010
0000
0100
0000
,  // measure 50
0010
0000
0010
0000
,  // measure 51
2000
0000
0000
3000
,  // measure 52
1000
0000
0001
0000
,  // measure 53
0002
0000
0000
0003
,  // measure 54
0001
0000
1000
0000
,  // measure 55
0020
0000
0000
0030
,  // measure 56
0010
0000
0100
0000
,  // measure 57
0200
0000
0000
0300
,  // measure 58
0100
0000
0010
0000
,  // measure 59
0010
0000
0001
0000
,  // measure 60
0001
0000
1000
0000
,  // measure 61
1000
0000
0010
0000
,  // measure 62
1000
0000
0001
0000
,  // measure 63
0010
0000
0100
0000
,  // measure 64
0001
0000
0100
0000
,  // measure 65
0010
0000
0100
0000
,  // measure 66
1000
0000
0010
0000
,  // measure 67
0001
0000
0001
0000
,  // measure 68
0001
0000
0001
0000
,  // measure 69
1000
0000
1000
0000
,  // measure 70
1000
0000
1000
0000
,  // measure 71
0010
0000
0010
0000
,  // measure 72
0010
0000
0010
0000
,  // measure 73
0001
0000
0001
0000
,  // measure 74
0001
0000
0001
0000
,  // measure 75
0002
0000
0000
0003
,  // measure 76
0001
0000
0000
0000
,  // measure 77
0020
0000
0000
0030
,  // measure 78
0010
0000
0000
0000
,  // measure 79
2000
0000
0000
3000
,  // measure 80
1000
0000
0000
0000
,  // measure 81
0020
0000
0000
0030
,  // measure 82
0010
0000
0000
0000
;

//---------------dance-single - Chewi----------------
#NOTES:
     dance-single:
     Chewi:
     Easy:
     4:
     0.229,0.299,0.000,0.164,0.000: // measure 1
0000
0000
0000
0000
,  // measure 2
0000
0000
0000
0000
,  // measure 3
0000
0000
0000
0000
,  // measure 4
0000
0000
0000
0000
,  // measure 5
2000
0000
0000
3000
,  // measure 6
0002
0000
0000
0003
,  // measure 7
0200
0000
0000
0300
,  // measure 8
0020
0000
0000
0030
,  // measure 9
0010
0000
0010
0000
,  // measure 10
0010
0100
0001
1000
,  // measure 11
0001
0000
0001
0000
,  // measure 12
1000
0001
1000
0100
,  // measure 13
0010
0000
0010
0000
,  // measure 14
0100
0010
0001
1000
,  // measure 15
0010
0000
0010
0000
,  // measure 16
0001
0010
1000
0010
,  // measure 17
2000
0000
0000
0000
,  // measure 18
0000
0000
0000
3000
,  // measure 19
0002
0000
0000
0000
,  // measure 20
0000
0000
0000
0003
,  // measure 21
0010
0000
0100
0000
,  // measure 22
0001
0000
1000
0000
,  // measure 23
0100
0000
0001
0000
,  // measure 24
0010
0000
0100
0000
,  // measure 25
0020
0000
0000
0000
,  // measure 26
0000
0000
0000
0030
,  // measure 27
0200
0000
0000
0000
,  // measure 28
0000
0000
0000
0300
,  // measure 29
0001
0000
0010
0000
,  // measure 30
1000
0000
0100
0000
,  // measure 31
0010
0000
1000
0000
,  // measure 32
0100
0000
0001
0000
,  // measure 33
2000
0000
0000
3000
,  // measure 34
1000
0001
1000
0000
,  // measure 35
0002
0000
0000
0003
,  // measure 36
0001
1000
0001
0000
,  // measure 37
0200
0000
0000
0300
,  // measure 38
0010
0100
0010
0000
,  // measure 39
0020
0000
0000
0030
,  // measure 40
0100
0010
0100
0000
,  // measure 41
0001
0000
0010
0000
,  // measure 42
1000
0000
0100
0000
,  // measure 43
0001
0000
0100
0000
,  // measure 44
1000
0000
0010
0000
,  // measure 45
0001
0000
0010
0000
,  // measure 46
0100
0000
0001
0000
,  // measure 47
1000
0000
0010
0000
,  // measure 48
0100
0000
1000
0000
,  // measure 49
0010
0000
0100
0000
,  // measure 50
0010
0100
0010
0100
,  // measure 51
2000
0000
3001
0000
,  // measure 52
0001
0001
0001
0000
,  // measure 53
0002
0000
1003
0000
,  // measure 54
1000
1000
1000
0000
,  // measure 55
0020
0000
0130
0000
,  // measure 56
0100
0100
0100
0000
,  // measure 57
0200
0000
0310
0000
,  // measure 58
0010
0010
0010
0000
,  // measure 59
0010
0000
0001
0000
,  // measure 60
0001
0100
1000
0000
,  // measure 61
1000
0000
0010
0000
,  // measure 62
1000
0010
0001
0000
,  // measure 63
0010
0000
0100
0000
,  // measure 64
0001
1000
0100
0000
,  // measure 65
0010
0000
0100
0000
,  // measure 66
1000
0001
0010
0000
,  // measure 67
0001
0001
0001
0001
,  // measure 68
0001
0001
0001
0001
,  // measure 69
1000
1000
1000
1000
,  // measure 70
1000
1000
1000
1000
,  // measure 71
0010
0100
0010
0100
,  // measure 72
0010
0100
0010
0100
,  // measure 73
0001
1000
0001
1000
,  // measure 74
0001
1000
0001
1000
,  // measure 75
0002
0000
0000
0003
,  // measure 76
2000
0000
0000
3000
,  // measure 77
0020
0000
0000
0030
,  // measure 78
0200
0000
0000
0300
,  // measure 79
0001
0001
0001
0001
,  // measure 80
0100
0100
0100
0100
,  // measure 81
1000
1000
1000
1000
,  // measure 82
0010
0000
0000
0000
;

//---------------dance-single - Chewi----------------
#NOTES:
     dance-single:
     Chewi:
     Medium:
     8:
     0.372,0.365,0.049,0.000,0.000: // measure 1
0000
0000
0000
0000
,  // measure 2
0000
0000
0000
0000
,  // measure 3
0000
0000
0000
0000
,  // measure 4
0000
0000
0000
0000
,  // measure 5
1000
0000
1000
0000
0001
1000
0001
0000
,  // measure 6
1000
1000
0001
0001
,  // measure 7
1000
0000
1000
0000
0001
1000
0001
0000
,  // measure 8
0001
0001
1000
1000
,  // measure 9
0010
0001
0100
1000
,  // measure 10
0010
0001
0100
1000
,  // measure 11
1000
0100
0001
0010
,  // measure 12
1000
0100
0001
0010
,  // measure 13
1000
0001
0100
0010
,  // measure 14
1000
0100
0010
0001
,  // measure 15
1000
0001
0100
0010
,  // measure 16
0001
0010
0100
1000
,  // measure 17
0010
0000
0100
0000
0010
0100
0010
0000
,  // measure 18
0100
1000
0100
1000
,  // measure 19
0010
0000
0100
0000
0010
0100
0010
0000
,  // measure 20
0001
0010
0100
1000
,  // measure 21
0001
0100
1000
0100
,  // measure 22
0001
0010
1000
0010
,  // measure 23
0001
0010
0100
0001
,  // measure 24
0010
0100
1000
0001
,  // measure 25
1000
0000
0100
0000
0001
0100
0001
0000
,  // measure 26
0100
0010
1000
0001
,  // measure 27
1000
0000
0010
0000
0001
0010
0001
0000
,  // measure 28
0010
0100
1000
0001
,  // measure 29
0100
0010
1000
0001
,  // measure 30
0010
0100
1000
0001
,  // measure 31
1000
0100
0001
0100
,  // measure 32
1000
0010
0001
0010
,  // measure 33
0100
0100
0100
0100
,  // measure 34
0010
0010
0010
0010
,  // measure 35
0001
0010
0100
1000
,  // measure 36
1000
0010
0100
0001
,  // measure 37
0001
0100
1000
0100
,  // measure 38
0001
0010
1000
0010
,  // measure 39
0001
0010
0100
1000
,  // measure 40
0001
0100
1000
0100
,  // measure 41
1000
1000
0100
0100
,  // measure 42
0010
0001
0100
0010
,  // measure 43
0100
0100
0010
0010
,  // measure 44
1000
0001
0010
0100
,  // measure 45
1000
0100
0001
0100
,  // measure 46
0010
0100
0010
0001
,  // measure 47
0010
1010
0100
0001
,  // measure 48
0010
0110
0010
0001
,  // measure 49
1000
1000
0001
0001
,  // measure 50
0100
0010
0100
0000
0010
0100
0010
0000
,  // measure 51
1000
0010
0100
0001
,  // measure 52
1000
0000
0001
1000
0000
0000
0000
0000
,  // measure 53
0001
0010
0100
1000
,  // measure 54
0010
0000
0100
0010
0000
0000
0000
0000
,  // measure 55
0100
0010
1000
0001
,  // measure 56
1000
0000
0100
1000
0000
0000
0000
0000
,  // measure 57
0001
0010
0100
1000
,  // measure 58
0010
0011
0010
1010
,  // measure 59
1000
0001
0010
0100
,  // measure 60
0010
0000
0001
0010
0000
0000
0000
0000
,  // measure 61
0100
1000
0010
0001
,  // measure 62
0010
0000
0100
0010
0000
0000
0000
0000
,  // measure 63
0100
0001
0010
0100
,  // measure 64
1000
0000
0001
1000
0000
0000
0000
0000
,  // measure 65
0100
0010
0001
1000
,  // measure 66
0010
0110
1000
1001
,  // measure 67
1000
0100
0001
0100
,  // measure 68
1000
0010
0001
0010
,  // measure 69
1000
0100
0010
0001
,  // measure 70
1000
0100
0010
0001
,  // measure 71
1000
0010
0001
0010
,  // measure 72
1000
0100
0001
0100
,  // measure 73
1000
0001
0010
0100
,  // measure 74
1000
0001
0100
0010
,  // measure 75
0000
1000
0000
0010
0000
0001
0000
0010
,  // measure 76
0000
1000
0000
0010
0000
0001
0000
0010
,  // measure 77
0000
1000
0000
0100
0000
0001
0000
0100
,  // measure 78
0000
1000
0000
0100
0000
0001
0000
0100
,  // measure 79
0000
1000
0000
0001
0000
0100
0000
0010
,  // measure 80
0000
1000
0000
0001
0000
0010
0000
0100
,  // measure 81
0000
1000
0000
0001
0000
1000
0001
1000
;

//---------------dance-single - Chewi----------------
#NOTES:
     dance-single:
     Chewi:
     Hard:
     12:
     0.552,0.564,0.574,0.041,0.000: // measure 1
0000
0000
0000
0000
,  // measure 2
0000
0000
0000
0000
,  // measure 3
0000
0000
0000
0000
,  // measure 4
0000
0000
0000
0000
,  // measure 5
1000
0100
1000
1001
,  // measure 6
0001
0100
0001
1001
,  // measure 7
1000
0010
0100
0110
,  // measure 8
0200
0001
0010
0301
,  // measure 9
0001
0110
1000
0110
,  // measure 10
1000
0001
0010
0100
1000
0001
0100
0010
,  // measure 11
0100
1001
0010
1001
,  // measure 12
1000
0010
0001
0010
1000
0000
0000
0000
,  // measure 13
0001
1100
1000
0101
,  // measure 14
1000
0100
0001
0100
1000
0001
1000
0000
,  // measure 15
0010
1001
0100
1001
,  // measure 16
2020
0000
0000
3030
,  // measure 17
0010
0000
0100
0000
0010
0100
0010
0000
,  // measure 18
1000
0000
0100
0000
0010
0001
0100
0000
,  // measure 19
0001
0000
0010
0000
0001
0010
0001
0000
,  // measure 20
0010
0000
0100
0000
1000
0010
0100
0000
,  // measure 21
0010
0000
0010
0000
1000
0100
1000
0000
,  // measure 22
0100
0000
0100
0000
0010
0001
0010
0000
,  // measure 23
0001
0101
1000
1010
,  // measure 24
0001
0100
1000
0100
,  // measure 25
0001
0000
1100
0000
1000
0100
1000
0000
,  // measure 26
1000
0000
0101
0000
0001
0100
0001
0000
,  // measure 27
0100
0000
0110
0000
0010
0100
0010
0000
,  // measure 28
1000
0000
1010
0000
0010
1000
0010
0000
,  // measure 29
1000
0000
0100
0000
0010
0001
0100
0000
,  // measure 30
0001
0000
0100
0000
0010
1000
0100
0000
,  // measure 31
1000
0000
1000
0000
0001
0100
0001
0000
,  // measure 32
0100
0010
1000
0001
0010
0100
1000
0001
,  // measure 33
1000
1100
0001
0101
,  // measure 34
0100
0010
0100
0000
0001
1000
0001
0000
,  // measure 35
1000
0100
0010
0000
0001
0010
0100
0000
,  // measure 36
0001
0100
0010
0000
1000
0010
0100
0000
,  // measure 37
0001
0000
1100
0000
1000
0100
1000
0000
,  // measure 38
1000
0000
0011
0000
0001
0010
0001
0000
,  // measure 39
0010
0100
1000
0000
0010
0100
0001
0000
,  // measure 40
0100
0010
0001
0000
0100
0010
1000
0000
,  // measure 41
0001
1000
0001
1000
0100
1000
0100
0000
,  // measure 42
1000
0001
1000
0001
0100
0001
0100
0000
,  // measure 43
0010
1001
0010
1001
,  // measure 44
0100
1001
0100
1001
,  // measure 45
1000
0100
0010
0100
1000
0000
1100
0000
,  // measure 46
0001
0100
0010
0100
0001
0000
0101
0000
,  // measure 47
1000
0001
1000
0001
0010
0001
0010
0000
,  // measure 48
0100
0010
0100
0010
0100
1000
0100
0000
,  // measure 49
0100
1000
0010
0100
0001
0010
0100
2000
,  // measure 50
0002
0000
0000
3003
,  // measure 51
0101
1010
0101
1010
,  // measure 52
0001
0100
0001
0100
0001
0000
0100
0000
,  // measure 53
1100
0011
1100
0011
,  // measure 54
0010
0001
0010
0001
0010
0000
0100
0000
,  // measure 55
1001
0110
1001
0110
,  // measure 56
0010
0001
0100
0001
0010
0000
0100
0000
,  // measure 57
1001
0110
1001
0110
,  // measure 58
0010
1000
0100
1000
0010
0100
0010
0001
,  // measure 59
1000
1100
1000
1001
,  // measure 60
1000
0010
0100
0001
0100
0000
0010
0000
,  // measure 61
0001
0101
1000
1100
,  // measure 62
0001
0010
0100
1000
0001
0010
0100
0000
,  // measure 63
0010
1001
0100
1001
,  // measure 64
1000
0010
0100
0001
0100
0000
0010
0000
,  // measure 65
0100
0101
0010
0011
,  // measure 66
0001
0010
0100
1000
0001
0010
0100
1000
,  // measure 67
0001
0000
1000
0000
0001
0100
1000
0000
,  // measure 68
1000
0000
0001
0000
1000
0010
0001
0000
,  // measure 69
0001
0000
0010
0000
0100
0001
0010
0000
,  // measure 70
0100
0010
0100
0010
0001
0010
0001
0010
,  // measure 71
0001
0000
1000
0000
0100
0010
0001
0000
,  // measure 72
1000
0000
0010
0000
0100
0001
0010
0000
,  // measure 73
0100
0000
0010
0000
0001
0100
1000
0000
,  // measure 74
1000
0100
0001
0100
1000
0100
0001
0010
,  // measure 75
0100
0010
0000
0011
0000
0001
0000
1001
,  // measure 76
0000
1010
0000
0110
0000
0101
0000
0110
,  // measure 77
0000
0100
0000
0101
0000
0100
0000
1100
,  // measure 78
0000
1100
0000
1010
0000
0011
0000
1010
,  // measure 79
0000
0010
0000
0110
0000
1000
0000
1001
,  // measure 80
0000
0101
0000
1010
0000
0101
0000
0100
,  // measure 81
0000
0110
0000
1000
0000
0001
1000
0001
;
