#TITLE:earth scape;
#SUBTITLE:;
#ARTIST:dj TAKA;
#TITLETRANSLIT:;
#SUBTITLETRANSLIT:;
#ARTISTTRANSLIT:;
#CREDIT:Chewi☆;
#BANNER:earth scape.png;
#BACKGROUND:earth scape-bg.png;
#LYRICSPATH:;
#CDTITLE:;
#MUSIC:earth scape.mp3;
#OFFSET:-0.410;
#SAMPLESTART:54.780;
#SAMPLELENGTH:15.000;
#SELECTABLE:YES;
#BPMS:0.000=94.000,11.021=91.000,12.000=88.000,16.021=84.000,17.000=90.000,18.000=94.000,24.000=89.000,25.000=94.000,31.021=91.000,32.000=88.000,33.000=94.000,46.021=91.000,47.000=89.000,48.021=85.000,48.979=94.000,64.000=84.000,64.979=94.000,76.000=88.000,77.000=90.000,78.000=89.000,79.000=88.000,80.021=87.000,80.979=80.000,84.000=94.000,147.000=91.000,147.979=87.000,149.000=93.000,165.000=92.000,169.000=90.000,173.000=88.000,174.000=84.000,175.000=71.000,176.021=45.000,177.000=94.000;
#STOPS:;
#BGCHANGES:;
#MENUCOLOR:;
#METERTYPE:DDR X;

//---------------dance-single - Chewi----------------
#NOTES:
     dance-single:
     Chewi:
     Beginner:
     1:
     0.075,0.089,0.032,0.064,0.000:
0000
0000
0000
0000
,
0000
0000
0000
0000
,
0000
0000
0000
0000
,
0000
0000
0000
0000
,
2000
0000
0000
3000
,
1000
0000
0000
0000
,
0002
0000
0000
0003
,
0001
0000
0000
0000
,
0200
0000
0000
0300
,
0100
0000
0000
0000
,
0020
0000
0000
0030
,
0010
0000
0000
0000
,
1000
0000
0000
0000
,
0100
0000
0000
0000
,
0010
0000
0000
0000
,
0001
0000
0000
0000
,
0001
0000
0000
0000
,
0100
0000
0000
0000
,
0010
0000
0000
0000
,
1000
0000
0000
0000
,
1001
0000
0000
0000
,
0100
0100
0000
0000
,
0010
0010
0000
0000
,
1000
1000
0000
0000
,
0001
0001
0000
0000
,
0001
0001
0000
0000
,
1000
1000
0000
0000
,
0010
0010
0000
0000
,
0100
0100
0000
0000
,
2000
0000
0000
3000
,
1000
0000
1000
0000
,
0002
0000
0000
0003
,
0001
0000
0001
0000
,
0020
0000
0000
0030
,
0010
0000
0010
0000
,
0200
0000
0000
0300
,
0100
0000
0100
0000
,
0110
0000
0000
0000
,
0010
0000
0000
0000
,
0100
0000
0000
0000
,
0010
0000
0000
0000
,
1001
0000
0000
0000
,
0001
0000
0000
0000
,
1000
0000
0000
0000
,
0000
1001
0000
0000
0000
0000
0000
0000
;

//---------------dance-single - Chewi----------------
#NOTES:
     dance-single:
     Chewi:
     Easy:
     3:
     0.100,0.111,0.000,0.169,0.000:
0000
0000
0000
0000
,
0000
0000
0000
0000
,
0000
0000
0000
0000
,
0000
0000
0000
0000
,
2000
0000
0000
3000
,
2000
0000
0000
3000
,
0002
0000
0000
0003
,
0002
0000
0000
0003
,
0200
0000
0000
0300
,
0200
0000
0000
0300
,
0020
0000
0000
0030
,
0020
0000
0000
0030
,
0010
0000
0100
0000
,
0010
0000
0000
0000
,
1000
0000
0001
0000
,
1000
0000
0000
0000
,
0001
0000
0100
0000
,
0010
0000
0000
0000
,
0100
0000
1000
0000
,
0010
0000
0001
0000
,
0200
0000
0000
0300
,
0100
0100
0000
0000
,
0010
0100
0010
0000
,
1000
1000
0000
0000
,
0001
1000
0001
0000
,
0001
0010
0000
0000
,
0100
0100
0100
0000
,
0010
0100
0000
0000
,
1000
1000
1000
0000
,
2000
0000
0000
3000
,
0100
0100
0100
0000
,
0002
0000
0000
0003
,
0100
0100
0100
0000
,
0020
0000
0000
0030
,
0010
0100
0010
0000
,
0200
0000
0000
0300
,
0010
0100
0010
0000
,
2000
0000
0000
0000
,
0020
0000
0000
3000
,
0200
0000
0000
0030
,
0002
0000
0000
0303
,
0002
0000
0000
0000
,
2000
0000
0000
0003
,
0200
0000
0000
3000
,
0000
0000
0000
0000
0000
0000
0000
0000
0000
0000
0000
0000
0000
0000
0000
0000
0000
0000
0000
0000
0000
0000
0000
0000
0020
0300
0000
0000
0000
0000
0000
0000
0000
0000
0000
0000
0000
0000
0000
0000
0000
0000
0000
0000
0000
0000
0000
0000
0000
0000
0000
0000
0000
0000
0000
0000
0000
0000
0000
0000
0000
0000
0000
0000
0000
0000
0000
0000
0000
0000
0000
0000
0000
0000
0000
0000
0000
0000
0000
0000
0000
0000
0000
0000
0000
0000
0000
0000
0000
0000
0000
0000
0000
0000
0000
0000
0000
0000
0000
0000
0000
0000
0000
0000
0000
0000
0000
0000
0000
0000
0000
0000
0000
0000
0000
0000
0000
0000
0000
0000
0000
0000
0000
0000
0000
0000
0000
0000
0000
0000
0000
0000
0000
0000
0000
0000
0000
0000
0000
0000
0000
0000
0000
0000
0000
0000
0000
0000
0000
0000
0000
0000
0000
0000
0000
0000
0000
0000
0000
0000
0000
0000
0000
0000
0000
0000
0000
0000
0000
0000
0000
0000
0000
0000
0000
0000
0000
0000
0000
0000
0000
0000
0000
0000
0000
0000
0000
0000
0000
0000
0000
0000
,
0000
0000
0000
0000
,
0030
0000
0000
0000
;

//---------------dance-single - Chewi----------------
#NOTES:
     dance-single:
     Chewi:
     Medium:
     5:
     0.194,0.204,0.056,0.121,0.000:
0000
0000
0000
0000
,
0000
0000
0000
0000
,
0000
0000
0000
0000
,
0000
0000
0000
0000
,
1000
0000
1000
0000
1000
0000
1000
0100
,
0010
0000
0010
0000
0010
0000
0010
0001
,
0100
0000
0100
0000
0100
0000
0100
1000
,
0010
0000
0010
0000
0010
0000
0010
0100
,
0001
0000
0001
0000
0001
0000
0001
1000
,
0100
0000
0100
0000
0100
0000
0100
0010
,
0100
1000
0010
0001
,
0100
0001
0010
1000
,
0100
1001
0010
1001
,
1000
0000
0000
0000
0000
0000
0001
0010
,
0100
1000
0100
0001
,
1001
0000
0000
0000
0000
0000
0010
0010
,
0010
0100
0010
1000
,
0100
0000
0000
0001
0000
0000
0000
0000
,
0001
0010
1000
0100
,
0100
1000
0010
0001
,
0200
0000
0000
0000
,
0310
0010
0010
0000
0001
0000
0100
0000
,
0010
0010
0010
0000
1000
0000
0100
0000
,
0001
0001
0001
0000
1000
0000
1000
0000
,
1000
1000
1000
0000
0001
0000
0001
0000
,
0100
0100
0100
0000
1000
0000
0010
0000
,
0001
0001
0001
0000
0100
0000
1000
0000
,
0100
0100
0100
0000
0001
0000
0010
0000
,
1000
1000
1000
0000
0010
0010
0010
0000
,
0102
0000
1000
0000
,
0010
0010
0013
0000
,
2100
0000
0001
0000
,
0010
0010
3010
0000
,
0020
0130
2000
3001
,
1001
0000
0010
0000
,
0020
0130
0002
1003
,
0100
0110
1000
0001
,
2000
0000
0000
0010
,
0020
0000
3000
0100
,
0200
0000
0030
0001
,
0002
0000
0000
0303
,
0002
0000
0000
1000
,
2000
0000
0003
0100
,
0200
0000
0000
3000
,
0000
0000
0000
0000
0000
0000
0000
0000
0000
0000
0000
0000
0000
0000
0000
0000
0000
0000
0000
0000
0000
0000
0000
0000
0002
0300
0000
0000
0000
0000
0000
0000
0000
0000
0000
0000
0000
0000
0000
0000
0000
0000
0000
0000
0000
0000
0000
0000
0010
0000
0000
0000
0000
0000
0000
0000
0000
0000
0000
0000
0000
0000
0000
0000
0000
0000
0000
0000
0000
0000
0000
0000
0000
0000
0000
0000
0000
0000
0000
0000
0000
0000
0000
0000
0000
0000
0000
0000
0000
0000
0000
0000
0000
0000
0000
0000
0010
0000
0000
0000
0000
0000
0000
0000
0000
0000
0000
0000
0000
0000
0000
0000
0000
0000
0000
0000
0000
0000
0000
0000
0000
0000
0000
0000
0000
0000
0000
0000
0000
0000
0000
0000
0000
0000
0000
0000
0000
0000
0000
0000
0000
0000
0000
0000
0000
0000
0000
0000
0000
0000
0000
0000
0000
0000
0000
0000
0000
0000
0000
0000
0000
0000
0000
0000
0000
0000
0000
0000
0000
0000
0000
0000
0000
0000
0000
0000
0000
0000
0000
0000
0000
0000
0000
0000
0000
0000
0000
0000
0000
0000
0000
0000
,
0000
0000
0000
0000
,
0003
0000
0000
0000
;

//---------------dance-single - Chewi----------------
#NOTES:
     dance-single:
     Chewi:
     Hard:
     9:
     0.299,0.426,0.201,0.161,0.052:
0000
0000
0000
0000
,
0000
0000
0000
0000
,
0000
0000
0000
0000
,
0000
0000
0000
0000
,
1000
0010
0001
0100
,
0001
0010
1000
0100
,
0010
0000
0100
0000
0010
0100
0010
0000
,
0100
0000
0010
0000
0100
0010
0100
0000
,
0001
0010
0100
1000
0100
0000
0001
0000
,
1000
0100
0010
0001
0010
0000
1000
0100
,
0010
0000
0000
0000
0000
0000
0010
0000
0010
0000
0000
0100
0000
0000
0001
0000
,
0100
0010
1000
0001
0010
0100
1000
0100
,
0002
0023
2030
3002
,
0023
0000
0000
0000
0030
0000
0001
1000
,
1001
0000
0100
0010
0110
0000
0010
1000
,
0100
0001
0000
0000
0000
0000
0010
0000
,
1010
0101
0011
1100
,
1002
0000
0000
0010
0000
0000
1003
0000
,
0100
0000
0000
0000
0000
0000
0001
0000
0100
0000
0000
0010
0000
0000
1000
0000
,
0001
0010
0100
1000
0010
0100
0001
0100
,
0200
0000
0000
0300
,
0010
0001
0100
1000
0000
0100
0100
0000
,
0010
1000
0100
0001
0000
0010
0010
0000
,
0100
0010
0001
1000
0000
0001
1000
0000
,
1000
0010
0100
0001
0010
0010
0100
0100
,
0010
0001
0100
1000
0000
0010
0010
0000
,
0010
1000
0100
0001
0000
0001
0010
0100
,
1000
0010
1000
0100
0000
0010
0010
0000
,
0010
0001
0100
0010
0100
0001
0010
0100
,
1001
0000
0000
0000
0010
1000
0100
0010
0001
0000
0010
0000
0100
0000
0010
0000
,
0010
0001
0000
0000
0001
0010
0000
0000
0100
0000
0010
0000
0110
0000
1010
0000
,
0101
0000
0000
0000
0101
0000
1001
0000
1100
0000
0000
0000
1000
0000
0100
0010
,
0001
0010
0100
1000
0010
0100
0001
0100
0010
1000
0001
0000
0010
0100
0000
0000
,
0110
1001
0110
1010
,
0101
0000
0000
0001
0000
0000
0100
0000
,
1010
0010
0011
0000
0010
0001
0100
1000
,
0010
1000
0100
0001
0010
0100
1000
0001
,
2002
0000
0000
3003
,
0200
0010
0001
0310
,
0220
0000
0000
0330
,
0020
1000
0100
1030
,
2002
0000
0000
3003
,
0002
0100
0010
1003
,
2200
0000
0000
3300
,
0100
0100
0001
0010
2000
0000
0000
0000
,
0000
0002
0000
0000
0000
0000
0000
0000
,
3003
0000
0000
0000
;

//---------------dance-double - Chewi----------------
#NOTES:
     dance-double:
     Chewi:
     Easy:
     3:
     0.139,0.185,0.080,0.097,0.000:
00000000
00000000
00000000
00000000
,
00000000
00000000
00000000
00000000
,
00000000
00000000
00000000
00000000
,
00000000
00000000
00000000
00000000
,
20000000
00000000
00000000
30000000
,
02000000
00000000
00000000
03000000
,
00020000
00000000
00000000
00030000
,
00002000
00000000
00000000
00003000
,
00000002
00000000
00000000
00000003
,
00000020
00000000
00000000
00000030
,
00002000
00000000
00000000
00003000
,
00020000
00000000
00000000
00030000
,
10000000
00000000
10000000
00000000
,
10010000
00000000
00000000
00100000
,
00010000
00001000
00000100
00000001
,
00001001
00000000
00000000
00000001
,
00001000
00000000
00000010
00001000
,
00010000
00000000
10000000
00000000
,
01000000
00010000
00100000
00001000
,
00000010
00000001
00000100
00001000
,
00002002
00000000
00000000
00003003
,
00000010
00001000
00000100
00001000
,
00010000
01000000
00010000
00001000
,
00000010
00001000
00000100
00000010
,
00001000
00010000
00100000
10000000
,
01000000
00010000
00100000
01000000
,
00100000
00010000
00001000
00000010
,
00000010
00000001
00000100
00000010
,
00000001
00000100
00001000
00010000
,
01000000
00100000
01000000
00100000
,
00100000
00010000
00110000
00000000
,
10010000
00000000
01100000
00000000
,
01000000
00000000
01000000
00010000
,
00001000
00000010
00000001
00000010
,
00000110
00000000
00001001
00000000
,
00001010
00000000
00001000
00000100
,
00000001
00000100
00001000
00010000
,
00011000
00000000
00000000
00000000
,
00010000
00000000
00000000
00000000
,
10000000
00000000
00000000
00000000
,
00010000
00000000
00000000
00000000
,
00001000
00000000
00000000
00000000
,
00000001
00000000
00000000
00000000
,
00001000
00000000
00000000
00000000
,
00000000
00010000
00002000
00000000
00020000
00000000
00000000
00000000
,
00000000
00000000
00000000
00000000
,
00033000
00000000
00000000
00000000
;

//---------------dance-double - Chewi----------------
#NOTES:
     dance-double:
     Chewi:
     Medium:
     5:
     0.198,0.278,0.072,0.097,0.000: // measure 1
00000000
00000000
00000000
00000000
,  // measure 2
00000000
00000000
00000000
00000000
,  // measure 3
00000000
00000000
00000000
00000000
,  // measure 4
00000000
00000000
00000000
00000000
,  // measure 5
10000000
00100000
00010000
00100000
,  // measure 6
00010000
00001000
00000010
00000001
,  // measure 7
00000001
00000010
00001000
00000010
,  // measure 8
00001000
00010000
00100000
00010000
,  // measure 9
01000000
00000000
00100000
00000000
10000000
00010000
10000000
00000000
,  // measure 10
00100000
00000000
01000000
00000000
10000000
00010000
10000000
00000000
,  // measure 11
00010000
00000000
00001000
00000000
00000001
00001000
00000001
00000000
,  // measure 12
00001000
00000000
00000001
00000000
00001000
00000001
00001000
00000001
,  // measure 13
00002000
00000010
00000001
00000100
,  // measure 14
00000200
00000000
00003300
00000100
,  // measure 15
00010000
00001000
00100000
01000000
,  // measure 16
00100000
00100000
00100000
00000000
00000000
00000000
01000000
00000000
,  // measure 17
10010000
00100000
00010000
00000100
,  // measure 18
00000001
00000010
00001000
00000010
,  // measure 19
00000100
00000000
00000000
00000100
00000100
00000000
00000010
00000000
,  // measure 20
00001000
00000000
00000100
00000000
00010000
00000000
00001000
00010000
,  // measure 21
00002000
00000000
00000000
00003000
,  // measure 22
00010000
01000000
00010000
00000000
01000000
00000000
10000000
00000000
,  // measure 23
01000000
00100000
00010000
01000000
,  // measure 24
00010000
00100000
00001000
00000000
00000010
00000000
00000001
00000000
,  // measure 25
00000100
00001000
00000010
00001000
,  // measure 26
00010000
00001000
00010000
00000000
01000000
00000000
10000000
00000000
,  // measure 27
00100000
00010000
00100000
01000000
,  // measure 28
00100000
00010000
01000000
00000000
00100000
00000000
01000000
00000000
,  // measure 29
00010000
00001000
00000010
00000001
,  // measure 30
00001001
00000001
00000100
00000010
,  // measure 31
00001010
00000000
00011000
00000000
00001010
00000000
00001000
00010000
,  // measure 32
01000000
00000000
01000000
00010000
00100000
00000000
01000000
00100000
,  // measure 33
01000000
01000000
01000000
01000000
00000000
00000000
00100000
00000000
,  // measure 34
10010000
00100000
01010000
00100000
,  // measure 35
11000000
00000000
10000000
01000000
00010000
00000000
00100000
00000000
,  // measure 36
00001000
00100000
00010000
00001000
,  // measure 37
00000100
00000010
00001000
00010000
,  // measure 38
00022000
00000000
00000000
00003000
,  // measure 39
02000000
00000000
00000000
00030000
,  // measure 40
20000000
00000000
00000000
03000000
,  // measure 41
00200000
00000000
30300000
00000000
,  // measure 42
00020000
00000000
00000000
00000000
,  // measure 43
00002000
00000000
00000000
00030000
,  // measure 44
00003020
00000000
00000000
00000000
,  // measure 45
00000000
00000100
00000000
00000200
00000000
00000000
00000000
00000000
,  // measure 46
00000000
00000000
00000000
00000000
,  // measure 47
00000330
00000000
00000000
00000000
;

//---------------dance-double - Chewi----------------
#NOTES:
     dance-double:
     Chewi:
     Hard:
     10:
     0.347,0.352,0.105,0.097,0.020: // measure 1
00000000
00000000
00000000
00000000
,  // measure 2
00000000
00000000
00000000
00000000
,  // measure 3
00000000
00000000
00000000
00000000
,  // measure 4
00000000
00000000
00000000
00000000
,  // measure 5
10000000
01000000
10000000
01000000
00100000
00010000
00100000
00010000
,  // measure 6
00100000
00001000
00100000
00010000
00001000
00010000
00001000
00000010
,  // measure 7
00000100
00000010
00000100
00000010
00001000
00000001
00001000
00000001
,  // measure 8
00000010
00000100
00001000
00010000
00010000
00001000
00010000
01000000
,  // measure 9
00100000
10000000
00010000
00100000
01000000
10000000
00100000
01000000
,  // measure 10
01000000
00100000
10000000
00010000
00100000
01000000
10000000
01000000
,  // measure 11
00110000
00000000
00000000
00000000
00000000
00000000
00100000
00000000
00110000
00000000
00000000
00101000
00000000
00000000
00011000
00000000
,  // measure 12
00010100
00000100
00001000
00000010
00000001
00000010
00001000
00001000
,  // measure 13
00002000
00000001
00000010
00003001
,  // measure 14
00002002
00000000
00000000
00000000
00003003
00000000
00000001
00000100
,  // measure 15
00001000
00000000
00001000
00010000
00100000
00000000
00100000
10000000
,  // measure 16
01000000
00100000
00010000
01000000
00100000
00000000
00000000
00000000
00000000
00000000
00000000
00000000
01100000
00000000
00000000
00000000
,  // measure 17
10010000
00100000
01000000
10000000
00100000
01000000
00010000
00100000
,  // measure 18
00002000
00000000
00000000
00020000
00000000
00000000
00033000
00000000
,  // measure 19
00010000
00000000
00001000
00000000
00000010
00000000
00000100
00000000
00000100
00000000
00000000
00000001
00000000
00000000
00000010
00000000
,  // measure 20
00000001
00000010
00000100
00001000
00000010
00000100
00000010
00000010
,  // measure 21
00000020
00000000
00000000
00000030
,  // measure 22
00000010
00001000
00000100
00010000
00001000
00100000
00010000
00010000
,  // measure 23
00100000
00001000
00010000
00000100
00001000
00000010
00000010
00000010
,  // measure 24
00001000
00000001
00000100
00000010
00001000
00000001
00000010
00000100
,  // measure 25
00001000
00000010
00001000
00000100
00010000
00001000
00100000
00010000
,  // measure 26
00100000
00001000
00010000
00001000
00010000
01000000
00100000
01000000
,  // measure 27
00010000
00100000
10000000
01000000
00010000
00100000
01000000
10000000
,  // measure 28
00100000
01000000
00100000
10000000
00100000
10000000
01000000
10000000
,  // measure 29
01000000
00100000
01000000
00100000
00010000
01000000
00010000
00100000
,  // measure 30
00001000
00000000
00010000
00001000
00000010
00000100
00000001
00000010
,  // measure 31
00000001
00000010
00000000
00000000
00000011
00000000
00000000
00000000
00000101
00000000
00000000
00000000
00000010
00000000
00001000
00000000
,  // measure 32
00000100
00001000
00000010
00001000
00000100
00010000
00001000
00010000
,  // measure 33
00000100
00001000
00000010
00000001
00000100
00001000
00000010
00000010
,  // measure 34
00000010
00001000
00100000
00010000
01000000
10000000
00010000
00100000
,  // measure 35
10000000
00100000
00010000
00100000
01000000
10000000
00100000
01000000
,  // measure 36
00010000
00100000
01000000
10000000
00100000
00100000
01000000
01000000
,  // measure 37
01000000
00010000
00100000
00001000
00010000
00000100
00001000
00000001
,  // measure 38
00002002
00000000
00000000
00003003
,  // measure 39
00001000
00000100
00010000
00001000
00000000
00001000
00010000
00001000
,  // measure 40
00010000
01000000
10000000
00100000
00000000
10000000
00100000
01000000
,  // measure 41
00010000
00100000
10000000
01000000
00010000
00100000
00001000
00010000
,  // measure 42
00000100
00000100
00000010
00000001
00000100
00000010
00000100
00000001
,  // measure 43
00000010
00000010
00000100
00001000
00000010
00000100
00000001
00000010
,  // measure 44
00002002
00000000
00000000
00003003
,  // measure 45
00000000
00000110
00000010
00001000
00000200
00000000
00000000
00000000
,  // measure 46
00000000
00020300
00000000
00000000
00000000
00000000
00000000
00000000
,  // measure 47
00031000
00000000
00000000
00000000
;
