#TITLE:concon;
#SUBTITLE:;
#ARTIST:S-C-U;
#TITLETRANSLIT:;
#SUBTITLETRANSLIT:;
#ARTISTTRANSLIT:;
#GENRE:;
#CREDIT:Chewi☆;
#MENUCOLOR:;
#METERTYPE:DDR X;
#BANNER:concon.png;
#BACKGROUND:concon-bg.png;
#LYRICSPATH:;
#CDTITLE:;
#MUSIC:concon.mp3;
#OFFSET:-0.700;
#SAMPLESTART:61.337;
#SAMPLELENGTH:15.000;
#SELECTABLE:YES;
#LISTSORT:;
#BPMS:0.000=190.000;
#STOPS:;
#BGCHANGES:;
#ATTACKS:;

//---------------dance-single - Chewi----------------
#NOTES:
     dance-single:
     Chewi:
     Hard:
     12:
     0.634,0.651,0.094,0.019,0.009: // measure 1
0000
0000
0000
0000
,  // measure 2
0000
0000
0000
0000
,  // measure 3
0000
0000
0000
0000
,  // measure 4
0000
0000
0000
0000
,  // measure 5
0000
1000
0010
0100
0001
0010
0000
0100
,  // measure 6
0000
1000
0010
1000
0100
0010
0000
0100
,  // measure 7
0000
1000
0001
0100
0010
1000
0000
0001
,  // measure 8
0010
0100
1000
0010
0000
1000
0100
0010
,  // measure 9
0001
0010
0001
0010
0000
0100
0000
1000
,  // measure 10
0000
0010
1000
0000
0000
0000
0000
0000
,  // measure 11
1000
0010
1000
0010
0000
0100
0000
0010
,  // measure 12
0000
1000
0001
0000
0000
0000
0000
0000
,  // measure 13
0000
0001
0010
0100
1000
0010
0000
1000
,  // measure 14
0000
0100
0010
0100
1000
0010
0000
0100
,  // measure 15
0000
0001
0010
0100
0010
0001
0000
0100
,  // measure 16
0010
0100
0001
1000
0000
0100
0010
0100
,  // measure 17
1000
0000
0010
1000
0000
1100
0000
0011
,  // measure 18
0000
0101
0100
0100
0000
0001
0000
0010
,  // measure 19
0100
0000
1000
0010
0000
1000
0100
0010
,  // measure 20
0100
0000
0100
1000
0000
0010
0110
0000
,  // measure 21
0100
0010
0100
0001
0000
0010
0000
0100
,  // measure 22
0000
1000
0010
0000
0000
0000
0000
0000
,  // measure 23
1000
0010
0100
0001
0000
0010
0000
0100
,  // measure 24
0000
0010
0001
0000
0000
0000
0000
0000
,  // measure 25
0001
0010
0100
1000
0000
1010
0000
1100
,  // measure 26
0000
0110
0010
0010
0000
0001
0000
0010
,  // measure 27
0100
0000
1000
0000
0100
0010
0001
0010
,  // measure 28
0000
0010
0100
1000
0000
1000
1001
0000
,  // measure 29
0100
0010
0100
0010
0000
1000
0000
0010
,  // measure 30
0000
0100
0001
0000
0000
0000
0000
0000
,  // measure 31
1000
0001
0010
0100
0000
0100
0000
0010
,  // measure 32
0010
0001
0010
0001
0010
0001
0100
0010
,  // measure 33
1000
0000
0000
0010
1000
0000
0100
0001
,  // measure 34
0010
0000
0000
1000
0100
0000
0100
1000
,  // measure 35
0010
0000
0000
0100
0010
0000
0100
0001
,  // measure 36
0010
0000
0000
0100
0010
0000
0010
0100
,  // measure 37
1000
0100
1000
0100
0000
1000
0001
1000
,  // measure 38
0001
1000
0000
1000
0010
0100
0001
0010
,  // measure 39
0100
1000
0010
0100
0000
0010
0100
0001
,  // measure 40
0010
0100
0000
1000
0010
1000
0010
1000
,  // measure 41
0100
0000
0000
0010
0001
0000
0100
0010
,  // measure 42
1000
0000
0000
0100
0010
0000
0001
0010
,  // measure 43
0100
0000
0000
1000
0010
0000
0100
0010
,  // measure 44
0100
0000
0000
0100
0010
1000
0001
1000
,  // measure 45
0100
1000
0100
1000
0000
0000
0010
0001
,  // measure 46
0010
0001
0000
0001
0010
0100
1000
0000
,  // measure 47
0100
0010
0001
0010
0000
0001
0022
0000
,  // measure 48
0000
0000
0000
0033
,  // measure 49
0001
0010
0100
1000
0010
1000
0100
0010
,  // measure 50
0100
1000
0000
0001
0000
0100
0010
0000
,  // measure 51
0100
0010
1000
0001
0010
0100
1000
0010
,  // measure 52
1000
0100
0000
0010
0000
0100
1000
0000
,  // measure 53
0010
0100
0001
0010
0100
1000
0010
1000
,  // measure 54
0100
0010
0000
0100
1000
0010
1000
0000
,  // measure 55
0100
0010
0001
0010
0100
1000
0100
1000
,  // measure 56
1000
0001
1000
0001
0100
0010
0100
0010
,  // measure 57
0100
0010
1000
0001
0010
0100
1000
0010
,  // measure 58
1000
0100
0000
0010
0000
0100
1000
0000
,  // measure 59
0010
0100
0001
0100
0010
1000
0001
0010
,  // measure 60
0010
0000
0000
0001
0000
0000
0010
0000
0000
0100
0000
0000
1000
0000
1000
0000
,  // measure 61
0001
0010
0100
1000
0010
1000
0100
0000
,  // measure 62
1000
0100
0010
0001
0100
0010
0100
0000
,  // measure 63
0001
1000
0100
0010
0000
0001
0010
0100
,  // measure 64
1000
0000
0000
0000
,  // measure 65
0001
1000
0001
0000
1000
0100
1000
0000
,  // measure 66
0100
0010
0001
0010
0100
1000
0010
0000
,  // measure 67
1000
0010
1000
0000
0001
0100
0001
0000
,  // measure 68
0100
0010
0100
0001
1000
0100
0010
0000
,  // measure 69
0001
0010
0001
0010
0100
1000
0100
1000
,  // measure 70
0001
1000
0001
1000
0100
0010
0100
0010
,  // measure 71
0001
0010
0100
1000
0001
0010
0100
1000
,  // measure 72
1000
0100
0010
0000
0001
0100
0010
0000
,  // measure 73
1000
0001
1000
0000
0001
0010
0001
0000
,  // measure 74
0010
0100
1000
0100
0010
0001
0100
0000
,  // measure 75
0001
0100
0001
0000
1000
0010
1000
0000
,  // measure 76
0010
0100
0010
1000
0001
0010
0100
0000
,  // measure 77
1000
0100
1000
0100
0010
0001
0010
0001
,  // measure 78
1000
0001
1000
0001
0010
0100
0010
0100
,  // measure 79
1000
0100
0010
0001
1000
0100
0010
0001
,  // measure 80
0001
0010
0100
0000
1000
0010
0100
0000
,  // measure 81
0010
0100
0001
1000
0000
0100
0000
0010
,  // measure 82
0000
0001
0011
0000
0000
0000
0000
0000
;

//---------------dance-single - Chewi----------------
#NOTES:
     dance-single:
     Chewi:
     Medium:
     9:
     0.458,0.460,0.264,0.000,0.000: // measure 1
0000
0000
0000
0000
,  // measure 2
0000
0000
0000
0000
,  // measure 3
0000
0000
0000
0000
,  // measure 4
0000
0000
0000
0000
,  // measure 5
1000
0100
0001
0100
,  // measure 6
1000
0010
0001
0010
,  // measure 7
1000
0100
0010
0001
,  // measure 8
1000
0100
0010
0001
,  // measure 9
1000
0100
1000
0100
0000
1000
0000
0100
,  // measure 10
0000
1000
0100
0000
0000
0000
0000
0000
,  // measure 11
0001
0100
0001
0100
0000
0001
0000
0100
,  // measure 12
0000
0001
0100
0000
0000
0000
0000
0000
,  // measure 13
0010
0100
0001
1000
,  // measure 14
0100
0010
0001
1000
,  // measure 15
0010
0001
0010
1000
,  // measure 16
0100
0001
0100
1000
,  // measure 17
0010
0000
1000
0010
0000
0100
0000
0001
,  // measure 18
0000
0010
0000
0100
0000
1100
0000
0000
,  // measure 19
0010
0000
1000
0100
0000
0010
0000
0100
,  // measure 20
0000
1000
0000
0001
0000
1001
0000
0000
,  // measure 21
1000
0100
1000
0100
0000
0010
0000
0001
,  // measure 22
0000
0010
0001
0000
0000
0000
0000
0000
,  // measure 23
0001
0010
0001
0010
0000
0100
0000
1000
,  // measure 24
0000
0100
1000
0000
0000
0000
0000
0000
,  // measure 25
1000
0001
1000
1100
,  // measure 26
0001
1000
0001
0101
,  // measure 27
0100
0010
1000
0001
,  // measure 28
0010
0100
1000
0001
,  // measure 29
1000
0100
1000
0100
0000
0010
0000
0100
,  // measure 30
0000
1000
0010
0000
0000
0000
0000
0000
,  // measure 31
1000
0010
0100
0010
0000
1000
0000
0010
,  // measure 32
0100
0001
0010
0100
,  // measure 33
1100
0000
0011
1000
,  // measure 34
1100
0000
0101
0100
,  // measure 35
0110
0000
1001
1000
,  // measure 36
1100
0000
0110
0000
,  // measure 37
0010
0001
0100
0010
,  // measure 38
0001
0100
0010
0001
,  // measure 39
0100
0010
1000
0100
,  // measure 40
0010
1000
0100
0010
,  // measure 41
0110
0000
0000
0000
1001
0000
0100
0010
,  // measure 42
0100
0000
1000
0010
,  // measure 43
0101
0000
0000
0000
1001
0000
0100
0010
,  // measure 44
0100
0000
0001
0010
,  // measure 45
0100
1000
0100
1000
0000
0000
0100
0000
,  // measure 46
1001
1001
0001
1000
,  // measure 47
0010
0000
0100
0000
,  // measure 48
0110
0000
0000
0000
,  // measure 49
0010
0010
0010
0010
,  // measure 50
0010
1000
0010
0000
1000
0010
1000
0000
,  // measure 51
1000
0001
0010
0100
,  // measure 52
1000
1100
0001
0101
,  // measure 53
0100
0100
0100
0100
,  // measure 54
0010
0100
0010
0000
0100
0000
0010
0000
,  // measure 55
1000
0100
0010
0100
,  // measure 56
1000
0100
1000
0000
1000
0000
0001
0000
,  // measure 57
0100
0010
0001
0100
,  // measure 58
0010
0001
0100
0101
,  // measure 59
0100
0010
1000
0100
,  // measure 60
1100
0000
0000
1100
0000
0000
1000
0100
,  // measure 61
0010
0100
1000
0010
,  // measure 62
0100
0010
1000
0001
,  // measure 63
1000
1100
0001
0101
,  // measure 64
0100
0010
1000
0001
,  // measure 65
1000
0100
0010
0100
,  // measure 66
1000
0001
0100
0000
0010
0000
0101
0000
,  // measure 67
0010
0000
0100
0000
1000
0001
0010
0000
,  // measure 68
0100
0010
0001
0011
,  // measure 69
0001
0001
0001
0001
,  // measure 70
1000
1000
1000
1000
,  // measure 71
0010
0000
0100
0000
0010
0100
0001
0000
,  // measure 72
0010
0000
0100
0000
0010
0100
1000
0000
,  // measure 73
0010
0001
0100
1000
,  // measure 74
0010
0001
0100
1000
,  // measure 75
0010
1000
0100
0001
,  // measure 76
0010
1000
0100
0001
,  // measure 77
0010
0000
0100
0000
0010
0100
0010
0000
,  // measure 78
0100
0010
0100
0010
,  // measure 79
1000
0010
0100
0001
,  // measure 80
1000
0100
0010
0001
,  // measure 81
0010
0001
0010
0001
0000
0010
0000
0100
,  // measure 82
0000
1000
0100
0000
0000
0000
0000
0000
;

//---------------dance-single - Chewi----------------
#NOTES:
     dance-single:
     Chewi:
     Beginner:
     2:
     0.114,0.191,0.057,0.000,0.000: // measure 1
0000
0000
0000
0000
,  // measure 2
0000
0000
0000
0000
,  // measure 3
0000
0000
0000
0000
,  // measure 4
0000
0000
0000
0000
,  // measure 5
1000
0000
0000
0000
,  // measure 6
0010
0000
0000
0000
,  // measure 7
1000
0000
0000
0000
,  // measure 8
0100
0000
0000
0000
,  // measure 9
1000
0000
0000
0000
,  // measure 10
1000
0000
0000
0000
,  // measure 11
0100
0000
0000
0000
,  // measure 12
0100
0000
0000
0000
,  // measure 13
0010
0000
0000
0000
,  // measure 14
0001
0000
0000
0000
,  // measure 15
1000
0000
0000
0000
,  // measure 16
0010
0000
0000
0000
,  // measure 17
0100
0000
0000
0000
,  // measure 18
0100
0000
0000
0000
,  // measure 19
0001
0000
0000
0000
,  // measure 20
0001
0000
0000
0000
,  // measure 21
0001
0000
0000
0000
,  // measure 22
1000
0000
0000
0000
,  // measure 23
0001
0000
0000
0000
,  // measure 24
1000
0000
0000
0000
,  // measure 25
1000
0000
0000
0000
,  // measure 26
1000
0000
0000
0000
,  // measure 27
0100
0000
0000
0000
,  // measure 28
0100
0000
0000
0000
,  // measure 29
0100
0000
0000
0000
,  // measure 30
0100
0000
0000
0000
,  // measure 31
0010
0000
0000
0000
,  // measure 32
0010
0000
0000
0000
,  // measure 33
0110
0000
0000
0000
,  // measure 34
0010
0000
0000
0000
,  // measure 35
1001
0000
0000
0000
,  // measure 36
0001
0000
0000
0000
,  // measure 37
1000
0000
0000
0000
,  // measure 38
0100
0000
0000
0000
,  // measure 39
0010
0000
0000
0000
,  // measure 40
0100
0000
0000
0000
,  // measure 41
0110
0000
0000
0000
,  // measure 42
0010
0000
0000
0000
,  // measure 43
1001
0000
0000
0000
,  // measure 44
0001
0000
0000
0000
,  // measure 45
0001
0000
0000
0000
,  // measure 46
0100
0000
0000
0000
,  // measure 47
0010
0000
0000
0000
,  // measure 48
0001
0000
0000
0000
,  // measure 49
1000
0000
0000
0000
,  // measure 50
1000
0000
0000
0000
,  // measure 51
0001
0000
0000
0000
,  // measure 52
1000
0000
0000
0000
,  // measure 53
0100
0000
0000
0000
,  // measure 54
0010
0000
0000
0000
,  // measure 55
0100
0000
0000
0000
,  // measure 56
0010
0000
0000
0000
,  // measure 57
1000
0000
0000
0000
,  // measure 58
0010
0000
0000
0000
,  // measure 59
0100
0000
0000
0000
,  // measure 60
0010
0000
0000
0000
,  // measure 61
0001
0000
0000
0000
,  // measure 62
0001
0000
0000
0000
,  // measure 63
0001
0000
0000
0000
,  // measure 64
0100
0000
0000
0000
,  // measure 65
1000
0000
0000
0000
,  // measure 66
1000
0000
0000
0000
,  // measure 67
0100
0000
0000
0000
,  // measure 68
0100
0000
0000
0000
,  // measure 69
1000
0000
0000
0000
,  // measure 70
0001
0000
0000
0000
,  // measure 71
1000
0000
0000
0000
,  // measure 72
1000
0000
0000
0000
,  // measure 73
0010
0000
0000
0000
,  // measure 74
0100
0000
0000
0000
,  // measure 75
0010
0000
0000
0000
,  // measure 76
0010
0000
0000
0000
,  // measure 77
1000
0000
0000
0000
,  // measure 78
0001
0000
0000
0000
,  // measure 79
1000
0000
0000
0000
,  // measure 80
0010
0000
0000
0000
,  // measure 81
1000
0000
0000
0000
,  // measure 82
1001
1001
0000
0000
;

//---------------dance-single - Chewi----------------
#NOTES:
     dance-single:
     Chewi:
     Easy:
     5:
     0.346,0.383,0.141,0.000,0.000: // measure 1
0000
0000
0000
0000
,  // measure 2
0000
0000
0000
0000
,  // measure 3
0000
0000
0000
0000
,  // measure 4
0000
0000
0000
0000
,  // measure 5
1000
0100
0001
0000
,  // measure 6
0010
0000
1000
0000
,  // measure 7
1000
0010
0001
0000
,  // measure 8
0100
0000
1000
0000
,  // measure 9
1000
0001
1000
0001
,  // measure 10
1000
0001
0000
0000
,  // measure 11
0100
0010
0100
0010
,  // measure 12
0100
0010
0000
0000
,  // measure 13
0010
1000
0100
0000
,  // measure 14
0001
0000
0010
0000
,  // measure 15
1000
0100
0001
0000
,  // measure 16
0010
0000
1000
0000
,  // measure 17
0100
0010
0100
0010
,  // measure 18
0100
0010
0100
0010
,  // measure 19
0001
1000
0001
1000
,  // measure 20
0001
1000
0001
1000
,  // measure 21
0001
0000
0000
0000
,  // measure 22
0000
0000
1001
0000
,  // measure 23
1000
0000
0000
0000
,  // measure 24
0000
0000
1001
0000
,  // measure 25
1000
0010
1000
0010
,  // measure 26
1000
0010
1000
0010
,  // measure 27
0100
0010
0100
0010
,  // measure 28
0100
0010
0100
0010
,  // measure 29
0100
0000
0000
0000
,  // measure 30
0000
0000
1001
0000
,  // measure 31
0010
0000
0000
0000
,  // measure 32
1001
0000
0000
0000
,  // measure 33
0110
0000
0110
0000
,  // measure 34
0010
0100
1000
0000
,  // measure 35
1001
0000
1001
0000
,  // measure 36
0001
0100
0010
0000
,  // measure 37
1000
0010
1000
0010
,  // measure 38
0100
0010
1000
0010
,  // measure 39
0010
0100
0001
0010
,  // measure 40
0100
1000
0010
1000
,  // measure 41
1100
0000
1100
0000
,  // measure 42
0010
0001
0010
0000
,  // measure 43
0011
0000
0011
0000
,  // measure 44
0001
0010
0001
0000
,  // measure 45
0001
0010
0100
1000
,  // measure 46
0100
0010
0001
1000
,  // measure 47
0010
0100
0010
1000
,  // measure 48
0001
0000
0000
0000
,  // measure 49
1000
1000
1000
1000
,  // measure 50
1000
0100
0010
0001
,  // measure 51
0001
0001
0001
0001
,  // measure 52
1000
0001
0100
0010
,  // measure 53
0100
0100
0100
0100
,  // measure 54
0010
0100
0001
1000
,  // measure 55
0100
0100
0100
0100
,  // measure 56
0010
0100
1000
0010
,  // measure 57
1000
1000
1000
1000
,  // measure 58
0010
0100
0001
0010
,  // measure 59
0100
0100
0100
0100
,  // measure 60
0010
0000
0000
0000
,  // measure 61
0001
0010
0100
1000
,  // measure 62
0001
0010
0100
1000
,  // measure 63
0001
0100
0010
0001
,  // measure 64
0100
1000
0010
0100
,  // measure 65
1000
0000
1000
0000
,  // measure 66
1000
0001
1000
0001
,  // measure 67
0100
0000
0100
0000
,  // measure 68
0100
0010
0100
0010
,  // measure 69
1000
1000
1000
1000
,  // measure 70
0001
0001
0001
0001
,  // measure 71
1000
0100
0010
0001
,  // measure 72
1000
0100
0010
0001
,  // measure 73
0010
0010
0010
0010
,  // measure 74
0100
0100
0100
0100
,  // measure 75
0010
0100
1000
0001
,  // measure 76
0010
0010
1000
0001
,  // measure 77
1000
0000
1001
0000
,  // measure 78
0001
0000
1001
0000
,  // measure 79
1000
1000
0100
0100
,  // measure 80
0010
0010
0001
0001
,  // measure 81
1000
0000
0001
0000
,  // measure 82
1000
1001
0000
0000
;
