#TITLE:come again;
#SUBTITLE:;
#ARTIST:m-flo;
#TITLETRANSLIT:;
#SUBTITLETRANSLIT:;
#ARTISTTRANSLIT:;
#CREDIT:Chewi☆;
#BANNER:come again.png;
#BACKGROUND:come again-bg.png;
#LYRICSPATH:;
#CDTITLE:;
#MUSIC:come again.mp3;
#OFFSET:-0.526;
#SAMPLESTART:44.822;
#SAMPLELENGTH:15.000;
#SELECTABLE:YES;
#DISPLAYBPM:130.000;
#BPMS:0.000=65.000,48.000=131.000,64.000=130.000;
#STOPS:;
#BGCHANGES:;

//---------------dance-single - Chewi----------------
#NOTES:
     dance-single:
     Chewi:
     Hard:
     9:
     0.282,0.340,0.079,0.139,0.025: // measure 1
0000
0000
0000
0000
,  // measure 2
0000
0000
0000
0000
,  // measure 3
2000
0000
3100
0000
0100
0010
0001
0000
,  // measure 4
0002
0000
0103
0000
0100
0010
1000
0000
,  // measure 5
1002
0000
1003
0000
1000
1100
0101
0000
,  // measure 6
0001
0010
1000
0100
0001
1000
1001
0000
,  // measure 7
0102
0000
0103
0000
0001
1001
1100
0000
,  // measure 8
0100
1000
0010
0001
0100
1000
0010
0100
,  // measure 9
0000
0000
0001
0000
1000
0000
0010
0000
0100
0000
0001
0000
0010
0000
0100
1000
,  // measure 10
0010
1000
0200
0000
0300
0000
0000
0000
0010
0000
0010
0000
0100
0000
0100
0000
,  // measure 11
0000
0000
0010
0000
0001
0000
0100
0000
0010
0000
0100
0000
0001
0000
0010
0100
,  // measure 12
1000
0010
2000
0000
3000
0000
0000
0000
0010
0000
0100
0000
0001
0000
1000
0100
,  // measure 13
0010
0000
0100
0000
0010
0001
0100
0000
,  // measure 14
0010
0000
0100
0000
0010
1000
0100
0000
,  // measure 15
0010
0000
0100
0000
1000
0100
0001
0000
,  // measure 16
1000
0001
1000
0001
0100
0010
0100
0010
,  // measure 17
1000
0000
0100
0000
1000
0010
0100
0000
,  // measure 18
0001
0000
0100
0000
0010
0100
0001
0000
,  // measure 19
1000
0000
0100
0000
0010
0100
1000
0000
,  // measure 20
0001
1000
0001
1000
0010
0100
0010
0100
,  // measure 21
0001
0100
0010
0000
1000
0100
0010
0000
,  // measure 22
0100
1000
0010
0000
0100
0001
0010
0000
,  // measure 23
0100
0010
0100
0000
0010
0100
0010
0000
,  // measure 24
0001
0010
0100
0000
1000
0010
0100
0000
,  // measure 25
0001
1000
0001
1000
0010
1000
0010
1000
,  // measure 26
0010
0100
0010
0100
0001
0100
0001
0100
,  // measure 27
0010
0100
0010
0100
0010
1000
0010
1000
,  // measure 28
0001
1000
0100
0010
0001
1000
0010
0100
,  // measure 29
0002
0000
0000
0000
,  // measure 30
2003
0000
0000
0000
,  // measure 31
3200
0000
0000
0000
,  // measure 32
0020
0000
0000
0330
,  // measure 33
0020
0000
0000
0000
,  // measure 34
0032
0000
0000
0000
,  // measure 35
0203
0000
0000
0000
,  // measure 36
2000
0000
0000
3300
,  // measure 37
1001
0000
0000
0000
;

//---------------dance-single - Chewi----------------
#NOTES:
     dance-single:
     Chewi:
     Medium:
     6:
     0.200,0.250,0.060,0.139,0.000: // measure 1
0000
0000
0000
0000
,  // measure 2
0000
0000
0000
0000
,  // measure 3
2000
0000
3100
0000
0100
0010
0001
0000
,  // measure 4
0002
0000
0103
0000
0100
0010
1000
0000
,  // measure 5
2002
0000
3003
0000
1000
0001
1000
0000
,  // measure 6
0010
0001
0100
1000
,  // measure 7
0220
0000
0330
0000
0010
0100
0010
0000
,  // measure 8
1000
0100
0001
0010
,  // measure 9
1000
1000
1000
0000
0001
0000
1001
0000
,  // measure 10
0001
0001
0001
0000
1000
0000
1001
0000
,  // measure 11
0010
0010
0010
0000
0100
0000
0110
0000
,  // measure 12
0100
0100
0100
0000
0010
1000
0100
0010
,  // measure 13
0001
0010
0100
1000
,  // measure 14
1000
0010
0100
0001
,  // measure 15
0100
0010
1000
0001
,  // measure 16
1000
0100
0001
0100
,  // measure 17
0010
0100
0001
0010
,  // measure 18
0100
1000
0010
0100
,  // measure 19
0010
1000
0001
0010
,  // measure 20
0100
0010
0001
1000
,  // measure 21
0001
0100
0010
0001
,  // measure 22
0100
1000
0010
0100
,  // measure 23
1000
0010
0001
0010
,  // measure 24
1000
0100
0001
0100
,  // measure 25
1000
0100
0010
0001
,  // measure 26
1000
0100
0010
0001
,  // measure 27
0001
0100
0010
1000
,  // measure 28
0001
0100
0010
1000
,  // measure 29
2000
0000
0000
0000
,  // measure 30
3020
0000
0000
0000
,  // measure 31
0230
0000
0000
0000
,  // measure 32
0002
0000
0000
0303
,  // measure 33
0002
0000
0000
0000
,  // measure 34
0023
0000
0000
0000
,  // measure 35
0230
0000
0000
0000
,  // measure 36
2000
0000
0000
3300
,  // measure 37
1001
0000
0000
0000
;

//---------------dance-single - Chewi----------------
#NOTES:
     dance-single:
     Chewi:
     Easy:
     3:
     0.128,0.143,0.050,0.139,0.000: // measure 1
0000
0000
0000
0000
,  // measure 2
0000
0000
0000
0000
,  // measure 3
2000
0000
0000
3000
,  // measure 4
0002
0000
0000
0003
,  // measure 5
1001
0000
1000
0000
,  // measure 6
0001
0000
0100
0000
,  // measure 7
0110
0000
0010
0000
,  // measure 8
1000
0000
0001
0000
,  // measure 9
2000
0000
0000
3000
,  // measure 10
1000
0000
0000
0000
,  // measure 11
0002
0000
0000
0003
,  // measure 12
0001
0000
0000
0000
,  // measure 13
1000
0010
1000
0000
,  // measure 14
0010
0001
0010
0000
,  // measure 15
0001
0100
0001
0000
,  // measure 16
0100
1000
0100
0000
,  // measure 17
1000
0100
1000
0000
,  // measure 18
0100
0001
0100
0000
,  // measure 19
0001
0010
0001
0000
,  // measure 20
0010
1000
0010
0000
,  // measure 21
1000
0001
1000
0000
,  // measure 22
0001
1000
0001
0000
,  // measure 23
1000
0001
1000
0000
,  // measure 24
0001
1000
0001
0000
,  // measure 25
0100
0010
0100
0000
,  // measure 26
0010
0100
0010
0000
,  // measure 27
0100
0010
0100
0000
,  // measure 28
0010
0100
0010
0000
,  // measure 29
2002
0000
0000
3003
,  // measure 30
2000
0000
0000
3000
,  // measure 31
0002
0000
0000
0003
,  // measure 32
0020
0000
0000
0030
,  // measure 33
0220
0000
0000
0330
,  // measure 34
0200
0000
0000
0300
,  // measure 35
0020
0000
0000
0030
,  // measure 36
0002
0000
0000
0003
,  // measure 37
1001
0000
0000
0000
;

//---------------dance-single - Chewi----------------
#NOTES:
     dance-single:
     Chewi:
     Beginner:
     1:
     0.060,0.089,0.030,0.060,0.000:
0000
0000
0000
0000
,
0000
0000
0000
0000
,
1000
0000
0000
0000
,
0001
0000
0000
0000
,
1001
0000
0000
0000
,
0110
0000
0000
0000
,
0010
0000
0000
0000
,
1000
0000
0000
0000
,
2000
0000
0000
0000
,
3000
0000
0000
0000
,
0002
0000
0000
0000
,
0003
0000
0000
0000
,
1000
0000
0000
0000
,
0010
0000
0000
0000
,
0001
0000
0000
0000
,
0100
0000
0000
0000
,
1000
0000
0000
0000
,
0100
0000
0000
0000
,
0001
0000
0000
0000
,
0010
0000
0000
0000
,
1000
0000
0000
0000
,
0001
0000
0000
0000
,
1000
0000
0000
0000
,
0001
0000
0000
0000
,
0100
0000
0000
0000
,
0010
0000
0000
0000
,
0100
0000
0000
0000
,
0010
0000
0000
0000
,
2000
0000
0000
3000
,
1000
0000
0000
0000
,
0002
0000
0000
0003
,
0001
0000
0000
0000
,
0200
0000
0000
0300
,
0100
0000
0000
0000
,
0020
0000
0000
0030
,
0010
0000
0000
0000
,
1001
0000
0000
0000
;
