#TITLE:cat's dance;
#SUBTITLE:;
#ARTIST:すーぱーそに子;
#TITLETRANSLIT:;
#SUBTITLETRANSLIT:;
#ARTISTTRANSLIT:Super Sonico;
#CREDIT:Chewi☆;
#BANNER:cat's dance.png;
#BACKGROUND:cat's dance-bg.png;
#LYRICSPATH:;
#CDTITLE:;
#MUSIC:cat's dance.mp3;
#OFFSET:-1.071;
#SAMPLESTART:70.712;
#SAMPLELENGTH:15.000;
#SELECTABLE:YES;
#BPMS:0.000=120.000;
#STOPS:;
#BGCHANGES:;

//---------------dance-single - Chewi----------------
#NOTES:
     dance-single:
     Chewi:
     Beginner:
     2:
     0.107,0.113,0.023,0.098,0.000: // measure 1
0000
0000
0000
0000
,  // measure 2
0000
0000
0000
0000
,  // measure 3
0000
0000
0000
0000
,  // measure 4
0000
0000
0000
0000
,  // measure 5
1000
0000
0000
0000
,  // measure 6
0100
0000
0000
0000
,  // measure 7
0010
0000
0000
0000
,  // measure 8
0001
0000
0000
0000
,  // measure 9
1001
0000
0000
0000
,  // measure 10
2000
0000
0000
3000
,  // measure 11
1000
0000
0000
0000
,  // measure 12
0002
0000
0000
0003
,  // measure 13
0001
0000
0000
0000
,  // measure 14
0200
0000
0000
0300
,  // measure 15
0100
0000
0000
0000
,  // measure 16
0020
0000
0000
0030
,  // measure 17
0010
0000
0000
0000
,  // measure 18
0010
0000
0010
0000
,  // measure 19
1000
0000
1000
0000
,  // measure 20
0010
0000
0010
0000
,  // measure 21
0001
0000
0001
0000
,  // measure 22
0100
0000
0100
0000
,  // measure 23
0001
0000
0001
0000
,  // measure 24
0100
0000
0100
0000
,  // measure 25
1000
0000
1000
0000
,  // measure 26
2000
0000
0000
3000
,  // measure 27
1000
0000
0000
0000
,  // measure 28
0002
0000
0000
0003
,  // measure 29
0001
0000
0000
0000
,  // measure 30
0020
0000
0000
0030
,  // measure 31
0010
0000
0000
0000
,  // measure 32
0200
0000
0000
0300
,  // measure 33
0100
0000
0000
0000
,  // measure 34
0110
0000
0000
0000
,  // measure 35
1001
0000
0000
0000
,  // measure 36
1000
0000
0001
0000
,  // measure 37
1000
0000
0001
0000
,  // measure 38
0100
0000
0010
0000
,  // measure 39
0100
0000
0010
0000
,  // measure 40
0100
0000
0010
0000
,  // measure 41
1000
0000
0001
0000
,  // measure 42
0001
0000
0010
0000
,  // measure 43
0100
0000
1000
0000
,  // measure 44
1000
0000
1000
0000
,  // measure 45
0010
0000
0010
0000
,  // measure 46
0100
0000
0100
0000
,  // measure 47
0001
0000
0001
0000
,  // measure 48
0100
0000
0010
0000
,  // measure 49
0100
0000
0001
0000
,  // measure 50
0010
0000
0100
0000
,  // measure 51
1000
0000
0000
0000
,  // measure 52
2000
0000
0000
3000
,  // measure 53
1000
0000
0001
0000
,  // measure 54
0002
0000
0000
0003
,  // measure 55
0001
0000
1000
0000
,  // measure 56
0200
0000
0000
0300
,  // measure 57
0100
0000
0010
0000
,  // measure 58
0020
0000
0000
0030
,  // measure 59
0010
0000
0100
0000
,  // measure 60
0200
0000
0000
0300
;

//---------------dance-single - Chewi----------------
#NOTES:
     dance-single:
     Chewi:
     Easy:
     4:
     0.166,0.180,0.008,0.173,0.000: // measure 1
0000
0000
0000
0000
,  // measure 2
0000
0000
0000
0000
,  // measure 3
0000
0000
0000
0000
,  // measure 4
0000
0000
0000
0000
,  // measure 5
0002
0000
0010
0000
,  // measure 6
0020
0033
0010
0010
,  // measure 7
0020
0000
0000
0030
,  // measure 8
0200
0000
0000
0300
,  // measure 9
2000
0000
0000
3000
,  // measure 10
0001
0000
0001
0000
,  // measure 11
0001
1000
0001
0000
,  // measure 12
1000
0000
1000
0000
,  // measure 13
1000
0001
1000
0000
,  // measure 14
0001
0000
0100
0000
,  // measure 15
1000
0010
0010
0000
,  // measure 16
0001
0000
0010
0000
,  // measure 17
1000
1000
0100
0000
,  // measure 18
0010
0010
0010
0010
,  // measure 19
0010
0100
0010
0100
,  // measure 20
0100
0100
0100
0000
,  // measure 21
1000
1000
1000
0000
,  // measure 22
0001
0001
0001
0001
,  // measure 23
1000
0001
1000
0000
,  // measure 24
1000
1000
1000
0000
,  // measure 25
0010
0010
0010
0000
,  // measure 26
2000
0000
0000
3000
,  // measure 27
0002
0000
0000
0003
,  // measure 28
2000
0000
0000
3000
,  // measure 29
0200
0000
0000
0300
,  // measure 30
0020
0000
0000
0030
,  // measure 31
0002
0000
0000
0003
,  // measure 32
0020
0000
0000
0030
,  // measure 33
0200
0000
0000
0300
,  // measure 34
2000
0000
0000
3000
,  // measure 35
2002
0000
0000
3003
,  // measure 36
0001
0100
1000
0000
,  // measure 37
1000
0100
0001
0000
,  // measure 38
1000
0010
0001
0000
,  // measure 39
0001
0010
1000
0000
,  // measure 40
1000
0001
0100
0000
,  // measure 41
0001
1000
0100
0000
,  // measure 42
1000
0001
0010
0000
,  // measure 43
0001
1000
0010
0000
,  // measure 44
0010
0100
0001
0000
,  // measure 45
0001
0100
0010
0000
,  // measure 46
0010
1000
0100
0000
,  // measure 47
0100
1000
0010
0000
,  // measure 48
1000
0001
0100
0000
,  // measure 49
0001
1000
0100
0000
,  // measure 50
0010
0100
1000
0000
,  // measure 51
0010
0100
0001
0000
,  // measure 52
0002
0000
0010
0000
,  // measure 53
0020
0033
0010
0010
,  // measure 54
0010
0000
0100
0100
,  // measure 55
0100
0000
0000
0000
,  // measure 56
2000
0000
0001
0000
,  // measure 57
0002
3003
0001
0001
,  // measure 58
0002
0000
0000
0003
,  // measure 59
0200
0000
0000
0300
,  // measure 60
0020
0000
0000
0030
;

//---------------dance-single - Chewi----------------
#NOTES:
     dance-single:
     Chewi:
     Medium:
     7:
     0.245,0.274,0.128,0.143,0.004: // measure 1
0000
0000
0000
0000
,  // measure 2
0000
0000
0000
0000
,  // measure 3
0000
0000
0000
0000
,  // measure 4
0000
0000
0000
0000
0000
0000
1000
0100
,  // measure 5
2000
0000
3200
0000
,  // measure 6
0320
0000
0000
0000
0031
0010
0001
0000
,  // measure 7
0020
0000
0000
0030
,  // measure 8
0200
0000
0000
0300
,  // measure 9
0220
0000
0000
0330
,  // measure 10
0001
0010
0100
1000
,  // measure 11
0001
1000
0001
0000
,  // measure 12
1000
0010
0100
0001
,  // measure 13
0100
0001
0100
0000
,  // measure 14
0001
1000
0100
0010
,  // measure 15
0001
0010
0001
0000
,  // measure 16
0001
0010
0100
1000
,  // measure 17
0010
1000
0010
0000
,  // measure 18
1000
0100
0010
0110
,  // measure 19
0010
0010
0010
0000
,  // measure 20
0001
0100
0010
0110
,  // measure 21
0010
0010
0010
0000
,  // measure 22
0010
1000
0001
0100
,  // measure 23
0010
0100
0101
0000
,  // measure 24
0010
0100
1000
0001
,  // measure 25
1000
0010
1010
0000
,  // measure 26
1000
0000
1000
0000
0001
0001
1000
0000
,  // measure 27
0001
0010
0100
1000
,  // measure 28
0001
0000
0001
0000
1000
1000
0001
0000
,  // measure 29
1000
0010
0100
0001
,  // measure 30
1000
0100
0010
0011
,  // measure 31
0001
0010
0100
1100
,  // measure 32
1000
0001
0100
0110
,  // measure 33
0010
0100
0001
1000
,  // measure 34
0002
0000
0000
0003
,  // measure 35
2000
0000
0000
3000
,  // measure 36
1000
0100
0010
0001
,  // measure 37
1000
0100
1000
0100
1000
0000
0000
0000
,  // measure 38
0001
0100
0010
1000
,  // measure 39
0010
1000
0010
1000
0010
0000
0000
0000
,  // measure 40
1000
0001
0010
0100
,  // measure 41
1000
0001
1000
0001
1000
0000
0000
0000
,  // measure 42
0001
1000
0010
0100
,  // measure 43
0001
0100
0001
0100
0001
0000
0000
0000
,  // measure 44
0001
0011
1000
1010
,  // measure 45
0001
0010
0100
1000
,  // measure 46
0001
0101
1000
1100
,  // measure 47
0001
0010
0100
1000
,  // measure 48
0010
0101
0010
1100
,  // measure 49
0001
0010
0100
1000
,  // measure 50
0001
0101
1000
1100
,  // measure 51
0000
0000
0000
0000
0000
0000
0001
0010
,  // measure 52
0002
0000
0023
0000
,  // measure 53
0230
0000
0000
0000
1300
0100
1000
0000
,  // measure 54
0100
0000
0000
0000
1000
0001
1000
0000
,  // measure 55
0001
0000
0000
0000
0000
0000
0001
0100
,  // measure 56
0002
0000
0203
0000
,  // measure 57
0320
0000
0000
0000
1030
0010
1000
0000
,  // measure 58
2000
0000
0000
3000
,  // measure 59
0002
0000
0000
0003
,  // measure 60
2002
0000
0000
0000
,  // measure 61
3003
0000
0000
0000
0000
0000
0000
0000
0000
1000
0000
0000
0000
0000
0000
0000
;

//---------------dance-single - Chewi----------------
#NOTES:
     dance-single:
     Chewi:
     Hard:
     10:
     0.348,0.342,0.106,0.188,0.034: // measure 1
0000
0000
0000
0000
,  // measure 2
0000
0000
0000
0000
,  // measure 3
0000
0000
0000
0000
,  // measure 4
0000
0000
0000
0000
0000
0000
1000
0010
,  // measure 5
0200
0000
0302
0000
,  // measure 6
0203
0000
0000
0000
0310
1000
0001
0010
,  // measure 7
0200
0000
0000
0300
,  // measure 8
0020
0000
0000
0030
,  // measure 9
0002
0000
0000
0003
,  // measure 10
0010
0100
1000
1100
,  // measure 11
1000
0001
1000
0000
0001
1000
0001
0000
,  // measure 12
1000
0010
0100
0101
,  // measure 13
0001
0100
0001
0000
0100
0001
0100
0000
,  // measure 14
0010
0100
0001
1001
,  // measure 15
1000
0100
0010
0000
0001
0010
0100
0000
,  // measure 16
1000
0100
1000
0000
0001
0100
0001
0000
,  // measure 17
0100
0010
1000
0001
0010
0100
1000
0010
,  // measure 18
1000
0010
1000
0000
1000
0100
1000
0000
,  // measure 19
0001
0010
0001
0000
0001
0100
0001
0000
,  // measure 20
0100
0010
1000
0000
0010
0100
0001
0000
,  // measure 21
1000
0100
0010
0000
0001
0010
0100
0000
,  // measure 22
1000
0001
1000
0001
0100
0001
1000
0000
,  // measure 23
0001
1000
0001
1000
0100
1000
0001
0000
,  // measure 24
1000
0100
0010
0001
1000
0000
1100
0000
,  // measure 25
0001
0010
0100
1000
0001
0000
0011
0000
,  // measure 26
1000
0010
0100
0001
0000
1000
0001
0000
,  // measure 27
1000
0100
1000
0000
0001
0010
0001
0000
,  // measure 28
0001
0010
0100
1000
0001
0000
1001
0000
,  // measure 29
1000
0100
0010
0001
1000
0000
1001
0000
,  // measure 30
1000
0010
0100
0001
0000
0100
0001
0000
,  // measure 31
0001
1000
0010
1000
0001
1000
0100
0000
,  // measure 32
0001
0010
0100
0000
1000
0100
0010
0000
,  // measure 33
0001
1000
0001
1000
0010
0100
0010
0100
,  // measure 34
0002
0000
0000
0003
,  // measure 35
2000
0000
0000
3000
,  // measure 36
0001
0000
0000
0010
0000
0000
0001
0000
1000
0000
0000
0100
0000
0000
1000
0000
,  // measure 37
0001
0010
0100
1000
0002
0000
1003
0000
,  // measure 38
1000
0000
0001
0000
1000
0010
1010
0000
,  // measure 39
0001
0000
0010
0000
0100
1000
1100
0000
,  // measure 40
1000
0000
0000
0010
0000
0000
1000
0000
0001
0000
0000
0010
0000
0000
0001
0000
,  // measure 41
1000
0100
0010
0001
2000
0000
3001
0000
,  // measure 42
0001
0000
1000
0000
0010
0100
0110
0000
,  // measure 43
1000
0000
0001
0000
0010
0001
0011
0000
,  // measure 44
0001
0000
0000
0001
1000
0000
0100
0000
1000
0000
0000
1000
0001
0000
0100
0000
,  // measure 45
0010
0010
0100
0100
0002
0000
0013
0000
,  // measure 46
0001
0000
0010
0000
0100
1000
1100
0000
,  // measure 47
1000
0000
0010
0000
0100
0001
0101
0000
,  // measure 48
1000
0000
0000
1000
0001
0000
0100
0000
0001
0000
0000
0001
1000
0000
0010
0000
,  // measure 49
1000
0100
0010
0001
0020
0000
0031
0000
,  // measure 50
0010
0000
0100
0000
1000
0001
1000
0001
,  // measure 51
0000
0000
0000
0000
0000
0000
0100
0010
,  // measure 52
2000
3010
0002
0013
,  // measure 53
2000
0000
3010
0000
0010
0100
0001
1000
,  // measure 54
0002
0000
0013
0000
0001
0010
0100
1000
,  // measure 55
0020
0000
1030
0000
0020
0000
0130
0001
,  // measure 56
0020
0031
0002
1003
,  // measure 57
2000
0000
3010
0000
0010
0100
0001
1000
,  // measure 58
0002
0000
0000
0003
,  // measure 59
2000
0000
0000
3000
,  // measure 60
2002
0000
0000
0000
,  // measure 61
3003
0000
0000
0000
0000
0000
0000
0000
0000
0010
0000
0000
0000
0000
0000
0000
;
