#TITLE:candii;
#SUBTITLE:;
#ARTIST:八王子P;
#TITLETRANSLIT:;
#SUBTITLETRANSLIT:;
#ARTISTTRANSLIT:Hachioji-P;
#CREDIT:Chewi☆;
#BANNER:candii.png;
#BACKGROUND:candii-bg.png;
#LYRICSPATH:;
#CDTITLE:;
#MUSIC:candii.mp3;
#OFFSET:-0.346;
#SAMPLESTART:73.074;
#SAMPLELENGTH:15.000;
#SELECTABLE:YES;
#BPMS:0.000=132.000;
#STOPS:;
#BGCHANGES:;

//---------------dance-single - Chewi----------------
#NOTES:
     dance-single:
     Chewi:
     Easy:
     4:
     0.161,0.243,0.039,0.029,0.000: // measure 1
0000
0000
0000
0000
,  // measure 2
0000
0000
0000
0000
,  // measure 3
0000
0000
0000
0000
,  // measure 4
0000
0000
0000
0000
,  // measure 5
1000
0010
0000
0000
,  // measure 6
0001
0010
0000
0000
,  // measure 7
1000
0100
0000
0000
,  // measure 8
0001
0100
0000
0000
,  // measure 9
0200
0000
0000
0000
,  // measure 10
0000
0000
0000
0000
,  // measure 11
0000
0000
0000
0000
,  // measure 12
0000
0000
0000
0300
,  // measure 13
0020
0000
0000
0000
,  // measure 14
0000
0000
0000
0000
,  // measure 15
0000
0000
0000
0000
,  // measure 16
0000
0000
0000
0030
,  // measure 17
0010
0010
0010
0010
,  // measure 18
0010
0010
0010
0010
,  // measure 19
1000
0001
1000
0000
,  // measure 20
0001
1000
0001
0000
,  // measure 21
0100
0100
0100
0100
,  // measure 22
0100
0100
0100
0100
,  // measure 23
0010
0100
0001
0000
,  // measure 24
0010
0100
1000
0000
,  // measure 25
1000
0000
0100
0000
,  // measure 26
0010
0000
0001
0000
,  // measure 27
1000
0000
0100
0000
,  // measure 28
1000
0000
1100
0000
,  // measure 29
0001
0000
0100
0000
,  // measure 30
0010
0000
1000
0000
,  // measure 31
0001
0000
0100
0000
,  // measure 32
0001
0000
0101
0000
,  // measure 33
1000
0000
0001
0000
,  // measure 34
0010
0000
0100
0000
,  // measure 35
1000
0000
0100
0000
,  // measure 36
1000
0000
1100
0000
,  // measure 37
1000
0000
0010
0000
,  // measure 38
0100
0000
0001
0000
,  // measure 39
1000
0000
0100
0000
,  // measure 40
1000
0000
1100
0000
,  // measure 41
0100
0100
0100
0000
,  // measure 42
0010
0001
0010
0000
,  // measure 43
0001
0001
0001
0000
,  // measure 44
1000
0001
1000
0000
,  // measure 45
0010
0010
0010
0000
,  // measure 46
0100
0010
1000
0000
,  // measure 47
0100
0100
0100
0000
,  // measure 48
0010
0001
0010
0000
,  // measure 49
1000
0000
0100
0000
,  // measure 50
0001
0000
0100
0000
,  // measure 51
1000
0000
0010
0000
,  // measure 52
0100
0000
1000
0000
,  // measure 53
0010
0000
0001
0000
,  // measure 54
0100
0000
1000
0000
,  // measure 55
0100
0000
0001
0000
,  // measure 56
0010
0000
0200
0000
,  // measure 57
0300
0000
0000
0000
;

//---------------dance-single - Chewi----------------
#NOTES:
     dance-single:
     Chewi:
     Hard:
     10:
     0.385,0.458,0.231,0.067,0.082:
0000
0000
0000
0000
,
0000
0000
0000
0000
,
0000
0000
0000
0000
,
0000
0000
0000
0000
,
0000
0000
1000
0000
0000
1000
0000
0000
0000
0000
1100
0000
0000
0000
0000
0000
,
0000
0000
0001
0000
0000
0001
0000
0000
0000
0000
0101
0000
0000
0000
0000
0000
,
0000
0000
1000
0000
0000
1000
0000
0000
0000
0000
1010
0000
0000
0000
0000
0000
,
0001
0000
0001
0000
0001
0010
0100
1000
,
2200
0000
0000
0000
,
0000
0000
0000
3000
,
0002
0000
0000
0000
,
0000
0000
0000
0300
,
0020
0000
0000
0000
,
0000
0000
0000
0003
,
2000
0000
0000
0000
,
3030
0000
0000
0000
,
1000
0100
1000
0000
0001
0100
0001
0000
,
1000
1010
0001
0101
,
1000
0100
1000
0000
0001
0010
0001
0000
,
0010
1100
0010
0101
,
1000
0001
0100
0000
0001
1000
0010
0000
,
1000
0010
0100
0000
0001
0010
0100
0000
,
1000
0100
0010
0001
1000
0100
0010
0001
,
0011
0000
0000
0000
,
0001
0000
0000
0010
0000
0000
0100
0000
,
0000
1000
0000
0000
0010
0000
0110
0000
,
0000
0000
1000
0000
0000
0010
0000
0000
0000
0000
1001
0000
0000
0000
0000
0000
,
0000
0000
0001
0000
0000
0010
0000
0000
1001
0000
0000
0000
1000
0001
1000
0001
,
1000
0000
0000
0100
0000
0000
0010
0000
,
0000
0001
0000
0000
0001
0000
0101
0000
,
0000
0000
0100
0000
0000
0010
0000
0000
0000
0000
1010
0000
0000
0000
0000
0000
,
1000
0000
0100
0000
0010
0000
0001
0000
0010
0000
0100
0000
1000
0100
1000
0100
,
1000
0000
0000
0100
0000
0000
0010
0000
,
0000
0001
0000
0000
0100
0000
0101
0000
,
0001
0000
0000
0010
0000
0000
0100
0000
,
0000
0000
1000
0000
0000
1000
0000
0000
1001
0000
0000
0000
0001
0100
0001
0100
,
0001
0000
0000
0010
0000
0000
0100
0000
,
0000
1000
0000
0000
0001
0000
1001
0000
,
0001
0000
0000
0010
0000
0000
0100
0000
0000
1000
0000
0000
1100
0000
0000
0000
,
1000
0000
0000
0010
0000
0000
0100
0000
0000
0001
0000
0000
0011
0000
0000
0000
,
0001
0010
0001
0010
0100
1000
0100
1000
,
0001
1000
0001
1000
0010
0100
0101
0000
,
0001
0100
0001
0100
0010
1000
0010
1000
,
0100
0010
0100
0010
0001
0010
0011
0000
,
1000
0010
1000
0010
0100
0001
0100
0001
,
1000
0001
1000
0001
1000
0100
1100
0000
,
1000
0100
1000
0100
0010
0001
0010
0001
,
0010
0100
0010
0100
1000
0100
1100
0000
,
1000
0001
1000
0001
1000
0010
1000
0010
,
1000
0001
1000
0001
1000
0100
1000
0100
,
1000
0001
0100
0010
1000
0001
0100
0010
,
1000
0001
0010
0100
1000
0001
0010
0100
,
0010
0100
0010
0100
0010
0001
0010
0001
,
0010
0100
0010
0100
0010
1000
0010
1000
,
0010
0100
0010
0100
1000
0001
1000
0001
,
0100
0010
0100
0010
0000
0100
0220
0000
,
0330
0000
0000
0000
;

//---------------dance-single - Chewi----------------
#NOTES:
     dance-single:
     Chewi:
     Medium:
     6:
     0.259,0.296,0.125,0.067,0.000:
0000
0000
0000
0000
,
0000
0000
0000
0000
,
0000
0000
0000
0000
,
0000
0000
0000
0000
,
1000
0100
0001
0010
,
1000
0100
0001
0010
,
1000
0100
0001
0010
,
1000
0100
0001
0010
,
0020
0000
0000
0000
,
0000
0000
0000
0000
,
0230
0000
0000
0000
,
0000
0000
0000
0000
,
0302
0000
0000
0000
,
0000
0000
0000
0000
,
2003
0000
0000
0000
,
3001
0000
0000
0000
,
1000
0100
1000
1100
,
0001
0010
0001
0011
,
0010
0100
0010
0110
,
0100
0010
0100
0110
,
0010
0100
1000
1100
,
1000
0001
0100
0101
,
0100
0010
0100
0001
,
0202
0000
0000
0303
,
0001
0000
0000
0001
0000
0000
0001
0000
,
0000
1000
0000
0000
1000
0000
0000
0000
,
1000
0100
0001
0100
,
1000
0100
1100
0000
,
1000
0000
0000
1000
0000
0000
1000
0000
,
0000
0001
0000
0000
0001
0000
0000
0000
,
0001
0010
1000
0010
,
1010
0000
0101
0000
,
1000
0100
0001
0100
,
1000
0010
0001
0010
,
1000
0100
1000
1100
,
0001
0100
0001
0101
,
0100
0010
0100
0001
,
0100
0010
0100
0001
,
0010
0010
0100
0100
,
1000
0100
0001
1001
,
1000
0100
1000
0100
,
0001
0100
0001
0100
,
1000
0100
0001
0100
,
1000
0010
0001
0100
,
0010
0001
0100
0001
,
0010
0001
0100
0001
,
0010
0100
1000
0001
,
0010
0100
1000
0001
,
1000
0100
1000
0010
,
1000
0001
0100
0010
,
0100
0001
0010
0001
,
0100
0010
1000
0001
,
0010
1000
0100
0001
,
0010
1000
0100
0001
,
0010
1000
0100
0001
,
0010
1000
0020
0000
,
0030
0000
0000
0000
;

//---------------dance-single - Chewi----------------
#NOTES:
     dance-single:
     Chewi:
     Beginner:
     2:
     0.121,0.134,0.000,0.019,0.000: // measure 1
0000
0000
0000
0000
,  // measure 2
0000
0000
0000
0000
,  // measure 3
0000
0000
0000
0000
,  // measure 4
0000
0000
0000
0000
,  // measure 5
1000
0000
0000
0000
,  // measure 6
0001
0000
0000
0000
,  // measure 7
1000
0000
0000
0000
,  // measure 8
0001
0000
0000
0000
,  // measure 9
0200
0000
0000
0000
,  // measure 10
0000
0000
0000
0000
,  // measure 11
0000
0000
0000
0000
,  // measure 12
0000
0000
0000
0300
,  // measure 13
0020
0000
0000
0000
,  // measure 14
0000
0000
0000
0000
,  // measure 15
0000
0000
0000
0000
,  // measure 16
0000
0000
0000
0030
,  // measure 17
0010
0000
0010
0000
,  // measure 18
0010
0000
0010
0000
,  // measure 19
1000
0000
1000
0000
,  // measure 20
0001
0000
0001
0000
,  // measure 21
0100
0000
0100
0000
,  // measure 22
0100
0000
0100
0000
,  // measure 23
0010
0000
0001
0000
,  // measure 24
0010
0000
1000
0000
,  // measure 25
1000
0000
0100
0000
,  // measure 26
0010
0000
0001
0000
,  // measure 27
1000
0000
0100
0000
,  // measure 28
1000
0000
0100
0000
,  // measure 29
0001
0000
0100
0000
,  // measure 30
0010
0000
1000
0000
,  // measure 31
0001
0000
0100
0000
,  // measure 32
0001
0000
0100
0000
,  // measure 33
1000
0000
0001
0000
,  // measure 34
0010
0000
0100
0000
,  // measure 35
1000
0000
0100
0000
,  // measure 36
1000
0000
1000
0000
,  // measure 37
1000
0000
0010
0000
,  // measure 38
0100
0000
0001
0000
,  // measure 39
1000
0000
0100
0000
,  // measure 40
1000
0000
0100
0000
,  // measure 41
0100
0000
0100
0000
,  // measure 42
0010
0000
0010
0000
,  // measure 43
0001
0000
0001
0000
,  // measure 44
1000
0000
1000
0000
,  // measure 45
0010
0000
0010
0000
,  // measure 46
0100
0000
1000
0000
,  // measure 47
0100
0000
0100
0000
,  // measure 48
0010
0000
0010
0000
,  // measure 49
1000
0000
0100
0000
,  // measure 50
0001
0000
0100
0000
,  // measure 51
1000
0000
0010
0000
,  // measure 52
0100
0000
1000
0000
,  // measure 53
0010
0000
0001
0000
,  // measure 54
0100
0000
1000
0000
,  // measure 55
0100
0000
0001
0000
,  // measure 56
0010
0000
0100
0000
;
