#TITLE:bloomin' feeling;
#SUBTITLE:;
#ARTIST:Ryu☆;
#TITLETRANSLIT:;
#SUBTITLETRANSLIT:;
#ARTISTTRANSLIT:;
#GENRE:;
#CREDIT:Chewi☆;
#MENUCOLOR:#FFFFFF;
#METERTYPE:DDR X;
#BANNER:bloomin' feeling.png;
#BACKGROUND:bloomin' feeling-bg.png;
#LYRICSPATH:;
#CDTITLE:./CDTITLES/DanceDanceRevolution skyMIX2 -FREEDOM-.png;
#MUSIC:bloomin' feeling.mp3;
#OFFSET:-1.697;
#SAMPLESTART:12.304;
#SAMPLELENGTH:15.000;
#SELECTABLE:YES;
#LISTSORT:;
#DISPLAYBPM:181.000;
#BPMS:0.000=181.000;
#STOPS:;
#BGCHANGES:-12.000=X2_Louis-Concent III.avi=1.000=0=0=1,
99999=-nosongbg-=1.000=0=0=0 // don't automatically add -songbackground-
;
#ATTACKS:;

//---------------dance-single - Chewi----------------
#NOTES:
     dance-single:
     Chewi:
     Beginner:
     3:
     0.191,0.216,0.000,0.010,0.000: // measure 1
0000
0000
0000
0000
,  // measure 2
0000
0000
0000
0000
,  // measure 3
0000
0000
0000
0000
,  // measure 4
0000
0000
0000
0000
,  // measure 5
1000
0000
0010
0000
,  // measure 6
1000
0000
1000
0000
,  // measure 7
0001
0000
0010
0000
,  // measure 8
0010
0000
0010
0000
,  // measure 9
0100
0000
1000
0000
,  // measure 10
0010
0000
0010
0000
,  // measure 11
0001
0000
0100
0000
,  // measure 12
0100
0000
0100
0000
,  // measure 13
1000
0000
0100
0000
,  // measure 14
0100
0000
0100
0000
,  // measure 15
0010
0000
0001
0000
,  // measure 16
0100
0000
0100
0000
,  // measure 17
0010
0000
1000
0000
,  // measure 18
0001
0000
0001
0000
,  // measure 19
0001
0000
0001
0000
,  // measure 20
1000
0000
1000
0000
,  // measure 21
0100
0000
0001
0000
,  // measure 22
0010
0000
0010
0000
,  // measure 23
0100
0000
0100
0000
,  // measure 24
0010
0000
0010
0000
,  // measure 25
1000
0000
1000
0000
,  // measure 26
0010
0000
1000
0000
,  // measure 27
0010
0000
0010
0000
,  // measure 28
1000
0000
1000
0000
,  // measure 29
0001
0000
0001
0000
,  // measure 30
0010
0000
0010
0000
,  // measure 31
0001
0000
0001
0000
,  // measure 32
0100
0000
0100
0010
,  // measure 33
0001
0000
0100
0000
,  // measure 34
0001
0000
0100
0000
,  // measure 35
0001
0000
0010
0000
,  // measure 36
0001
0000
0010
0000
,  // measure 37
0001
0000
0001
0000
,  // measure 38
0100
0000
0100
0000
,  // measure 39
1000
0000
0010
0000
,  // measure 40
1000
0000
0010
0000
,  // measure 41
1000
0000
0001
0000
,  // measure 42
0010
0000
0010
0000
,  // measure 43
0100
0000
1000
0000
,  // measure 44
0010
0000
0010
0000
,  // measure 45
0010
0000
1000
0000
,  // measure 46
0010
0000
0010
0000
,  // measure 47
0001
0000
0100
0000
,  // measure 48
0010
0000
0010
0000
,  // measure 49
0100
0000
0010
0000
,  // measure 50
0001
0000
0100
0000
,  // measure 51
0010
0000
0100
0000
,  // measure 52
0001
0000
0010
0000
,  // measure 53
0100
0000
0010
0000
,  // measure 54
0001
0000
0100
0000
,  // measure 55
1000
0000
0100
0000
,  // measure 56
0010
0000
1000
0000
,  // measure 57
0010
0000
1000
0000
,  // measure 58
0100
0000
0100
0000
,  // measure 59
1000
0000
0010
0000
,  // measure 60
1000
0000
1000
0000
,  // measure 61
1000
0000
0100
0000
,  // measure 62
0001
0000
0001
0000
,  // measure 63
0100
0000
1000
0000
,  // measure 64
0010
0000
0010
0000
,  // measure 65
0100
0000
0010
0000
,  // measure 66
0100
0000
0001
0000
,  // measure 67
0100
0000
0010
0000
,  // measure 68
0001
0000
0001
0000
,  // measure 69
0010
0000
1000
0000
,  // measure 70
0010
0000
0100
0000
,  // measure 71
0010
0000
0001
0000
,  // measure 72
0100
0000
0100
0000
,  // measure 73
0020
0000
0000
0000
,  // measure 74
0000
0000
0000
0000
,  // measure 75
0000
0000
0000
0000
,  // measure 76
0030
0000
0000
0000
;

//---------------dance-single - Chewi----------------
#NOTES:
     dance-single:
     Chewi:
     Easy:
     5:
     0.347,0.324,0.000,0.010,0.000: // measure 1
0000
0000
0000
0000
,  // measure 2
0000
0000
0000
0000
,  // measure 3
0000
0000
0000
0000
,  // measure 4
0000
0000
0000
0000
,  // measure 5
1000
0100
0010
0001
,  // measure 6
1000
1000
1000
0000
,  // measure 7
0001
1000
0010
0100
,  // measure 8
0010
0010
0010
0000
,  // measure 9
0100
0010
1000
0001
,  // measure 10
0010
0010
0010
0000
,  // measure 11
0001
0010
0100
1000
,  // measure 12
0100
0100
0100
0000
,  // measure 13
1000
0001
0100
0010
,  // measure 14
0100
0100
0100
0000
,  // measure 15
0010
1000
0001
0010
,  // measure 16
0100
0100
0100
0000
,  // measure 17
0010
0001
1000
0100
,  // measure 18
0001
1000
0001
0000
,  // measure 19
0001
0100
0001
0010
,  // measure 20
1000
0100
1000
0000
,  // measure 21
0100
0010
0001
1000
,  // measure 22
0010
0010
0010
0000
,  // measure 23
0100
0001
0100
1000
,  // measure 24
0010
0010
0010
0000
,  // measure 25
1000
0001
1000
0001
,  // measure 26
0010
0100
1000
0100
,  // measure 27
0010
0001
0010
0001
,  // measure 28
1000
0100
1000
0100
,  // measure 29
0001
0100
0001
0100
,  // measure 30
0010
1000
0010
1000
,  // measure 31
0001
1000
0001
1000
,  // measure 32
0100
0010
0100
0010
,  // measure 33
0001
0010
0100
1000
,  // measure 34
0001
0010
0100
1000
,  // measure 35
0001
0100
0010
1000
,  // measure 36
0001
0100
0010
1000
,  // measure 37
0001
1000
0001
1000
,  // measure 38
0100
0010
0100
0010
,  // measure 39
1000
0100
0010
0001
,  // measure 40
1000
0100
0010
0001
,  // measure 41
1000
0100
0001
0100
,  // measure 42
0010
0010
0010
0000
,  // measure 43
0100
0010
1000
0001
,  // measure 44
0010
0100
0010
0000
,  // measure 45
0010
0001
1000
0100
,  // measure 46
0010
0010
0010
0000
,  // measure 47
0001
0010
0100
1000
,  // measure 48
0010
0010
0010
0000
,  // measure 49
0100
0100
0010
1000
,  // measure 50
0001
1000
0100
0000
,  // measure 51
0010
0010
0100
1000
,  // measure 52
0001
0100
0010
0000
,  // measure 53
0100
0100
0010
1000
,  // measure 54
0001
0010
0100
0000
,  // measure 55
1000
1000
0100
0100
,  // measure 56
0010
0001
1000
0010
,  // measure 57
0010
0010
1000
0001
,  // measure 58
0100
0100
0100
0010
,  // measure 59
1000
0001
0010
0100
,  // measure 60
1000
1000
1000
0000
,  // measure 61
1000
1000
0100
0010
,  // measure 62
0001
0001
0001
0000
,  // measure 63
0100
0010
1000
0001
,  // measure 64
0010
0010
0010
0000
,  // measure 65
0100
0100
0010
0001
,  // measure 66
0100
0100
0001
0010
,  // measure 67
0100
1000
0010
0100
,  // measure 68
0001
1000
0001
0000
,  // measure 69
0010
0100
1000
0100
,  // measure 70
0010
0001
0100
1000
,  // measure 71
0010
0100
0001
1000
,  // measure 72
0100
0100
0100
0100
,  // measure 73
0020
0000
0000
0000
,  // measure 74
0000
0000
0000
0000
,  // measure 75
0000
0000
0000
0000
,  // measure 76
0030
0000
0000
0000
;

//---------------dance-single - Chewi----------------
#NOTES:
     dance-single:
     Chewi:
     Medium:
     8:
     0.447,0.432,0.336,0.067,0.000: // measure 1
0000
0000
0000
0000
,  // measure 2
0000
0000
0000
0000
,  // measure 3
0000
0000
0000
0000
,  // measure 4
0000
0000
0000
0000
,  // measure 5
1000
0000
0100
0000
0010
0001
0010
0000
,  // measure 6
1100
0101
1100
0000
,  // measure 7
0001
0000
0100
0000
0010
1000
0010
0000
,  // measure 8
1010
0011
1010
0000
,  // measure 9
1000
0000
0001
0000
0010
0100
0010
0000
,  // measure 10
0001
0100
1000
0010
,  // measure 11
0100
0000
0010
0000
0100
0010
0100
0000
,  // measure 12
1000
0100
0001
0010
,  // measure 13
0100
0000
0010
0000
0001
0010
0100
0000
,  // measure 14
1000
0010
0001
0100
,  // measure 15
1000
0000
0100
0000
1000
0100
0010
0000
,  // measure 16
0100
1000
0010
0100
,  // measure 17
0001
0101
1000
1100
,  // measure 18
0010
0100
1000
0001
,  // measure 19
0100
0110
0010
0110
,  // measure 20
0010
1000
0100
0001
,  // measure 21
0010
0100
0010
0001
,  // measure 22
0100
1000
0010
1000
,  // measure 23
0100
0010
0001
1000
,  // measure 24
0010
0100
0010
0000
0110
0000
0000
0000
,  // measure 25
1000
0000
0100
0000
0001
0010
0001
0000
,  // measure 26
1000
0100
1000
0100
,  // measure 27
0001
0000
0100
0000
1000
0010
1000
0000
,  // measure 28
0010
1000
0010
1000
,  // measure 29
0001
0000
1000
0000
0100
0010
0100
0000
,  // measure 30
0010
0001
0100
1000
,  // measure 31
0010
0000
0100
0000
0010
0100
0010
0000
,  // measure 32
0010
1000
0100
0001
,  // measure 33
0010
0000
0100
0000
0100
0100
0100
0000
,  // measure 34
0010
0000
0100
0000
0010
0010
0010
0000
,  // measure 35
0001
1000
0100
1100
,  // measure 36
1000
0001
0100
0101
,  // measure 37
0100
0000
0010
0000
1000
0001
1000
0000
,  // measure 38
0010
0000
0100
0000
1000
0001
1000
0000
,  // measure 39
2000
3200
0320
0032
,  // measure 40
0203
0000
0000
0300
,  // measure 41
0010
0000
1000
0000
0010
0100
0000
0000
,  // measure 42
0001
0000
0010
0000
0100
1000
0000
0000
,  // measure 43
1000
0000
0100
0000
0010
0001
0000
0000
,  // measure 44
1001
1001
1001
0000
,  // measure 45
1000
0000
0010
0000
0100
0001
0000
0000
,  // measure 46
0100
0000
1000
0000
0010
1000
0000
0000
,  // measure 47
0010
0000
0100
0000
0001
1000
0000
0000
,  // measure 48
1001
0110
1001
0000
,  // measure 49
1000
0100
0010
0001
,  // measure 50
1000
1100
0101
0000
,  // measure 51
0001
0100
0010
1000
,  // measure 52
1010
0011
1010
0000
,  // measure 53
1000
0001
0010
0100
,  // measure 54
1000
1100
0101
0000
,  // measure 55
1000
0100
0010
0001
,  // measure 56
0101
1010
0101
0000
,  // measure 57
1000
0010
0100
0001
,  // measure 58
0010
0100
0010
0000
0100
0010
0100
0000
,  // measure 59
0010
0001
0100
1000
,  // measure 60
0010
0100
0010
0100
0010
0000
0000
0000
,  // measure 61
1000
0000
0100
0000
0010
0001
0010
0000
,  // measure 62
0100
0000
1000
0000
0001
0100
0001
0000
,  // measure 63
0100
0010
1000
0001
,  // measure 64
0010
0100
0010
0100
0010
0000
0000
0000
,  // measure 65
0011
0000
0101
0000
0100
0100
0100
0000
,  // measure 66
0010
1000
0100
0001
,  // measure 67
0010
0100
0010
0001
,  // measure 68
0100
0010
1000
1001
,  // measure 69
1010
0000
0101
0000
0100
0100
0100
0000
,  // measure 70
0010
1000
0100
0001
,  // measure 71
0010
0100
0010
0001
,  // measure 72
1000
0010
0100
0001
,  // measure 73
0220
0000
0000
0000
,  // measure 74
0000
0000
0000
0000
,  // measure 75
0000
0000
0000
0000
,  // measure 76
0330
0000
0000
0000
;

//---------------dance-single - Chewi----------------
#NOTES:
     dance-single:
     Chewi:
     Hard:
     12:
     0.713,0.648,0.192,0.576,0.000:
0000
0000
0000
0000
,
0000
0000
0000
0000
,
0000
0000
0000
0000
,
0000
0000
0000
0000
,
2000
0000
3020
0000
0031
0010
1000
0100
,
0002
0023
0230
0000
,
0310
1000
0100
1000
0010
0100
0001
0010
,
0100
0010
0100
0010
0002
1000
1003
0000
,
0102
0000
0203
0000
0301
0010
0100
1000
,
0200
0320
0032
0000
,
0013
0100
1000
0000
1000
0100
0010
0001
,
0100
0100
0010
0010
2002
0000
3003
0000
,
0012
0000
2003
0000
3100
1000
0010
0100
,
0001
0001
0100
0100
0220
0000
0330
0000
,
0010
0100
0010
0000
0001
0010
0100
1000
,
0010
0010
0100
0010
0100
0000
0110
0000
,
2001
0000
3002
0000
1003
0100
0010
1000
,
0002
0023
0230
0000
,
1300
0100
1000
0000
0010
1000
0100
0010
,
0001
0010
0100
1000
2020
0000
3030
0000
,
0102
0000
0203
0000
0310
1000
0001
0010
,
0100
0010
0002
0000
0023
0000
0000
0000
,
0130
1000
0010
0100
0001
0010
0100
0010
,
0001
1000
0001
1000
2002
0000
3003
0000
,
1000
0010
0100
0001
0100
0010
0010
0000
,
1000
0100
0010
0001
0010
0100
0100
0000
,
0010
0001
0100
0001
0010
0100
1000
0010
,
1000
0100
0010
0001
1000
0010
0100
0001
,
0100
0010
0100
0001
0010
0100
0100
0000
,
0100
1000
0010
1000
0100
0100
0100
0000
,
0010
0001
1000
0010
0100
0001
0100
0010
,
1000
0001
1000
0001
0010
0001
0010
0001
,
1000
0100
0010
0001
1000
0100
0010
0001
,
1000
0010
0100
0001
1000
0010
0100
0001
,
1000
0100
0001
0010
1000
0100
0001
0010
,
1000
0010
1000
0010
0001
0010
0001
0010
,
0001
0010
0100
1000
0001
0010
0100
1000
,
0001
0100
0010
1000
0001
0100
0010
1000
,
0100
1000
0010
0001
0100
0001
0010
0100
,
1000
0100
1000
0100
0001
0100
0001
0100
,
0020
0000
2030
0000
3010
0100
1000
0100
,
0020
0032
0203
0000
,
1300
0001
0010
0000
0100
0001
1000
0010
,
0100
0001
0100
0010
1000
0001
0010
0000
,
0200
0000
0302
0000
0203
0000
1300
0010
,
0001
0100
1000
0010
0100
0000
0101
0000
,
0100
0010
1000
0001
0010
0100
1000
0001
,
1000
1000
0010
0010
0100
0001
0100
0000
,
0002
0000
0203
0000
1300
0100
0010
0001
,
0020
0230
2300
0000
,
3100
0000
0010
0000
1000
0010
0001
0010
,
1000
0100
0010
0001
0010
0100
0011
0000
,
0200
0000
2300
0000
3001
0100
1000
0010
,
0100
0001
0100
0010
1000
0001
0011
0000
,
0100
0010
0100
0010
0001
1000
0001
1000
,
0001
0100
0010
1000
0002
1000
1003
0000
,
2100
0000
3002
0000
0013
0001
0100
0010
,
1000
1000
0010
0010
0110
0000
0001
0000
,
0100
0010
0100
0000
1000
0100
0010
0001
,
0100
0100
0010
0100
0020
0000
0030
0000
,
0201
0000
0320
0000
1030
0010
0100
0001
,
1000
1000
0100
0100
0220
0000
0330
0000
,
0010
0000
0001
0000
0100
0001
0010
0100
,
1000
0100
0010
0001
0200
0010
0310
0000
,
2010
0000
3020
0000
0130
0001
1000
0100
,
0010
0100
1000
0000
1100
0000
0010
0000
,
0010
0001
0100
0010
1000
0100
0010
0100
,
1000
0001
1000
0001
2002
0000
3003
0000
,
0001
0100
0010
1000
0010
0100
0100
0010
,
0001
0010
0100
1000
0100
0000
0010
1000
,
0100
1000
0010
1000
0100
0010
0001
0100
,
0001
0010
0100
1000
0001
0100
0010
1000
,
2002
0000
0000
0000
,
0000
0000
0000
0000
,
0000
0000
0000
0000
,
3003
0000
0000
0000
;

//---------------techno-single4 - Copied from----------------
#NOTES:
     techno-single4:
     Copied from:
     Medium:
     1:
     0.000,0.000,0.000,0.000,0.000:
0000
0000
0000
0000
;

//---------------techno-single4 - Copied from----------------
#NOTES:
     techno-single4:
     Copied from:
     Hard:
     1:
     0.000,0.000,0.000,0.000,0.000:
0000
0000
0000
0000
;

//---------------techno-single4 - Copied from----------------
#NOTES:
     techno-single4:
     Copied from:
     Challenge:
     1:
     0.000,0.000,0.000,0.000,0.000:
0000
0000
0000
0000
;

//---------------techno-single5 - ----------------
#NOTES:
     techno-single5:
     :
     Beginner:
     2:
     0.000,0.000,0.000,0.000,0.000:
00000
00000
00000
00000
;

//---------------techno-single5 - ----------------
#NOTES:
     techno-single5:
     :
     Easy:
     1:
     0.000,0.000,0.000,0.000,0.000:
00000
00000
00000
00000
;

//---------------techno-single5 - Copied from----------------
#NOTES:
     techno-single5:
     Copied from:
     Medium:
     1:
     0.000,0.000,0.000,0.000,0.000:
00000
00000
00000
00000
;

//---------------techno-single5 - Copied from----------------
#NOTES:
     techno-single5:
     Copied from:
     Hard:
     1:
     0.000,0.000,0.000,0.000,0.000:
00000
00000
00000
00000
;

//---------------techno-single5 - Copied from----------------
#NOTES:
     techno-single5:
     Copied from:
     Challenge:
     1:
     0.000,0.000,0.000,0.000,0.000:
00000
00000
00000
00000
;
